#TITLE:bury a friend;
#ARTIST:Billie Eilish;
#BANNER:bury a friend-bn.png;
#BACKGROUND:bury a friend-bg.png;
#JACKET:bury a friend-jacket.png;
#MUSIC:bury a friend.ogg;
#OFFSET:1.125;
#SAMPLESTART:7.89;
#SAMPLELENGTH:20;
#LASTBEATHINT:0.234;
#DISPLAYBPM:120;
#BPMS:0=120;
#STOPS:47.66667=1,87.33334=1,101.33334=1,170=0.5,177=0.5,184=0.5;
#BGCHANGES:;

//---------------dance-single - ----------------
#NOTES:
     dance-single:
     :
     Beginner:
     3:
     :
0000
0000
0000
0000
,
0000
0000
0000
0000
,
0000
0000
0000
0000
,
0000
0000
0000
0000
,
0000
0000
1000
0000
,
0001
0000
0010
0000
,
0001
0000
0100
0000
,
0010
0000
1000
0000
,
0100
0000
0010
0000
,
0001
0000
0100
0000
,
0001
0000
0010
0000
,
1000
0000
0100
0000
,
0000
0000
0000
0010
,
0000
0010
0000
0000
,
0001
0000
0000
0100
,
0000
0010
0000
1000
,
0000
0001
0000
0010
,
0000
0010
0000
0000
,
0100
0000
0000
1000
,
0000
0010
0000
1000
,
0000
0001
0000
0000
,
0010
0000
0100
0100
,
0000
0000
1000
0000
,
0001
0001
0000
0000
,
0010
0000
1000
0000
,
0100
0100
0000
0000
,
1000
0000
0001
0001
,
0000
0000
0010
0000
,
0000
0000
0001
0000
,
0000
0000
0100
0000
,
0000
0000
0010
0000
,
0000
0000
1000
0000
,
1000
0000
0001
0000
,
0001
0000
1000
0000
,
0100
0000
0010
0000
,
0000
0000
0001
0000
,
0100
0000
1000
1000
,
1000
0000
0000
0000
,
0010
0000
0100
0100
,
0100
0000
0000
0000
,
0001
0000
0010
0010
,
0010
0000
0000
0000
,
0100
0000
1000
0000
,
0000
1001
0000
0000
,
0000
0000
0000
0000
,
0110
0000
0000
0000
,
0000
0000
0000
1000
,
0000
0001
0000
0100
,
0000
0000
0000
0010
,
0000
1000
0000
0001
,
0000
0100
0000
0100
,
0000
0010
0000
1000
,
0000
0010
0000
1000
,
0000
0100
0000
0001
,
0000
0010
0000
0001
,
0000
1000
0000
0010
,
0000
0100
0000
0010
,
0000
1000
0000
0001
;

//---------------dance-single - ----------------
#NOTES:
     dance-single:
     :
     Easy:
     6:
     :
0000
0000
0000
0000
,
0000
0000
0000
0000
,
0000
0000
0000
0000
,
0000
0000
0000
0000
,
0000
0000
1000
0001
,
0010
0100
0010
0001
,
0100
0010
1000
0001
,
1000
0100
1000
0001
,
0100
0000
0010
0100
,
0010
1000
0100
0010
,
0001
1000
0010
0100
,
0010
1000
0100
0001
,
0000
0110
1001
0010
,
0000
0010
0000
0000
,
1000
0100
0000
0001
,
0010
0001
0100
0100
,
0010
0010
1001
1000
,
0000
0001
0000
0000
,
0010
0010
0000
0001
,
0000
0100
1000
1000
,
0001
0001
0110
0001
,
0100
0010
1000
1000
,
1001
0010
0001
1000
,
0100
0100
0000
0000
,
0110
0001
0100
1000
,
0010
0010
1001
0100
,
0010
1000
0001
0001
,
0100
0000
0010
0000
,
1000
0000
0001
1000
,
0100
0000
0010
0000
,
0001
0000
0100
0010
,
0100
0000
0001
0001
,
1000
0000
0100
0100
,
0010
0000
0100
0100
,
1000
0000
0010
0010
,
0001
0110
1001
0010
,
1000
0000
0100
0100
,
1000
0001
0000
0010
,
0110
0000
0001
0100
,
1000
0010
0100
0001
,
1000
0000
0010
0010
,
1000
0001
0000
0110
,
1001
0000
0100
0000
,
0000
0020
0000
0000
,
0000
0130
0001
0001
,
2000
0000
0000
0000
,
3001
1000
0100
0020
,
0001
0000
0031
1000
,
0010
1000
0001
0200
,
0010
0000
0310
0000
,
0000
1000
0100
0010
,
0100
1000
0010
1000
,
0001
0010
0001
0010
,
0100
1000
0010
0001
,
0000
1000
0001
1000
,
0010
0100
0001
0010
,
0100
0010
0001
0100
,
0010
1000
0100
0001
;

//---------------dance-single - ----------------
#NOTES:
     dance-single:
     :
     Medium:
     9:
     :
0000
0000
0000
0000
,
0000
0000
0000
0000
,
0000
0000
0000
0000
,
0000
0000
0000
0000
,
0000
0000
0000
0000
0000
0000
1000
0000
0010
0100
0000
0001
,
0000
0000
0010
0100
0000
0000
1000
0000
0001
0100
0000
0010
,
0000
0000
1000
0001
0000
0000
0010
0000
0100
0010
0000
0001
,
0000
0000
1000
0010
0000
0000
1000
0000
0100
0010
0000
0001
,
0000
0000
0000
0000
0000
0000
0010
0000
1000
0001
0000
0100
,
0000
0000
0010
0100
0000
0000
0001
0000
0010
0100
0000
1000
,
0000
0000
0100
1000
0000
0000
0010
0000
0100
0001
0000
1000
,
0000
0000
1000
0010
0000
0000
1000
0000
0100
0010
0000
0001
,
0000
0000
0000
0110
0000
0000
1001
0000
0000
0010
0000
1000
,
0000
0000
0100
0010
0000
0000
0000
0000
0000
0000
0000
0000
,
0001
0100
0001
0100
0000
0000
0000
0000
0000
0010
0000
1000
,
0100
0000
1000
0001
0000
0000
0010
0000
0001
0100
0000
0000
,
0001
0000
1000
0010
0000
0000
0101
0000
0000
1000
0000
0100
,
0000
0000
0010
0001
0000
0000
0000
0000
0000
0000
0000
0000
,
0010
1000
0010
1000
0000
0000
0000
0000
0000
1100
0000
0000
,
1000
0001
1000
0001
0000
0000
0100
0000
0001
0010
0000
0000
,
0100
0000
1000
0010
0000
0000
0110
0000
0000
1000
0000
0010
,
1000
0000
0010
1000
0000
0100
0010
0000
0001
0000
0100
0000
,
1001
0000
0000
0010
0000
1000
0100
0000
1000
0100
0000
0010
,
0001
0000
1000
0000
0010
0000
0000
0000
0000
0000
0000
0000
,
0101
0000
0000
0010
0000
0010
1000
0000
1000
0100
0000
0100
,
0010
0000
0001
0000
0100
0000
1010
0000
0000
1000
0000
0010
,
1000
0000
0010
0100
0000
0010
1000
0000
0001
0000
0100
0000
,
0000
0000
0001
0100
,
1000
0010
0100
0001
,
1000
0000
0000
0100
0000
0100
0010
0000
0000
0001
0000
0000
,
0100
0001
1000
0100
,
0001
0000
0000
0010
0000
0010
0100
0000
0000
1000
0000
0000
,
0001
0000
0000
1000
0000
0010
0100
0000
0000
0010
0000
0000
,
1000
0001
0010
0001
,
0100
0010
1000
0100
,
0001
0000
0000
0011
0000
0000
1100
0000
0000
0001
1000
0001
,
1000
0000
0000
0000
0000
0000
0010
0000
1000
0100
0000
0000
,
2000
0000
0000
3002
0000
0000
0003
0000
0000
0010
0001
0010
,
0001
0000
0000
0000
0000
0000
0100
0000
0010
1000
0000
0000
,
0002
0000
0000
0203
0000
0000
0300
0000
0000
0010
1000
0010
,
1000
0000
0000
0000
0000
0000
0100
0000
1000
0001
0000
0000
,
2000
0000
0000
3020
0000
0000
0030
0000
0000
0100
0001
0100
,
0001
0000
1001
0010
,
0010
2000
0000
0002
,
3000
0000
0000
0203
0000
0000
0310
0000
1000
0010
0000
1000
,
0002
0000
0023
0000
,
0230
1000
1300
1002
,
0013
0000
0000
2000
0000
0000
3001
0000
1000
0100
0000
0000
,
0011
1000
1010
0002
,
0103
0020
1030
1100
,
0101
0000
0000
1000
0000
0010
0100
0000
0001
0000
0000
0010
,
0100
0000
0000
1000
0000
0100
1000
0000
0001
0000
0000
0100
,
0010
0000
0000
0100
0000
0001
0010
0000
0100
0000
0000
1000
,
0001
0000
0000
1000
0000
0100
0010
0000
0001
0000
0000
0000
,
0000
0000
0000
0100
0000
0010
0100
0000
0001
0000
0000
1000
,
0001
0000
0000
0010
0000
0100
0010
0000
0001
0000
0000
1000
,
0001
0000
0000
1000
0000
0010
0100
0000
0001
0000
0000
0001
,
0010
0000
0000
1000
0000
0100
0010
0000
0001
0000
0000
0000
;

//---------------dance-single - ----------------
#NOTES:
     dance-single:
     :
     Hard:
     12:
     :
0000
0000
0000
0000
,
0000
0000
0000
0000
,
0000
0000
0000
0000
,
0000
0000
0000
0000
,
0000
0000
0000
0000
0000
0000
1000
0000
0010
0100
0000
0001
,
0000
0000
0010
0100
0000
0000
1000
0000
0001
1000
0000
0100
,
0000
0000
0010
0001
0000
0000
0100
0000
0010
0100
0000
0001
,
0000
0000
1000
0100
0000
0000
1000
0000
0010
0100
0000
0001
,
0010
0000
0000
0100
0000
0000
1000
0000
0010
1000
0000
0001
,
0000
0000
1000
0100
0000
0000
0010
0000
0001
1000
0000
0001
,
0000
0000
1000
0100
0000
0000
0010
0000
0100
1000
0000
0001
,
0000
0000
1000
0010
0000
0000
1000
0000
0001
0100
0000
0010
,
0000
0000
1000
0001
0000
0000
0101
0000
0000
0010
0000
1000
,
0000
0100
0010
0001
0000
0000
1000
0000
0000
0001
0000
0000
,
0010
0001
0010
0100
0000
1000
0000
0000
0000
0010
0000
1000
,
0100
0010
0001
0100
0000
0000
0001
1000
0001
0100
0000
0000
,
0010
1000
0010
1000
0000
0001
0100
0000
0000
0010
0000
1000
,
0000
0001
1000
0100
0000
0000
0010
0000
0000
0100
0000
0000
,
1000
0001
1000
0100
0000
0010
0000
0000
0001
1000
0000
1000
,
0001
0010
0100
1000
0000
0000
0010
1000
0100
1000
0000
0000
,
0001
0010
0001
0010
0000
0100
1000
0000
0000
0001
0100
0000
,
0010
1000
0000
0001
1000
0100
0010
0000
0011
0000
1100
0000
,
1001
0000
0000
0010
1000
0000
0001
0100
0000
0001
0010
0100
,
1000
0000
1100
0000
0011
0000
0000
0100
0010
0100
0000
0001
,
1000
0000
0000
0001
0010
0100
1000
0000
0000
0010
1000
0001
,
1000
0000
0010
0000
0100
0001
1000
0000
0000
0100
0010
0000
,
0001
1000
0000
0001
0100
0010
1000
0000
0001
0000
1000
0000
,
0000
0001
0100
0001
0000
1000
0001
0000
0000
0100
0000
0000
,
1000
0000
0000
0010
0000
0010
0100
0000
0000
0001
0000
0000
,
0010
0000
0000
0100
0000
0100
1000
0000
0000
0001
0000
0000
,
1000
0000
0010
0100
0000
0001
1000
0000
0000
0100
0000
0000
,
0001
0000
0000
0010
0001
0010
0100
0000
0000
1000
0000
0000
,
0010
0000
0000
1000
0000
0001
0100
0000
0000
0001
0000
0000
,
0010
0000
0000
1000
0000
0100
1000
0000
0000
0001
0000
0000
,
1000
0000
0010
0100
0000
0010
0100
0000
0000
0001
0000
1000
,
0000
0000
0000
0110
0000
0000
1001
0000
0000
1000
0100
0010
,
0001
0000
0000
0100
0000
0000
0010
1000
0010
1000
0000
0000
,
0002
0000
0000
2003
0000
0000
3100
0000
0000
0010
0001
0010
,
0001
0000
0000
0100
0000
0000
0001
1000
0100
0010
0000
0000
,
0002
0000
0000
2003
0000
0000
3010
0000
0000
1000
0001
0010
,
0100
0000
0000
1000
0000
0000
0010
0100
0010
1000
0000
0000
,
0002
0000
0000
0203
0000
0000
0310
0000
0000
1000
0100
0010
,
0001
0000
0000
0101
0000
0000
1100
0000
0000
0001
1000
0001
,
1000
0000
0010
0200
0000
0000
0000
0000
0000
0002
0000
0000
,
0300
0000
0000
2000
3003
0000
0001
0100
0001
0100
0001
0100
,
0002
0000
2000
0003
,
0020
3030
0000
1000
0100
0010
0001
0000
1000
0001
0000
0000
,
0110
0000
0000
1000
0000
0010
1000
0000
0001
0100
0000
0000
,
0010
1000
0001
0100
0000
0000
0001
0000
0010
1000
0000
0000
,
1100
0000
0010
0001
0000
0100
0010
0000
1000
0001
0000
0000
,
0100
0010
0100
0001
0000
0010
0100
0000
1000
0000
0000
0001
,
1000
0000
0000
0010
0000
1000
0010
0000
0100
0000
0000
0100
,
0001
0000
0000
1000
0000
0001
0010
0000
0001
0000
0000
0100
,
0010
0000
0000
1000
0000
0100
1000
0000
0010
0100
0000
0000
,
0001
0000
0000
0010
0000
0001
1000
0000
0100
0000
0000
1000
,
0010
0000
0000
0100
0000
0010
1000
0000
0001
0000
0000
1000
,
0100
0000
0000
1000
0000
0010
1000
0000
0100
0000
0000
0010
,
0001
0000
0000
1000
0000
0010
0100
0000
0001
0000
0000
0000
;

//---------------dance-single - ----------------
#NOTES:
     dance-single:
     :
     Challenge:
     14:
     :
0000
0000
0000
0000
,
0000
0000
0000
0000
,
0000
0000
0000
0000
,
0000
0000
0000
0000
,
0000
0000
0000
0000
0000
0000
1000
0000
0010
0100
0000
0001
,
0000
0000
0010
0100
0000
0000
1000
0000
0001
1000
0000
0100
,
0000
0000
0010
0001
0000
0000
0100
0010
0100
0010
0100
0010
,
0000
0000
1000
0001
0000
0000
0010
0000
0001
0010
0000
0100
,
1000
0000
0000
0001
0000
0000
1000
0000
0010
0100
0001
0100
,
0000
0000
0010
1000
0000
0000
0100
0000
0010
0001
0000
1000
,
0000
0000
0001
0100
0000
0000
0010
1000
0010
1000
0010
1000
,
0000
0000
0100
0010
0000
0000
0001
0000
1000
0010
0000
0100
,
0000
0000
0010
1000
0000
0000
0101
0000
0000
0001
0000
0010
,
0000
1000
0001
0100
0000
0000
0010
0000
0000
1010
0000
0010
,
1000
0100
0010
0001
0000
1000
0010
0000
0000
0110
0000
0001
,
0100
0010
1000
0001
0000
0010
0001
0100
0010
1000
0000
0100
,
1000
0001
1000
0001
1000
0001
0100
0000
0010
1000
0000
0100
,
0000
1000
0001
0100
0000
0010
1000
0000
0000
0100
1000
0001
,
1000
0010
1000
0010
0100
0001
0000
0000
0010
0001
0000
0100
,
0001
0010
0100
1000
0000
0010
1000
0100
1000
0001
0000
0100
,
0010
1000
0001
1000
0100
0010
0001
0000
0100
0010
1000
0010
,
1000
0100
0010
0001
1000
0100
0010
0000
0011
0000
1100
1000
,
0001
0000
0000
0010
0001
1000
0100
1000
0010
0100
0001
1000
,
0100
0000
1001
0000
0110
0000
0000
0100
0001
0100
0001
0100
,
0010
0000
0000
1000
0001
0010
0100
0010
0001
0100
0010
1000
,
0001
0000
1010
0000
0100
1000
0001
0000
0000
0010
0001
1000
,
0100
0010
0001
0100
0001
1000
0010
0000
0001
0000
0100
0000
,
0010
1000
0010
1000
0010
1000
0001
0000
0000
0100
0000
0000
,
1000
0000
0000
0010
0000
0010
0100
0000
0000
0101
0000
0000
,
1100
0000
0001
1000
0010
0100
0001
0000
0010
0001
0000
0100
,
0010
0000
0100
0001
0000
1000
0100
0000
0010
0001
0000
0100
,
0010
1000
0001
1000
0100
0010
0001
0000
1000
0001
0000
1000
,
0010
0000
0100
0010
0000
1000
0001
0000
0010
0001
0000
0010
,
0100
0000
1000
0010
0100
0001
0100
0000
0010
1000
0000
0010
,
1000
0000
0100
0010
0000
0001
0100
0000
0010
0100
0000
0001
,
0000
0000
0000
0000
0000
0000
1000
0000
0000
0010
0000
0000
0101
0000
0000
0000
0000
0000
0010
0000
1000
0000
0100
0000
,
0001
0000
0010
0100
0000
1000
0010
1000
0001
0100
0000
0000
,
0002
0000
0000
1003
0000
0010
0100
0000
0000
0001
0010
0001
,
1000
0000
0100
0010
0000
0001
1000
0001
0100
0010
0000
0000
,
1000
0100
1000
0100
1000
0100
0010
0000
0000
0001
1000
0001
,
0100
0000
0010
1000
0000
0100
0010
0001
1000
0100
0000
0000
,
0011
0000
0001
1000
0001
0100
0010
0000
0010
1000
0001
1000
,
0100
0000
0000
0000
0000
0000
0000
0000
0000
0000
0000
0000
0000
0000
0000
0000
0000
0000
0000
0000
0000
0000
0000
0000
0000
0000
0000
0000
0000
0000
0000
0000
0010
0000
0000
0000
0000
0000
0000
0000
0000
0000
0000
0000
0000
0000
0000
0000
0001
0000
0000
0000
0000
0000
0000
0000
0000
0000
0000
0000
0000
0000
0000
0000
0000
0000
0000
0000
0000
0000
0000
0000
0000
0000
0000
0000
0000
0000
0000
0000
0100
0000
0000
0000
0010
0000
0000
0000
0000
0000
0100
0000
0000
0000
0000
0000
0010
0000
0000
0000
0000
0000
0000
0000
0000
0000
0000
0000
0000
0000
0000
0000
0000
0000
0000
0000
0000
0000
0000
0000
0000
0000
0000
0000
0000
0000
0000
0000
0000
0000
0000
0000
0000
0000
0000
0000
0000
0000
0000
0000
0000
0000
0000
0000
1000
0000
0000
0000
0000
0000
0000
0000
0000
0000
0000
0000
0000
0000
0000
0000
0100
0000
0000
0000
0000
0000
0000
0000
0000
0000
0000
0000
0000
0000
0000
0000
0010
0000
0000
0000
0000
0000
0000
0000
0000
0000
0000
0000
0000
0000
0000
0000
,
0001
0000
0100
0020
0000
0000
1030
0000
0000
0200
0000
0000
,
0301
1000
0001
1000
0000
0000
0001
0100
0001
0100
0001
0100
,
0002
0000
0000
0000
0000
0000
0013
0000
0000
0000
0000
0000
0200
0000
0000
0000
0000
0000
1300
0000
0001
1000
0001
1000
,
0001
0000
0000
0100
0010
1000
0001
0000
1000
0200
0000
0000
,
0310
0001
1000
0001
0000
0100
0010
0000
1000
0001
1000
0001
,
0010
0001
0100
1000
0100
0001
0010
0000
0100
2000
0000
0000
,
3010
0100
0010
1000
0100
0010
0001
1000
0010
0100
0001
0100
,
0001
0010
0100
1000
0000
0010
0100
0000
0001
0000
0000
0010
,
0100
0000
0000
1000
0000
0001
1000
0000
0100
0000
0000
0010
,
0001
0000
0000
0100
0000
0010
1000
0000
0100
0000
0000
1000
,
0001
0000
0000
0010
0000
0001
0010
0000
0100
1000
0000
0000
,
0001
0100
0001
1000
0100
1000
0010
0100
0001
1000
0100
0010
,
0001
0000
0000
0100
0000
0001
0010
0000
1000
0000
0000
0100
,
1000
0001
1000
0001
0000
0100
0010
0000
1000
0000
0000
0100
,
1000
0000
0000
1000
0000
0100
0010
0000
0001
0000
0000
0000
;
