#TITLE:bag;
#SUBTITLE:(25th Anniversary Special);
#ARTIST:RevenG;
#BANNER:bag (25th Anniversary Special)-bn.png;
#BACKGROUND:bag (25th Anniversary Special)-bg.png;
#JACKET:bag (25th Anniversary Special)-jacket.png;
#MUSIC:bag (25th Anniversary Special).ogg;
#SAMPLESTART:0.008;
#SAMPLELENGTH:20;
#DISPLAYBPM:130;
#BPMS:0=129.992;
#BGCHANGES:;

//---------------dance-single - ----------------
#NOTES:
     dance-single:
     :
     Challenge:
     16:
     :
0000
0000
0000
0000
,
0000
0000
0000
0000
,
1001
0000
1001
0000
,
1001
0000
0000
0110
0000
0000
1001
0000
0000
0000
1000
0100
,
0010
1000
0001
0100
0001
1000
0100
0010
0100
0010
1000
0001
,
1000
0100
0001
0100
0001
1000
0010
0100
0010
1000
0010
0001
,
0200
0000
0000
0300
0001
0010
1000
0100
1000
0001
0100
0001
,
0010
0001
0100
1000
0100
0001
1000
0010
0100
0002
0000
0000
,
0013
0100
1000
0001
1000
0100
0010
0001
0010
1000
0100
0001
,
0100
0001
0100
1000
0001
1000
0001
0010
0100
0010
1000
0010
,
0001
0010
1000
0010
1000
0010
1000
0100
0001
0100
0001
0100
,
0001
0010
0001
1000
0100
0010
0100
1000
0010
0200
0000
0000
,
1300
0001
0010
0001
0100
1000
0010
1000
0001
0010
0100
1000
,
0001
0000
0000
0010
0000
0000
0100
0000
0000
1000
0000
0000
0020
0000
0000
0000
0000
0000
0000
0000
0130
0000
0000
0000
0002
0000
0000
0000
0000
0000
0000
0000
1003
0000
0000
0000
0200
0000
0000
0000
0000
0000
0000
0000
0310
0000
0000
0000
,
0001
1000
0100
0010
1000
0010
0100
0001
0100
0001
1000
0010
,
0001
0100
1000
0001
0100
1000
0010
0100
0010
0200
0000
0000
,
0301
1000
0001
2000
0000
0000
3100
0010
0001
1000
0010
1000
,
0100
0001
0010
0001
0100
1000
0001
1000
0100
0020
0000
0000
,
0031
1000
0010
1000
1000
1000
0010
0100
0001
0001
0010
0001
,
1000
0010
1000
0010
0100
0100
0100
0100
0001
0001
0010
0100
,
2000
0000
0000
3000
0100
1000
0001
0010
0001
0010
1000
0100
,
0010
0001
0010
1000
0100
0001
1000
0100
0010
0002
0000
0000
,
0103
0010
1000
0002
0000
1000
2003
0000
0100
3200
0000
0010
,
0310
0001
0100
1000
0001
0010
0001
0100
1000
0010
0100
0010
,
0100
0010
1000
0002
0000
0010
0023
0000
0100
0230
0000
1000
,
1300
0010
0001
1000
0100
0001
0010
0100
1000
0002
0000
0000
,
1003
0010
1000
0002
0100
0100
0203
0010
0010
0320
1000
1000
,
1030
0001
0010
0001
0100
1000
0020
0000
0100
0230
0000
0000
,
0301
0010
1000
0200
1000
1000
2300
0001
0001
3002
0010
0010
,
0013
0001
0100
1000
0010
0001
0100
1000
0100
0110
0000
0000
,
1001
0010
1000
0200
0000
0000
0310
0001
0100
2000
0000
0000
,
3010
1000
0001
1000
0100
0010
0002
0000
0203
0000
0310
1000
,
0100
1000
0001
0200
0000
0000
0301
0010
0100
2000
0000
0000
,
3001
0100
1000
0010
0010
0100
0010
0100
0001
1000
0001
1000
,
2200
0000
0000
0000
0000
0000
0000
3300
0000
0000
0001
0100
0002
0000
0000
0000
0000
0000
1003
0000
0010
0000
0100
0000
,
0001
0001
0001
1000
0010
1000
1000
0100
0100
0010
0100
0010
,
0002
0000
0000
0003
0100
0010
2000
0000
0000
3000
0000
0000
,
0100
1000
0001
0010
0001
0100
1000
0010
0001
0200
0000
0000
,
0310
1010
0000
0101
0000
0011
0000
1100
0000
1001
0000
0101
,
0000
1100
0000
0101
0000
0010
1000
1000
1000
0001
0001
0001
,
0100
0010
1000
0001
0000
1000
0010
1000
0100
0001
0000
0010
,
0001
0000
0001
0000
0001
0000
0100
0000
0100
0000
0100
0000
0001
0000
0001
0000
0100
0000
0100
0000
0000
0000
0000
0010
,
1000
0001
0001
0010
0010
0010
0001
0010
0100
0100
1000
0001
,
1000
0100
1000
0010
0100
1000
0100
0001
1000
0020
0000
0000
,
1030
0100
0100
0100
0100
1000
0001
1000
0100
1000
0010
1000
,
0010
1000
0010
1000
0001
1000
0001
0100
1000
2000
0000
0000
,
3001
0010
1000
0100
0010
0100
1000
0010
0001
0200
0000
0000
,
0300
0001
0001
0000
1000
1000
0000
0010
0010
0000
0100
0100
,
0000
0001
0010
1000
0100
0010
0001
0001
0001
0001
1000
0100
;
