#TITLE:access super [hyper] focus;
#SUBTITLE:;
#ARTIST:kiraku;
#TITLETRANSLIT:;
#SUBTITLETRANSLIT:;
#ARTISTTRANSLIT:;
#GENRE:;
#CREDIT:;
#BANNER:access super [hyper] focus-bn.png;
#BACKGROUND:access super [hyper] focus-bg.png;
#LYRICSPATH:;
#CDTITLE:;
#MUSIC:access super [hyper] focus.ogg;
#OFFSET:0.000000;
#SAMPLESTART:45.000999;
#SAMPLELENGTH:20.000000;
#SELECTABLE:YES;
#DISPLAYBPM:105.000000:666.000000;
#BPMS:0.000000=160.000000
,207.000000=104.894997
,207.500000=118.110001
,208.000000=129.309998
,208.500000=151.514999
,209.000000=163.934006
,209.500000=194.804993
,210.000000=212.766006
,210.500000=222.222000
,211.000000=238.095001
,211.500000=285.713989
,212.000000=315.789001
,212.500000=348.837006
,213.000000=375.000000
,213.500000=400.000000
,214.000000=441.175995
,214.500000=491.803040
,215.000000=526.315979
,215.500000=566.038025
,216.000000=638.297974
,216.500000=665.679993
,224.000000=300.000000
,224.500000=190.003006
;
#STOPS:
;
#BGCHANGES:;
#KEYSOUNDS:;
#ATTACKS:;

//---------------dance-single - ----------------
#NOTES:
     dance-single:
     :
     Beginner:
     4:
     0.120492,0.208050,0.046858,0.093716,0.000000,90.000000,85.000000,5.000000,10.000000,0.000000,0.000000,0.120492,0.208050,0.046858,0.093716,0.000000,90.000000,85.000000,5.000000,10.000000,0.000000,0.000000:
0000
0000
0000
0000
,
0000
0000
0000
0000
,
0000
0000
0000
0000
,
0000
0000
0000
0000
,
0000
0000
0000
0000
,
0000
0000
0000
0000
,
1000
0000
0000
0000
,
0001
0000
0000
0000
,
1000
0000
0000
0000
,
0001
0000
0000
0000
,
1000
0000
0001
0000
,
1000
0000
0000
0000
,
0010
0000
0100
0000
,
0010
0000
0000
0000
,
0200
0000
0300
0000
,
0002
0000
0003
0000
,
2000
0000
0000
0000
,
0000
0000
3000
0000
,
0001
0000
0000
0000
,
1000
0000
0000
0000
,
1001
0000
0000
0000
,
0000
0000
0000
0000
,
1000
0000
1000
0000
,
0100
0000
0100
0000
,
0010
0000
0010
0000
,
0001
0000
0001
0000
,
1000
0000
0010
0000
,
1000
0000
0001
0000
,
0100
0000
0010
0000
,
0100
0000
0000
0000
,
0010
0000
0000
0000
,
0010
0000
0000
0000
,
1000
0000
0001
0000
,
1000
0000
0001
0000
,
0100
0000
0000
0000
,
0100
0000
0000
0000
,
0001
0000
1000
0000
,
0001
0000
1000
0000
,
1001
0000
0000
0000
,
0000
0000
0000
0000
,
2000
0000
0000
0000
,
0000
0000
3000
0000
,
0002
0000
0000
0000
,
0000
0000
0003
0000
,
0010
0000
0010
0000
,
0100
0000
0100
0000
,
0010
0000
0100
0000
,
0110
0000
0000
0000
,
0010
0000
0000
0000
,
0100
0000
0000
0000
,
1000
0000
0010
0000
,
0100
0000
0002
0000
,
0000
0000
0000
0000
,
0000
0000
0000
0000
,
0000
0000
0000
0000
,
0000
0000
0000
0000
,
0003
0000
0000
0000
,
0000
0000
0000
0000
,
1000
0000
0001
0000
,
1000
0000
0001
0000
,
0010
0000
0100
0000
,
0010
0000
0100
0000
,
1000
0000
0010
0000
,
0100
0000
0001
0000
,
2000
0000
3000
0000
,
0002
0000
0003
0000
,
0200
0000
0300
0000
,
0020
0000
0030
0000
,
1000
0000
1000
0000
,
0001
0000
0001
0000
,
1001
0000
0000
0000
,
0000
0000
0000
0000
,
1000
0000
0001
0000
,
1000
0000
0001
0000
,
1001
0000
0000
0000
,
0000
0000
0000
0000
;

//---------------dance-single - ----------------
#NOTES:
     dance-single:
     :
     Easy:
     9:
     0.334701,0.589476,0.412352,0.168689,0.000000,250.000000,206.000000,44.000000,18.000000,0.000000,0.000000,0.334701,0.589476,0.412352,0.168689,0.000000,250.000000,206.000000,44.000000,18.000000,0.000000,0.000000:
0000
0000
0000
0000
,
0000
0000
0000
0000
,
0000
0000
0000
0000
,
0000
0000
0000
0000
,
0000
0000
0000
0000
,
0000
0000
0000
0000
,
1000
0000
1000
0000
,
0001
0000
0001
0000
,
0100
0000
0100
0000
,
0010
0000
0010
0000
,
1000
1000
1000
0000
,
0001
0001
0001
0000
,
0010
0010
0010
0000
,
0100
0100
0100
0000
,
1000
0001
1000
0001
,
0100
0010
0100
0010
,
0210
0000
0010
0300
,
0120
0000
0100
0130
,
0002
0000
0000
0003
,
2000
0000
0000
3000
,
0110
0110
2000
0000
,
3002
0000
2000
3003
,
0001
0100
0001
0100
,
0010
1000
0010
1000
,
0100
1000
0100
1000
,
0001
0010
0001
0010
,
0001
0101
0100
0110
,
0010
1010
1000
1100
,
0110
0000
0110
0000
,
0001
0001
1000
1000
,
1001
0001
0100
1000
,
0100
0001
0010
1000
,
0010
0020
0030
0002
,
0003
0200
0300
0010
,
0000
0010
1000
0100
,
0001
0100
1000
0010
,
0110
0000
1001
0000
,
1100
0000
0011
0000
,
2002
0000
0000
0000
,
0000
0000
0000
3003
,
1000
1000
1000
1000
,
0001
0001
0001
0001
,
0010
0010
0100
0100
,
1000
0001
1001
0000
,
1000
0000
1000
0000
1000
1000
1000
0000
,
0001
0000
0001
0000
0001
0001
0001
0000
,
0200
0000
0320
0000
,
0130
0100
1001
1001
,
0001
1000
0010
0100
,
0001
1000
0100
0010
,
0011
0001
1001
1000
,
1100
0011
1001
2000
,
0000
3002
0000
0000
2003
0000
0000
0002
,
0000
0000
0000
0000
,
0000
0000
0000
0000
,
0000
0000
0000
0000
,
3003
0000
0000
0000
,
0000
0000
0000
0000
,
1001
0000
1001
0000
,
0010
0100
1001
0000
,
0001
0001
1000
1000
,
0010
0100
1001
0000
,
1000
1100
0011
0001
,
0010
0010
0100
0100
,
1100
0100
1100
1000
,
0011
0010
0011
0001
,
0011
1100
0110
1010
,
0011
0101
1010
1100
,
1000
0010
1000
0000
0010
0100
0010
0000
,
0100
0001
0100
0000
0010
0000
0100
0000
,
1001
0000
0000
0000
,
0000
0000
0000
0000
,
0001
1000
0001
0000
1000
0001
1000
0000
,
0010
0100
0010
0000
0100
0010
0100
0000
,
0110
0000
0000
0000
,
0000
0000
0000
0000
;

//---------------dance-single - ----------------
#NOTES:
     dance-single:
     :
     Medium:
     12:
     0.483308,0.624151,0.384237,0.131203,0.304578,361.000000,320.000000,41.000000,14.000000,0.000000,0.000000,0.483308,0.624151,0.384237,0.131203,0.304578,361.000000,320.000000,41.000000,14.000000,0.000000,0.000000:
0000
0000
0000
0000
,
0000
0000
0000
0000
,
0000
0000
0000
0000
,
0000
0000
0000
0000
,
0000
0000
0000
0000
,
0000
0000
0000
0000
,
1000
0010
1000
0010
,
0100
0001
0100
0001
,
0010
0001
0010
0001
,
1000
0100
1000
0100
,
1000
0001
1000
0010
,
0110
0000
0000
0000
0001
1000
0000
0001
1000
0000
0000
0000
0001
0000
0000
0000
,
0010
0100
0010
0001
,
0010
0000
0000
0000
0110
0000
0000
1000
0001
0000
0000
0000
0000
0000
0000
0000
,
1000
0100
0010
1000
0010
0100
1000
0000
,
0001
0010
1000
0010
0001
0010
0100
0000
,
1000
0100
0010
0000
0001
1000
0010
0000
,
0100
0001
1000
0000
0110
0000
1001
0000
,
1000
0001
0100
0010
,
1000
0000
0000
0000
0100
0010
0000
0100
0010
0000
0000
0000
0000
0000
0000
0000
,
0110
0000
0000
0000
1001
0000
0000
0000
1000
0000
0000
1000
0000
0000
0001
0000
,
0000
0001
0000
0000
0010
0000
0010
0000
0010
0000
0000
0000
1001
0000
0000
0000
,
0001
1000
0001
1000
0010
0100
0010
0000
,
0001
0010
1000
0100
0001
0100
1000
0000
,
0100
0001
0100
1000
0010
0100
1000
0100
,
0001
0010
0100
1000
0010
0000
0010
0000
,
0101
0110
1100
0011
,
0110
1010
0110
1001
,
0201
0310
1200
0310
,
0001
0100
1000
0100
0001
0100
1000
0000
,
1001
0000
0001
0010
0001
0010
0100
0000
,
1000
0010
1000
0010
0100
0000
0001
0000
,
1001
0000
0000
0000
0001
0000
0000
0100
0000
0100
0000
0000
0010
0000
0000
0100
,
0000
0100
0000
0000
0001
2000
0000
0000
3002
0000
0000
0000
0023
0000
0000
0130
,
0000
0000
0000
0000
1000
0000
0001
0000
0100
0000
0000
0010
0000
0010
0000
0000
,
1000
0000
0000
0010
0000
0010
0000
0000
0200
0000
0000
0000
0310
0000
0000
0000
,
1001
0000
0000
1000
0000
1000
0000
0000
1001
0000
0000
0001
0000
0001
0000
0000
,
1001
0000
0000
0100
0000
0100
0000
0000
1001
0000
0000
0010
0000
0010
0000
0000
,
2002
0000
0000
0000
,
0000
0000
0000
3003
,
1000
0010
0100
0001
,
0010
0000
0000
0000
0100
1000
0000
0100
1000
0000
0000
0000
0010
0000
0000
0000
,
0100
0010
1000
0001
,
1000
0000
0000
0000
0010
0000
0000
0100
0010
0000
0000
0000
1001
0000
0000
0000
,
1000
0001
1000
0001
0001
0001
0001
0000
,
0010
0100
0010
0100
0100
0100
0100
0000
,
1000
0001
1000
0001
0010
0100
0010
0100
,
0010
0011
1000
1010
,
0001
1000
0010
0100
,
0010
0000
0000
0000
1000
0001
0000
1000
0001
0000
0000
0000
0100
0000
0000
0000
,
0101
1010
1100
0011
,
1001
0000
0000
0000
0110
0000
0000
1000
0001
0000
0000
0000
2000
0000
0000
0000
,
0000
3002
0000
0000
2003
0000
0000
3002
,
0000
0000
2003
0000
0000
0002
0000
0000
,
0000
0000
0000
0000
,
0000
0000
0000
3003
,
1001
0000
0000
0000
,
0000
0000
0000
0000
,
1001
0000
1001
0000
,
1001
0000
0000
0010
0000
0010
0000
0000
1001
0000
0000
0000
0000
0000
0000
0000
,
1000
0100
1000
0000
0001
0010
0001
0000
,
0100
0001
0100
0000
1001
0000
0000
0000
,
0001
0000
0000
0100
0000
0010
0000
0000
1000
0000
0000
0100
0000
0010
0000
0000
,
0001
0000
0000
0010
0000
1000
0000
0000
0001
0000
0000
0100
0000
1000
0000
0000
,
0010
0000
0000
1000
0000
0100
0000
0000
0010
0000
0000
0001
0000
0100
0000
0000
,
1000
0000
0000
0100
0000
0001
0000
0000
1000
0000
0000
0100
0000
0001
0000
0000
,
0100
0000
0000
1000
0000
0010
0000
0000
0100
0000
0000
0001
0000
0010
0000
0000
,
1000
0000
0000
0010
0000
0001
0000
0000
0100
0000
0000
1000
0000
0100
0000
0000
,
0001
0000
0000
0001
0000
0001
0000
0000
1000
0000
0000
1000
0000
1000
0000
0000
,
0010
0000
0000
0010
0000
0010
0000
0000
0100
0000
0000
0100
0000
0100
0000
0000
,
0110
0000
0000
0000
,
0000
0000
0000
0000
,
0001
0001
0001
0000
1000
1000
1000
0000
,
0010
0010
0010
0000
0100
0100
0100
0000
,
1001
0000
0000
0000
,
0000
0000
0000
0000
;

//---------------dance-single - ----------------
#NOTES:
     dance-single:
     :
     Hard:
     15:
     0.635932,0.832201,0.477953,0.187433,0.552926,475.000000,424.000000,51.000000,20.000000,0.000000,0.000000,0.635932,0.832201,0.477953,0.187433,0.552926,475.000000,424.000000,51.000000,20.000000,0.000000,0.000000:
0000
0000
0000
0000
,
0000
0000
0000
0000
,
0000
0000
0000
0000
,
0000
0000
0000
0000
,
0000
0000
0000
0000
,
0000
0000
0000
0000
,
1000
0001
1000
0001
,
0010
0100
0010
0100
,
0001
0100
0010
0100
,
1000
0100
0010
0100
,
0110
1001
1100
0011
,
1001
0000
0000
0000
0001
1000
0000
1000
0001
0000
0000
0000
0110
0000
0000
0000
,
1001
0011
1100
1001
,
0110
0000
0000
0000
1001
0000
0000
0100
0010
0000
0100
0000
1001
0000
0000
0000
,
0001
0000
0100
0000
0001
0000
1000
0010
1000
0000
0001
0000
0100
0000
0000
0000
,
0001
0000
0010
0000
0001
0000
1000
0100
1000
0000
0001
0000
0010
0000
0000
0000
,
0001
1000
0001
0000
1000
0001
1000
0000
0010
0100
0010
0000
0100
0010
0100
0000
,
0001
1000
0001
1000
0001
0000
0010
0000
1001
0000
0000
0000
1001
0000
0000
0000
,
1010
0101
0110
1100
,
0011
0000
0000
0000
1000
0010
0000
0100
0001
0000
0000
0000
0000
0000
0000
0000
,
2200
0000
0300
0000
0002
0000
0003
0000
3020
0000
0000
0002
0003
0000
0200
0300
,
0000
2030
0000
0000
3001
0000
1000
0001
1000
0000
0000
0000
1001
0000
0000
0000
,
0010
0001
0000
0010
0001
0000
0000
0000
1000
0100
0000
1000
0100
0000
0000
0000
,
0010
0100
0000
0010
0100
0000
0000
0000
1000
0001
0000
1000
0001
0000
0000
0000
,
0100
0010
0000
0100
0010
0000
0000
0000
1000
0100
0000
1000
0100
0000
0000
0000
,
0010
0001
0010
0000
0100
1000
0100
0000
0010
0100
0010
0100
0010
0000
0100
0000
,
1000
0100
0000
1000
0001
0000
0010
0000
0001
1000
0000
0001
0100
0000
0010
0000
,
1000
0001
0000
1000
0010
0000
0100
0000
0001
1000
0000
0001
0010
0000
0100
0000
,
1000
0100
1000
0000
0010
0000
0010
0000
0100
0001
0100
0000
0010
0000
0010
0000
,
0001
0010
1000
0100
0001
0100
1000
0000
,
1001
0000
1000
0100
0001
0100
1000
0010
,
0001
0010
1000
0100
0001
0100
1000
0010
,
1010
0000
0000
0000
2000
0000
0000
0001
0000
0001
3000
0001
0020
0000
0000
0100
,
0000
0100
0030
0001
2000
0000
0000
0000
3002
0000
0000
0000
0023
0100
0000
0130
,
0000
0000
0000
0000
1000
0000
0001
0100
0002
0000
0000
1003
0000
1000
0000
0000
,
0020
0000
0000
0130
0000
0100
0000
0000
2002
0000
0000
0000
3003
0000
0000
0000
,
1100
0000
0000
0010
0000
0010
0000
0000
0101
0000
0000
1000
0000
1000
0000
0000
,
0011
0000
0000
0100
0000
0100
0000
0000
1100
0000
0000
0001
0000
0001
0000
0000
,
2002
0000
0000
0000
,
0000
0000
0000
3003
,
1000
0010
0001
0010
,
1000
0000
0000
0000
0001
1000
0000
1000
0001
0000
0000
0000
0010
0000
0000
0000
,
0001
0100
1000
0100
,
0001
0000
0000
0000
0010
0000
0000
0100
0010
0000
0100
0000
1000
0000
0100
0000
,
0010
0000
0001
0000
0010
0000
0100
0010
0100
0000
1000
0000
0001
0000
0001
0100
,
0001
0000
0100
0000
0010
0000
1000
0100
1000
0000
0001
0000
1000
0001
1000
0000
,
0010
1000
0010
0001
0010
0100
0001
0010
,
0011
0101
1010
1100
,
1000
0100
0010
0100
,
0001
0000
0000
0000
0100
0010
0000
0010
0001
0000
0000
0000
1000
0000
0000
0000
,
1001
0110
1001
1100
,
0101
0000
0000
0000
1001
0000
0000
1000
0001
0000
0000
0000
1000
0000
0001
0000
,
1000
0001
1000
0001
1000
0001
1000
0001
,
1000
0001
1000
0001
1000
0002
2000
0000
,
0000
0000
0000
0000
,
0000
0000
0000
3003
,
1001
0000
0000
0000
,
0000
0000
0000
0000
,
1001
0000
1001
0000
,
1001
0000
0000
0100
0000
0100
0000
0000
1001
0000
0000
0000
0000
0000
0000
0000
,
0001
0010
1000
0010
0001
0010
0001
0010
,
1000
0000
0010
0100
0000
1000
0000
0001
0100
0000
0000
0000
0000
0000
0000
0000
,
0010
0000
1000
0001
1000
0001
1000
0000
0100
0000
0010
0001
0010
0001
0010
0000
,
0001
0000
0100
0010
0000
0100
1000
0000
0100
0000
0010
0001
0000
0010
0000
0000
,
1000
0000
0001
0010
0000
0001
1000
0000
0001
0000
1000
0100
0000
1000
0001
0000
,
0100
0000
0010
0100
0000
0100
0000
0000
0001
0000
1000
0001
0000
0001
0000
0000
,
1000
0000
0010
0100
0010
0100
0010
0000
1000
0000
0001
0100
0001
0100
0001
0000
,
1000
0000
0100
0010
0000
0010
0000
0000
0001
0000
1000
0010
0000
0001
0000
0010
,
1000
0010
0000
1000
0000
0100
0000
0001
0100
0001
0000
0100
0000
1000
0000
0001
,
1000
0001
0000
0010
0000
1000
0000
0010
0001
0010
0000
0001
0000
0100
0010
0000
,
1001
0000
0000
0000
,
0000
0000
0000
0000
,
0001
0001
0001
1001
1000
1000
1000
1010
,
0010
0010
0010
0110
0100
0100
0100
0101
,
1001
0000
0000
0000
,
0000
0000
0000
0000
;

//---------------dance-double - ----------------
#NOTES:
     dance-double:
     :
     Easy:
     9:
     0.334701,0.589476,0.468582,0.215548,0.000000,250.000000,200.000000,50.000000,23.000000,0.000000,0.000000,0.334701,0.589476,0.468582,0.215548,0.000000,250.000000,200.000000,50.000000,23.000000,0.000000,0.000000:
00000000
00000000
00000000
00000000
,
00000000
00000000
00000000
00000000
,
00000000
00000000
00000000
00000000
,
00000000
00000000
00000000
00000000
,
00000000
00000000
00000000
00000000
,
00000000
00000000
00000000
00000000
,
00010000
00000000
00010000
00000000
,
00001000
00000000
00001000
00000000
,
00100000
00000000
00100000
00000000
,
01000000
00000000
01000000
00000000
,
10000000
10000000
10000000
00000000
,
00100000
00100000
00100000
00000000
,
01000000
01000000
01000000
00000000
,
00001000
00001000
00001000
00000000
,
00010000
00000100
00010000
00000100
,
00000010
00000001
00000010
00000001
,
00000210
00000000
00020300
00000000
,
00032000
00000000
00010000
00013000
,
00200000
00000000
00000000
00300000
,
02000000
00000000
00000000
03000000
,
01100000
01100000
20000000
00000000
,
30020000
00000000
20000000
30030000
,
10000000
01000000
00010000
00001000
,
00000010
00000001
00000100
00001000
,
00010000
00100000
10000000
01000000
,
00010000
00001000
00000010
00000001
,
00000010
00000011
00000001
00000101
,
00000100
00001100
00001000
00011000
,
00110000
00000000
01100000
00000000
,
10000000
10000000
00010000
00010000
,
10000000
00100000
00010000
00001000
,
00010000
01000000
10000000
01000000
,
01100000
00200000
00300000
00002000
,
00003000
00020000
00030000
00000010
,
00000000
00000010
00010000
00001000
,
00000100
00000001
00000010
00001000
,
00000110
00000000
00001001
00000000
,
00000011
00000000
00001100
00000000
,
00002002
00000000
00000000
00000000
,
00000000
00000000
00000000
00003003
,
00000001
00000100
00001000
00010000
,
01000000
10000000
00100000
00010000
,
00001000
00000100
00000001
00000010
,
00001000
00010000
00011000
00000000
,
00010100
00001010
00010000
00001000
,
00101000
01010000
00001000
00010000
,
00200000
00300000
02000000
03000000
,
01100000
01100000
10010000
10010000
,
00010000
00100000
00001000
00010000
,
00000100
00001000
00000001
00000010
,
00000011
00000001
00000101
00000100
,
00000110
00000010
00001001
00000002
,
00000000
00000203
00000000
00000000
00002300
00000000
00000000
00020000
,
00000000
00000000
00000000
00000000
,
00000000
00000000
00000000
00000000
,
00000000
00000000
00000000
00000000
,
00033000
00000000
00000000
00000000
,
00000000
00000000
00000000
00000000
,
00011000
00000000
00011000
00000000
,
00010000
00001000
00011000
00000000
,
00010000
00100000
00010000
00001000
,
00000100
00001000
00011000
00000000
,
00101000
00000000
00010100
00000000
,
00001010
00000000
00000101
00000000
,
00000011
00000010
00000110
00000100
,
00001100
00010000
00011000
00100000
,
01100000
10100000
00110000
11000000
,
01100000
01010000
01100000
10010000
,
10000000
01000000
00010000
00000000
00001000
00000010
00000001
00000000
,
00000001
00000100
00001000
00000000
00010000
01000000
10000000
00000000
,
10010000
00000000
00000000
00000000
,
00000000
00000000
00000000
00000000
,
20000000
00000000
31000000
01000000
02000000
00000000
03010000
00010000
,
00020000
00000000
00031000
00001000
00002000
00000000
00013000
00000000
,
00011000
00000000
00000000
00000000
,
00000000
00000000
00000000
00000000
;

//---------------dance-double - ----------------
#NOTES:
     dance-double:
     :
     Medium:
     12:
     0.487325,0.624151,0.384237,0.121831,0.267092,364.000000,323.000000,41.000000,13.000000,0.000000,0.000000,0.487325,0.624151,0.384237,0.121831,0.267092,364.000000,323.000000,41.000000,13.000000,0.000000,0.000000:
00000000
00000000
00000000
00000000
,
00000000
00000000
00000000
00000000
,
00000000
00000000
00000000
00000000
,
00000000
00000000
00000000
00000000
,
00000000
00000000
00000000
00000000
,
00000000
00000000
00000000
00000000
,
00010000
00001000
00010000
00001000
,
00100000
00010000
00100000
00010000
,
01000000
00100000
01000000
00100000
,
10000000
01000000
10000000
01000000
,
10000000
01000000
00010000
00001000
,
00000110
00000000
00000000
00000000
00000010
00000001
00000000
00000010
00000001
00000000
00000000
00000000
00001001
00000000
00000000
00000000
,
00000001
00000100
00001000
00010000
,
00100000
00000000
00000000
00000000
01100000
00000000
00000000
10000000
00010000
00000000
00000000
00000000
00000000
00000000
00000000
00000000
,
10000000
01000000
00010000
01000000
00010000
00001000
00000010
00000000
,
00000001
00000100
00001000
00010000
00001000
00010000
00100000
00000000
,
00010000
00001000
00000100
00000000
00001000
00010000
01000000
00000000
,
10000000
00100000
00010000
00001000
00000100
00000000
00000110
00000000
,
00000001
00000100
00001000
00010000
,
00100000
00000000
00000000
00000000
10000000
00010000
00000000
10000000
00010000
00000000
00000000
00000000
00000000
00000000
00000000
00000000
,
01100000
00000000
00000000
00000000
10010000
00000000
00000000
00000000
10000000
00000000
00000000
00100000
00000000
00000000
00010000
00000000
,
00000000
00001000
00000000
00000000
00000100
00000000
00000100
00000000
00000100
00000000
00000000
00000000
00001001
00000000
00000000
00000000
,
00000001
00000100
00000001
00000100
00001000
00000100
00001000
00000000
,
00010000
00001000
00010000
00100000
01000000
00100000
10000000
00000000
,
01000000
00010000
01000000
10000000
00100000
00010000
00001000
00000100
,
00001000
00010000
01000000
10000000
00100000
00000000
00100000
00000000
,
01100000
01001000
00011000
00010010
,
00000110
00000011
00001100
00011000
,
00010200
00001000
00000010
00000301
,
00000100
00001000
00000010
00001000
00000100
00001000
00000001
00000000
,
00000011
00000000
00000010
00001000
00010000
01000000
10000000
00000000
,
00100000
00010000
00001000
00010000
00001000
00000000
00010000
00000000
,
00011000
00000000
00000000
00000000
00001000
00000000
00000000
00000010
00000000
00000010
00000000
00000000
00000001
00000000
00000000
00000010
,
00000000
00000010
00000000
00000000
00000001
00002000
00000000
00000000
00003002
00000000
00000000
00000000
00002003
00000000
00000000
00003100
,
00000000
00000000
00000000
00000000
00001000
00000000
00000010
00000000
00010000
00000000
00000000
00001000
00000000
00001000
00000000
00000000
,
01000000
00000000
00000000
00100000
00000000
00100000
00000000
00000000
20000000
00000000
00000000
00000000
30010000
00000000
00000000
00000000
,
01010000
00000000
00000000
00100000
00000000
00100000
00000000
00000000
00011000
00000000
00000000
00000100
00000000
00000100
00000000
00000000
,
00000011
00000000
00000000
00001000
00000000
00001000
00000000
00000000
00000110
00000000
00000000
00000001
00000000
00000001
00000000
00000000
,
00002002
00000000
00000000
00000000
,
00000000
00000000
00000000
00003003
,
00000001
00000100
00001000
00010000
,
00100000
00000000
00000000
00000000
10000000
01000000
00000000
10000000
01000000
00000000
00000000
00000000
00010000
00000000
00000000
00000000
,
00001000
00000010
00000001
00000100
,
00001000
00000000
00000000
00000000
00010000
00000000
00000000
00100000
01000000
00000000
00000000
00000000
10010000
00000000
00000000
00000000
,
10000000
01000000
00010000
00000000
01000000
01000000
01000000
00000000
,
00010000
00001000
00000010
00000000
00000010
00000010
00000010
00000000
,
00000001
00000100
00000001
00000010
00000100
00000010
00001000
00010000
,
00001000
01001000
01100000
10010000
,
10000000
01000000
10000000
00100000
,
00010000
00000000
00000000
00000000
00001000
00010000
00000000
00001000
00010000
00000000
00000000
00000000
00000100
00000000
00000000
00000000
,
00000101
00001010
00000110
00001001
,
00000110
00000000
00000000
00000000
00001001
00000000
00000000
00000001
00001000
00000000
00000000
00000000
00000002
00000000
00000000
00000000
,
00000000
00000203
00000000
00000000
00002300
00000000
00000000
00023000
,
00000000
00000000
00230000
00000000
00000000
02000000
00000000
00000000
,
00000000
00000000
00000000
00000000
,
00000000
00000000
00000000
03300000
,
01100000
00000000
00000000
00000000
,
00000000
00000000
00000000
00000000
,
10010000
00000000
10010000
00000000
,
10010000
00000000
00000000
00100000
00000000
00100000
00000000
00000000
10010000
00000000
00000000
00000000
00000000
00000000
00000000
00000000
,
10000000
01000000
10000000
00000000
00100000
01000000
00100000
00000000
,
00010000
00001000
00010000
00000000
00011000
00000000
00000000
00000000
,
00001000
00010000
00001000
00000100
00000000
00000100
00000001
00000010
,
00000000
00000010
00001000
00010000
00000000
00010000
01000000
00100000
,
01000000
00000000
00000000
00100000
00000000
00010000
00000000
00000000
01000000
00000000
00000000
10000000
00000000
01000000
00000000
00000000
,
00010000
00000000
00000000
00100000
00000000
00001000
00000000
00000000
01000000
00000000
00000000
00100000
00000000
00010000
00000000
00000000
,
00001000
00000000
00000000
00000010
00000000
00000001
00000000
00000000
00000100
00000000
00000000
00001000
00000000
00010000
00000000
00000000
,
00001000
00000000
00000000
00000100
00000000
00000010
00000000
00000000
00001000
00000000
00000000
00000100
00000000
00000010
00000000
00000000
,
00000001
00000000
00000000
00000100
00000000
00000100
00000000
00000000
00001000
00000000
00000000
00010000
00000000
00010000
00000000
00000000
,
00100000
00000000
00000000
10000000
00000000
10000000
00000000
00000000
01000000
00000000
00000000
00010000
00000000
00010000
00000000
00000000
,
00011000
00000000
00000000
00000000
,
00000000
00000000
00000000
00000000
,
00001000
00010000
00100000
00010000
00001000
00000100
00001000
00010000
,
01000000
00010000
00001000
00000100
00000001
00000100
00001000
00000000
,
00011000
00000000
00000000
00000000
,
00000000
00000000
00000000
00000000
;

//---------------dance-double - ----------------
#NOTES:
     dance-double:
     :
     Hard:
     15:
     0.610495,0.762851,0.506068,0.187433,0.421723,456.000000,402.000000,54.000000,20.000000,0.000000,0.000000,0.610495,0.762851,0.506068,0.187433,0.421723,456.000000,402.000000,54.000000,20.000000,0.000000,0.000000:
00000000
00000000
00000000
00000000
,
00000000
00000000
00000000
00000000
,
00000000
00000000
00000000
00000000
,
00000000
00000000
00000000
00000000
,
00000000
00000000
00000000
00000000
,
00000000
00000000
00000000
00000000
,
00011000
00010000
00100000
10000000
,
10100000
10000000
00100000
00010000
,
00011000
00001000
00000100
00000001
,
00000101
00000001
00000100
00001000
,
00011000
01001000
01100000
11000000
,
01100000
00000000
00000000
00000000
00010000
10000000
00000000
10000000
00010000
00000000
00000000
00000000
01100000
00000000
00000000
00000000
,
10010000
00101000
00010100
00000110
,
00001001
00000000
00000000
00000000
00000110
00000000
00000000
00001000
00000001
00000000
00000100
00000000
00000010
00000000
00000000
00000000
,
00000010
00000000
00000001
00000000
00000010
00000000
00001000
00000010
00001000
00000000
00000100
00000000
00010000
00000000
00000000
00000000
,
00001000
00000000
00000100
00000000
00001000
00000000
00010000
00001000
00010000
00000000
00100000
00000000
01000000
00000000
00000000
00000000
,
00010000
00100000
00010000
00000000
10000000
00000000
10000000
00000000
01000000
00010000
01000000
00000000
00100000
00000000
00100000
00000000
,
00001000
00010000
00001000
00000000
00001000
00010000
00001000
00000000
00011000
00000000
00000000
00000000
00011000
00000000
00000000
00000000
,
00010100
00010010
00101000
01001000
,
00011000
00000000
00000000
00000000
00100000
00001000
00000000
00010000
00000100
00000000
00000000
00000000
00000000
00000000
00000000
00000000
,
00022000
00000000
00003000
00000000
00200000
00000000
00300000
00000000
00032000
00000000
00000000
00000200
00000300
00000000
00020000
00030000
,
00000000
00003020
00000000
00000000
00000130
00000000
00001000
00000001
00001000
00000000
00000000
00000000
00001001
00000000
00000000
00000000
,
00000001
00000010
00000000
00000001
00000010
00000000
00000000
00000000
00000100
00001000
00000000
00000100
00001000
00000000
00000000
00000000
,
00010000
00100000
00000000
00010000
00100000
00000000
00000000
00000000
01000000
10000000
00000000
01000000
10000000
00000000
00000000
00000000
,
00100000
01000000
00000000
00100000
01000000
00000000
00000000
00000000
00001000
00010000
00000000
00001000
00010000
00000000
00000000
00000000
,
00000010
00000100
00000000
00000010
00000100
00000000
00000000
00000000
00000001
00001000
00000000
00000001
00001000
00000000
00000000
00000000
,
00000001
00000100
00000001
00000000
00000100
00000000
00001000
00000000
00010000
00001000
00010000
00000000
00100000
00000000
10000000
00000000
,
01000000
00010000
01000000
00000000
00010000
00000000
00001000
00000000
00000010
00000001
00000010
00000000
00000001
00000000
00000100
00000000
,
00000010
00001000
00000010
00000000
00010000
00000000
00010000
00000000
00001000
01000000
00001000
00000000
00100000
00000000
00100000
00000000
,
00010000
10000000
01000000
00010000
00001000
00010000
00001000
00000000
,
00011000
00000000
00010000
00001000
00000100
00000010
00010000
00001000
,
00100000
01000000
00010000
00001000
00000010
00000100
00010000
00001000
,
00011000
00000000
00000000
00000000
00002000
00000000
00000000
00100000
00000000
00100000
00003000
00100000
02000000
00000000
00000000
00010000
,
00000000
00010000
03000000
00010000
00002000
00000000
00000000
00000000
00003020
00000000
00000000
00000000
00000032
00000100
00000000
00000103
,
00000000
00000000
00000000
00000000
00000001
00000000
00001000
00000010
00002000
00000000
00000000
00003100
00000000
00000100
00000000
00000000
,
00020000
00000000
00000000
00031000
00000000
00001000
00000000
00000000
00202000
00000000
00000000
00000000
00303000
00000000
00000000
00000000
,
01010000
00000000
00000000
00100000
00000000
00100000
00000000
00000000
11000000
00000000
00000000
00010000
00000000
00010000
00000000
00000000
,
10100000
00000000
00000000
01000000
00000000
01000000
00000000
00000000
00110000
00000000
00000000
10000000
00000000
10000000
00000000
00000000
,
20020000
00000000
00000000
00000000
,
00000000
00000000
00000000
30030000
,
00010000
01000000
00001000
00010000
,
00000100
00000000
00000000
00000000
00001000
00000010
00000000
00000010
00000100
00000000
00000000
00000000
00000001
00000000
00000000
00000000
,
00000010
00001000
00000010
00000001
,
00000100
00000000
00000000
00000000
00001000
00000000
00000000
00010000
00001000
00000000
00010000
00000000
00100000
00000000
00000000
00000000
,
10000000
00000000
01000000
00000000
00100000
00000000
00010000
00100000
00010000
00000000
00001000
00000000
00000100
00000000
00000010
00000000
,
00000001
00000000
00000010
00000000
00000100
00000000
00001000
00000100
00001000
00000000
00010000
00000000
00100000
00000000
01000000
00000000
,
10000000
01000000
00010000
01000000
00010000
00001000
00010000
00001000
,
00011000
00010100
00001010
00000101
,
00000001
00000100
00000010
00000100
,
00000001
00000000
00000000
00000000
00000010
00000100
00000000
00000100
00000001
00000000
00000000
00000000
00000100
00000000
00000000
00000000
,
00000110
00001001
00001100
00000101
,
00001001
00000000
00000000
00000000
00000110
00000000
00000000
00000001
00001000
00000000
00000000
00000000
00000001
00000000
00000100
00000000
,
00000001
00000100
00001000
00000100
00001000
00010000
00001000
00010000
,
00001000
00010000
00001000
00010000
00001000
00020000
00002000
00000000
,
00000000
00000000
00000000
00000000
,
00000000
00000000
00000000
00033000
,
00011000
00000000
00000000
00000000
,
00000000
00000000
00000000
00000000
,
00011000
00000000
00011000
00000000
,
00011000
00000000
00000000
01000000
00000000
01000000
00000000
00000000
10010000
00000000
00000000
00000000
00000000
00000000
00000000
00000000
,
10000000
10000000
01000000
01000000
00010000
00010000
00001000
00001000
,
00000010
00000000
00000010
00000001
00000000
00000001
00000000
00000001
00000010
00000000
00000000
00000000
00000000
00000000
00000000
00000000
,
00000010
00000000
00000001
00001000
00000000
00000100
00010000
00000000
00001000
00000000
00100000
01000000
00000000
10000000
00010000
00000000
,
00100000
00000000
10000000
00100000
00000000
01000000
00010000
00000000
00001000
00000000
00000010
00000001
00000000
00000100
00000000
00000000
,
00001000
00000000
00000100
00000001
00000000
00000010
00000000
00000000
00001000
00000000
00010000
00001000
00000000
00000100
00000000
00000000
,
00001000
00000000
00100000
00010000
00000000
01000000
00000000
00000000
00010000
00000000
01000000
00001000
00000000
00010000
00000000
00000000
,
00000010
00000100
00000010
00000100
00001000
00010000
00001000
00100000
,
00001000
00000000
00010000
00001000
00000000
00001000
00000000
00000000
00100000
00000000
00010000
01000000
00000000
01000000
00000000
00000000
,
00100000
00010000
00100000
10000000
01000000
00010000
00001000
00000100
,
00000001
00000010
00001000
00000010
00000001
00000100
00001000
00010000
,
00011000
00000000
00000000
00000000
,
00000000
00000000
00000000
00000000
,
00011000
00001000
01000000
00100000
01100000
01000000
00010000
01000000
,
01010000
00010000
00100000
00001000
00011000
00010000
00001000
00000100
,
00000101
00000000
00000000
00000000
,
00000000
00000000
00000000
00000000
;

//---------------dance-single - ----------------
#NOTES:
     dance-single:
     :
     Challenge:
     19:
     1.046945,1.699077,0.468582,0.131203,1.518204,782.000000,732.000000,50.000000,14.000000,0.000000,0.000000,1.046945,1.699077,0.468582,0.131203,1.518204,782.000000,732.000000,50.000000,14.000000,0.000000,0.000000:
// measure 0
0000
0000
0000
0000
,  // measure 1
0000
0000
0000
0000
,  // measure 2
0000
0000
0000
0000
,  // measure 3
0000
0000
0000
0000
,  // measure 4
0000
0000
0000
0000
,  // measure 5
0000
0000
0000
0000
,  // measure 6
1000
0100
0000
0100
0001
0000
0000
0000
0010
0001
0000
0001
0100
0000
0010
1000
,  // measure 7
0000
1000
0000
1000
0001
0000
0010
0100
0000
0100
0000
0100
1000
0000
0001
1000
,  // measure 8
0000
1000
0000
1000
0010
0000
0100
0001
0000
0001
0000
0001
0010
0000
0001
0100
,  // measure 9
0000
0100
0000
0100
0010
0000
1000
0000
0100
1000
0001
0100
0010
1000
0100
0010
,  // measure 10
0001
0000
0000
0000
0001
0000
0000
1000
0001
0000
0000
0000
0101
0000
0000
0000
,  // measure 11
1100
0000
0000
0000
1000
0010
0000
0010
0001
0000
0000
0000
0001
0000
0000
0000
,  // measure 12
0011
0101
1100
1010
,  // measure 13
1001
0000
0000
0000
0010
0000
0000
0010
1000
0000
0101
0000
1100
0000
0000
0000
,  // measure 14
0001
0000
0000
0000
0000
0000
0001
0000
0000
0000
0000
0000
0001
0000
0000
0000
0000
0000
0010
0000
0000
0100
0000
0000
1000
0000
0000
0000
0000
0000
0001
0000
0000
0000
0000
0000
0100
0000
0010
0000
0100
0000
0001
0000
0010
0000
0100
0000
,  // measure 15
1000
0000
0000
0000
0001
0000
0000
0000
0010
0000
0001
0000
1000
0000
0010
0000
0100
0000
0000
0000
0001
0000
0000
0000
1000
0010
1000
0010
0100
0001
0100
0001
,  // measure 16
0010
0001
0100
1000
0001
1000
0100
0010
0100
0010
1000
0001
0010
1000
0001
0100
,  // measure 17
0010
1000
0100
0010
0001
0100
0010
1000
0100
0010
0001
0100
0010
0000
0000
1000
0000
0000
0100
0000
0000
0001
0000
0000
,  // measure 18
1000
0000
0000
0000
1000
0000
0000
0001
1000
0000
0000
0000
0010
0000
0000
0000
,  // measure 19
0100
0000
0000
0000
0001
0010
0000
0010
1000
0000
0000
0000
0100
0000
0001
0000
,  // measure 20
0110
0000
0000
0000
1001
0000
0000
0000
1010
0000
0000
0101
0000
0000
0011
0000
,  // measure 21
0000
1100
0000
0000
0101
0000
1000
0001
0100
0000
0000
0000
1001
0000
0000
0000
,  // measure 22
0010
1000
0000
1000
0100
0000
0010
0001
0100
0010
0000
0010
1000
0000
0001
1000
,  // measure 23
0100
0010
0000
0010
0001
0000
0100
0001
1000
0100
0000
0100
0010
0000
0001
0100
,  // measure 24
0001
0010
0000
0010
0100
0000
1000
0001
0010
0100
0000
1000
0001
0000
0100
0010
,  // measure 25
1000
0100
0000
0100
0001
0000
0010
0001
0100
0001
0000
1000
0001
0000
0010
0001
,  // measure 26
0100
0010
0100
0001
1000
0000
0100
0010
0001
0100
0010
1000
0001
0000
1000
0001
,  // measure 27
0010
0100
0010
0100
1000
0000
0001
0100
0001
0010
0001
0100
1000
0000
0010
1000
,  // measure 28
0001
0010
0001
0100
1000
0000
0010
1000
0100
0001
0010
0100
1000
0000
0001
0100
,  // measure 29
0001
0000
0000
0010
0000
0000
1000
0000
0000
0100
0000
0000
0001
0000
0000
0010
0000
0000
1000
0000
0000
0100
0000
0000
0001
0000
0010
0000
0100
0000
1000
0000
0100
0000
0010
0000
0001
0000
0000
0000
0000
0000
0000
0000
0000
0000
0000
0000
,  // measure 30
1010
0000
0000
0010
1000
0100
0100
0100
0010
0001
0001
0001
0100
0010
0010
0010
,  // measure 31
1000
0000
0000
0001
0000
0000
0001
0000
0000
0001
0000
0000
0010
0000
0000
0100
0000
0000
0100
0000
0000
0100
0000
0000
1000
0000
0000
0010
0000
0000
0010
0000
0100
0000
0001
0000
1000
0000
0000
0010
0000
0000
1000
0000
0000
0001
0000
0000
,  // measure 32
0100
0000
0000
0000
0010
1000
0000
0100
0000
0100
0010
0001
1000
0010
0000
0010
,  // measure 33
0000
0100
0001
0010
0001
1000
0000
0010
1000
0100
0000
0100
0010
0001
0000
1000
,  // measure 34
0000
0001
0100
0010
1000
0100
0010
0001
0100
0010
0000
0100
0001
1000
0000
0100
,  // measure 35
0010
0001
0000
0001
0100
0010
1000
0000
0100
0100
0000
0000
1000
0010
0001
0100
,  // measure 36
1000
0000
0001
0100
0000
0110
0000
0010
1000
0100
1000
0001
0000
0011
0000
0010
,  // measure 37
0100
0000
1000
0001
0000
1001
0000
0100
0010
1000
0000
0101
0000
1100
0000
0001
,  // measure 38
0200
0320
0230
0320
,  // measure 39
0230
0000
0320
0000
0130
0000
1001
0100
,  // measure 40
0001
0000
0000
0000
0001
0000
0000
1000
0001
0000
0000
0000
0101
0000
0000
0000
,  // measure 41
1100
0000
0000
0000
1000
0010
0000
0010
0001
0000
0000
0000
0001
0000
0000
0000
,  // measure 42
0011
0101
1100
1010
,  // measure 43
0110
0000
0000
0000
0001
0000
0000
1000
0100
0000
0010
0000
0100
0000
0010
0000
,  // measure 44
0001
0000
0001
0000
0001
0000
1000
0100
0001
0000
0001
0000
0001
0000
1000
0100
,  // measure 45
0001
0000
0001
0000
0001
0010
1000
0100
0001
0000
0001
0000
0001
0010
1000
0000
,  // measure 46
0100
0001
1000
0010
0001
0010
0001
0100
1000
0100
0010
1000
0001
0010
1000
0100
,  // measure 47
0001
0100
1000
0010
1000
0010
0100
0001
0010
0100
0010
0001
1000
0100
0001
1000
0010
0100
1000
0001
0010
0001
1000
0100
,  // measure 48
0010
0000
0000
0000
0010
0000
0000
0001
1000
0000
0000
0000
0001
0000
0000
0000
,  // measure 49
0100
0000
0000
0000
0100
0001
0000
0001
1000
0000
0110
0000
1001
0000
0000
0000
,  // measure 50
0101
1100
0011
0110
,  // measure 51
1001
0000
0000
0000
0110
0000
0000
1000
0101
0000
0000
0000
1001
0000
0100
0000
,  // measure 52
0010
1000
0001
0100
0001
0010
0100
1000
,  // measure 53
0010
1000
0001
0010
0001
0100
0010
1000
,  // measure 54
0100
1000
0001
1000
0001
1000
0001
1000
,  // measure 55
0001
1000
0001
1000
0001
1000
0001
1000
,  // measure 56
0001
0000
0010
0000
0100
0000
0000
1000
0000
1000
0001
0000
0100
0000
0000
0010
,  // measure 57
0000
1000
0100
0000
1000
0000
0001
0010
0001
0000
0000
0000
0100
1000
0001
0100
,  // measure 58
0110
0000
0000
0010
0000
1000
0000
0001
1001
0000
0000
1000
0000
0100
0000
0010
,  // measure 59
0011
0000
0000
0101
0000
1010
0000
0000
1001
0000
0000
0010
1000
0100
1000
0001
,  // measure 60
0100
0000
0010
0100
0001
0010
0100
1000
0010
0000
0100
0001
1000
0010
0100
0010
,  // measure 61
1000
0000
0001
0010
0000
1100
0000
1000
0001
0000
0100
0010
0100
0001
0010
0100
,  // measure 62
1000
0000
0001
0010
0001
0100
1000
0000
0010
0000
0100
0001
1000
0100
0010
0000
,  // measure 63
0001
0000
0000
0100
0010
1000
0001
0000
0000
1000
0100
0010
0001
0000
0000
0010
0001
1000
0010
0000
0000
0100
0001
1000
,  // measure 64
0100
0000
0010
0010
0000
0001
1000
0000
0110
0000
1000
0001
0000
0001
0100
0000
,  // measure 65
1001
0000
0000
0001
0010
0001
0100
0000
0000
0010
1000
0100
0010
0000
0000
0001
1000
0010
0100
0000
0000
0010
1000
0001
,  // measure 66
0010
0000
0000
0000
0000
0000
0100
0000
0000
1000
0000
0000
0001
0000
0000
0100
0000
0000
0010
0000
0000
0000
0000
0000
0100
0000
0000
0000
0000
0000
0001
0000
0010
0000
0100
0000
1000
0000
0000
0001
0000
0000
1000
0000
0000
0000
0000
0000
,  // measure 67
0010
0000
0000
0000
1000
0100
1000
0100
1000
0000
0001
0000
0100
0000
0000
0000
0010
0000
0000
0000
1000
0000
0001
0000
0100
0010
0100
0010
0100
0000
0000
0000
,  // measure 68
0001
0010
0001
0010
0100
0000
1000
0000
0010
0100
0010
0100
0001
0000
1000
0000
0001
0100
0001
0100
0010
0000
1000
0000
0100
1000
0100
1000
0001
0000
0100
0000
,  // measure 69
0010
1000
0010
0100
0001
0000
1000
0000
0100
0010
0100
1000
0001
0000
0100
0000
0001
1000
0010
0100
0001
0000
0010
0000
0100
1000
0010
1000
0001
0000
0100
0000
,  // measure 70
0020
0230
0320
0230
,  // measure 71
0302
2003
3002
2003
,  // measure 72
3001
0100
1000
0001
0010
1000
0010
0001
1000
0100
0010
1000
0100
0010
0001
0100
,  // measure 73
0010
0001
1000
0010
0100
0000
0100
0000
1000
0000
0001
0000
0010
0000
1000
0000
0010
0000
0001
0000
0100
0000
0001
0000
1000
0000
0100
0000
0001
0000
0010
0000
,  // measure 74
0100
0000
0000
0000
;
