#TITLE:ZEPHYRANTHES;
#ARTIST:TAG;
#BANNER:ZEPHYRANTHES.png;
#BACKGROUND:ZEPHYRANTHES-bg.png;
#JACKET:ZEPHYRANTHES-jacket.png;
#MUSIC:ZEPHYRANTHES.ogg;
#SAMPLESTART:65.365;
#SAMPLELENGTH:20;
#DISPLAYBPM:180;
#BPMS:0=180;
#BGCHANGES:;

//---------------dance-single - ----------------
#NOTES:
     dance-single:
     :
     Beginner:
     3:
     :
0000
0000
0000
0000
,
0000
0000
0000
0000
,
0000
0000
0000
0000
,
0000
0000
0000
0000
,
0000
0000
0000
0000
,
0000
0000
0000
0000
,
0000
0000
0000
0000
,
0000
0000
0000
0000
,
0000
0000
0000
0000
,
1000
0000
0000
0000
,
1000
0000
0000
0000
,
0001
0000
0000
0000
,
0010
0000
0000
0000
,
0001
0000
0001
0000
,
1000
0000
1000
0000
,
0001
0001
0001
0000
,
1001
0000
0000
0000
,
1000
0000
0010
0000
,
1000
0000
0010
0000
,
0001
0000
0001
0000
,
0100
0000
0100
0000
,
0001
0000
0010
0000
,
0001
0000
0010
0000
,
1000
0000
1000
0000
,
0100
0000
0100
0000
,
0001
0000
0000
0001
,
0001
0000
0000
1000
,
1000
0000
0000
0001
,
0001
0000
0000
0000
,
1000
0000
1000
0000
,
0001
0000
0001
0000
,
1000
1000
1000
0000
,
1001
0000
0000
0000
,
0010
0000
0001
0000
,
0010
0000
0001
0000
,
1000
0000
0100
0000
,
1000
0000
0100
0000
,
0001
0000
0010
0000
,
0001
0000
0010
0000
,
1000
0000
1000
0000
,
0001
0000
0001
0000
,
0010
0010
0010
0000
,
0010
0000
0001
0000
,
1000
0000
0010
0000
,
1000
0000
1000
0000
,
0001
0000
0001
0000
,
0010
0000
1000
0000
,
1000
0000
0001
0000
,
0010
0000
0000
0000
,
0001
0000
0010
0000
,
0001
0000
1000
0000
,
1000
0000
0010
0000
,
1000
0000
0001
0000
,
1000
0000
0100
0000
,
1000
0000
0001
0000
,
0010
0000
0001
0000
,
0100
0000
0010
0000
,
1000
0000
0000
0000
,
0100
0000
0000
0000
,
0010
0000
0000
0000
,
0001
0000
0000
0000
,
0010
0000
0010
0000
,
0100
0000
0100
0000
,
1000
0000
1000
0000
,
0001
0000
0000
0000
,
2000
0000
0000
0000
,
0000
0000
0000
3000
,
0020
0000
0000
0000
,
0000
0000
0000
0030
,
2000
0000
0000
0000
,
0000
0000
0000
3000
,
0200
0000
0000
0000
,
0000
0000
0300
0000
,
1000
0000
0010
0000
,
1000
0000
0001
0000
,
0001
0000
0010
0000
,
0001
0000
1000
0000
,
0001
0000
0100
0000
,
0001
0000
1000
0000
,
0010
0000
1000
0000
,
0100
0000
0010
0000
,
0001
0000
0000
0000
,
0001
0000
1000
0000
,
1000
0000
0001
0000
,
0001
0000
1000
0000
,
0001
0000
0010
0000
,
0001
0000
1000
0000
,
1000
0000
0010
0000
,
1000
0000
0001
0000
,
0001
0000
0000
0000
,
1001
0000
0000
0000
,
0000
0000
0000
0000
;

//---------------dance-single - ----------------
#NOTES:
     dance-single:
     :
     Easy:
     7:
     :
0000
0000
0000
0000
,
0000
0000
0000
0000
,
0000
0000
0000
0000
,
0000
0000
0000
0000
,
0000
0000
0000
0000
,
0000
0000
0000
0000
,
0000
0000
0000
0000
,
0000
0000
0000
0000
,
0000
0000
0000
0000
,
1000
0001
0000
0010
,
0001
1000
0000
0010
,
1000
0001
0000
0010
,
0001
0001
1000
1000
,
0001
0010
0001
0010
,
0001
1000
0001
1000
,
0010
1000
1000
0000
,
2002
0000
0000
3003
,
1000
0010
0100
0001
,
0001
0100
0010
1000
,
0002
0000
2003
0000
,
3200
0000
0320
0000
,
0031
0100
0010
1000
,
1000
0010
0100
0001
,
2000
0000
3002
0000
,
0203
0000
0320
0000
,
1030
0000
0001
0010
,
0100
0000
1000
0010
,
0100
0000
0001
0100
,
0010
1000
0001
1000
,
0001
0010
0001
0010
,
0001
1000
0001
1000
,
0010
1000
1000
0000
,
2002
0000
0000
3003
,
0001
0010
1000
0010
,
0001
1000
0001
0000
,
1000
0010
0001
0010
,
1000
0001
1000
0000
,
0001
0010
1000
0010
,
0001
1000
0001
0000
,
0200
0300
0002
0003
,
0020
0030
0200
0300
,
0010
0001
0010
0001
,
1000
0100
1000
0100
,
0010
0100
0010
0100
,
1000
0001
1000
0001
,
0100
0010
1000
0010
,
1000
0100
0001
0100
,
1000
0001
0100
1000
,
0200
0000
0000
0300
,
0001
1000
0010
1000
,
0001
0100
0001
1000
,
1000
0100
0001
0100
,
1000
0100
0001
0000
,
0100
0010
0001
0010
,
0100
0010
0001
1000
,
1001
0000
0110
0000
,
0110
0000
1001
0000
,
0010
0010
0010
0010
,
1000
1000
1000
1000
,
0100
0100
0100
0100
,
0001
0001
0001
0001
,
0010
0010
1000
0000
,
1000
1000
0100
0100
,
0010
0010
0001
0001
,
0200
0000
0000
0300
,
0002
0000
1000
0000
,
1000
0000
0010
0000
,
0023
0000
0100
0000
,
0100
0000
0001
0000
,
0032
0000
0100
0000
,
0100
0000
1000
0000
,
2003
0000
0100
0000
,
0010
0000
0000
3000
,
1000
0001
0010
0001
,
1000
0100
1000
0001
,
0001
0100
1000
0100
,
0001
0100
1000
0000
,
0100
0010
1000
0010
,
0100
0010
1000
0001
,
1001
0000
0110
0000
,
1001
0000
0100
1000
,
0020
0000
0000
0030
,
1000
0001
1000
0010
,
0100
0010
1000
0001
,
0010
0100
1000
0010
,
1000
0001
0010
0001
,
1000
0100
1000
0010
,
1001
0000
0110
0000
,
2002
0000
3003
0000
,
0001
0010
1000
0010
,
0220
0000
0000
0000
,
0330
0000
0000
0000
,
0000
0000
0000
0000
;

//---------------dance-single - ----------------
#NOTES:
     dance-single:
     :
     Medium:
     11:
     :
0000
0000
0000
0000
,
0000
0000
0000
0000
,
0000
0000
0000
0000
,
0000
0000
0000
0000
,
0000
0000
0000
0000
,
0000
0000
0000
0000
,
0000
0000
0000
0000
,
0000
0000
0000
0000
,
0000
0000
0000
0000
,
0001
0000
0000
1000
0000
0000
0010
0000
0000
0000
1000
0000
0001
0000
0000
0000
,
1000
0000
0000
0001
0000
0000
0010
0000
0000
0000
0001
0000
1000
0000
0000
0000
,
0010
0000
0000
1000
0000
0000
0100
0000
0000
0000
0010
0000
0001
0000
0000
0000
,
0100
0000
0000
0001
0000
0000
0010
0000
0001
0000
0000
1000
0000
0000
0001
0000
,
1000
0100
1000
0000
0100
0010
0100
0000
,
0010
0001
0010
0000
0001
1000
0001
0100
,
0001
0010
0100
0010
0002
0000
0000
0000
,
2000
3003
0101
0010
,
2000
0000
0100
0000
0001
0000
0100
3000
,
0002
0000
0010
0000
1000
0000
0010
0003
,
0200
0000
1000
0000
0000
0000
0001
0300
,
0002
0000
0010
0000
0000
0000
0100
0003
,
0020
0000
0001
0000
0100
0000
0001
0030
,
0200
0000
1000
0000
0010
0000
1000
0300
,
0020
0000
0001
0000
0000
0000
1000
0030
,
0002
0000
0000
0000
0000
0000
0000
0000
0000
0000
0000
0000
0000
0000
0000
0000
0000
0000
0000
0000
0000
0000
0000
0000
0000
0000
0000
0000
0000
0000
0000
0000
0000
0000
0000
0000
0000
0000
0000
0000
0000
0000
0000
0000
0000
0000
0000
0000
0100
0000
0000
0000
0000
0000
0000
0000
0000
0000
0000
0000
0000
0000
0000
0000
0000
0000
0000
0000
0000
0000
0000
0000
0000
0000
0000
0000
0000
0000
0000
0000
0000
0000
0000
0000
0000
0000
0000
0000
0000
0000
0000
0000
0000
0000
0000
0000
0000
0000
0000
0000
0000
0000
0000
0000
0000
0000
0000
0000
0000
0000
0000
0000
0000
0000
0000
0000
0000
0000
0000
0000
0000
0000
0000
0000
0000
0000
0000
0000
0000
0000
0000
0000
0000
0000
0000
0000
0000
0000
0000
0000
0000
0000
0000
0000
0010
0000
0000
0000
0000
0000
0000
0000
0000
0000
0000
0000
0000
0000
0000
0000
0000
0000
0000
0000
0000
0000
0000
0000
0000
0000
0000
0000
0000
0000
0000
0000
0000
0000
0000
0000
0000
0000
0000
0000
0000
0000
0000
0000
0000
0000
0000
0003
,
1000
0000
0000
0001
0000
0000
0010
0000
0000
0000
0001
0000
1000
0000
0000
0000
,
0001
0000
0000
1000
0000
0000
0010
0000
0000
0000
1000
0000
0001
0000
0000
0000
,
0010
0000
0000
0001
0000
0000
0100
0000
0000
0000
0010
0000
1000
0000
0000
0000
,
0100
0000
0000
1000
0000
0000
0010
0000
1000
0000
0000
0001
0000
0000
1000
0000
,
0001
0100
0001
0000
0100
0010
0100
0000
,
0010
1000
0010
0000
1000
0001
1000
0100
,
1000
0010
0100
0010
1000
0000
0001
0000
,
0020
0000
0230
0000
,
1300
0000
0000
0100
0000
0000
0010
0000
0001
0000
0000
0010
0000
0000
0001
0000
,
1000
0000
0000
0001
0000
0000
1000
0000
0100
0000
0000
0000
0010
0000
0000
0000
,
0001
0000
0000
0010
0000
0000
0100
0000
1000
0000
0000
0010
0000
0000
1000
0000
,
0001
0000
0000
1000
0000
0000
0010
0000
1000
0000
0000
0000
0000
0000
0000
0000
,
0001
0000
0000
0100
0000
0000
0010
0000
1000
0000
0000
0100
0000
0000
1000
0000
,
0010
0000
0000
0100
0000
0000
0001
0000
1000
0000
0000
0000
0100
0000
0000
0000
,
0010
0000
0000
0001
0000
0000
0010
0000
0001
0000
0000
1000
0000
0000
0001
0000
,
1000
0000
0000
0010
0000
0000
1000
0000
0001
0000
0000
1000
0000
0000
0001
0000
,
1000
0010
1000
0000
0001
0100
0001
0000
,
0010
0001
0010
0000
0100
1000
0100
0000
,
0010
0100
0010
0000
0100
1000
0100
0000
,
0010
0001
0010
0000
0001
1000
0001
0000
,
1000
0000
0010
0000
1000
0000
0010
0000
1000
0000
0000
0001
0000
0000
1000
0000
,
0001
0000
0100
0000
0001
0000
0100
0000
0001
0000
0000
1000
0000
0000
0001
0000
,
1001
0000
0000
0010
0000
0000
1000
0000
1001
0000
0000
0010
0000
0000
0001
0000
,
1001
0000
0000
0110
,
1000
0000
0000
0001
0000
0000
1000
0000
0001
0000
0000
0010
0000
0000
0001
0000
,
1000
0000
0000
0001
0000
0000
1000
0000
0010
0000
0100
0000
0001
0000
0010
0000
,
0001
0000
0000
1000
0000
0000
0001
0000
1000
0000
0000
0010
0000
0000
1000
0000
,
0001
0000
0000
1000
0000
0000
0001
0000
1001
0000
0000
0000
0000
0000
0000
0000
,
0010
0000
0000
0100
0000
0000
0010
0000
0100
0000
0000
1000
0000
0000
0100
0000
,
1000
0000
0000
0001
0000
0000
1000
0000
0001
0000
0010
0000
0001
0000
0000
0000
,
0100
0000
0000
0100
0000
0000
0100
0000
0001
0000
0000
0001
0000
0000
0001
0000
,
1000
0000
0000
1000
0000
0000
1000
0000
0020
0000
0000
0000
0000
0000
0000
0000
,
1030
0001
1000
0001
,
0100
0010
0100
0010
,
0100
0001
0100
0001
,
1000
0010
1000
0100
,
1000
0001
1000
0001
0010
0000
0000
0000
,
0001
1000
0001
1000
0001
0100
0010
0000
,
1000
0010
0100
0000
0001
0100
0010
0000
,
1000
0000
0000
0100
0000
0000
0010
0000
0000
0001
0000
0000
0010
0000
0001
0000
,
0020
0001
0100
0001
,
0230
1000
0010
1000
,
2300
0100
0001
0010
,
3002
0100
1003
0000
,
0200
0001
0010
0001
,
0320
0100
1000
0100
,
0230
1000
0001
0010
,
0001
0000
0000
0301
,
0001
0000
0000
1000
0000
0000
0001
0000
1000
0000
0000
0010
0000
0000
1000
0000
,
0001
0000
0000
1000
0000
0000
0001
0000
0010
0000
0100
0000
1000
0000
0010
0000
,
1000
0000
0000
0001
0000
0000
1000
0000
0001
0000
0000
0010
0000
0000
0001
0000
,
1000
0000
0000
0001
0000
0000
1000
0000
1001
0000
0000
0000
0000
0000
0000
0000
,
0010
0000
0000
0100
0000
0000
0010
0000
0100
0000
0000
0001
0000
0000
0100
0000
,
0001
0000
0000
1000
0000
0000
0001
0000
1000
0000
0010
0000
1000
0000
0000
0000
,
0100
0000
0000
0100
0000
0000
0100
0000
1000
0000
0000
1000
0000
0000
1000
0000
,
0001
0000
0000
0001
0000
0000
0001
0000
0010
0000
0000
0010
0000
0000
0010
0000
,
0200
0000
0000
0000
0300
1000
0001
1000
,
0001
0000
0000
0100
0000
0000
0100
0000
0010
0000
1000
0000
0010
0000
0100
0000
,
0010
0000
0000
1000
0000
0000
1000
0000
0100
0000
0001
0000
0100
0000
0010
0000
,
0001
0000
0000
1000
0000
0000
1000
0000
0001
0000
1000
0000
0001
0000
0000
0000
,
0100
0000
0000
0010
0000
0000
0100
0000
0001
0000
0000
1000
0000
0000
0001
0000
,
1000
0000
0000
0100
0000
0000
1000
0000
0001
0000
0010
0000
0001
0000
0000
0000
,
0001
0000
0000
0001
0000
0000
0001
0000
1000
0000
0000
1000
0000
0000
1000
0000
,
0010
0000
0000
0010
0000
0000
0010
0000
0100
0000
0010
0000
0100
0000
0010
0000
,
2000
0000
0000
0000
,
3001
0010
0100
1000
0001
0100
0010
1000
,
0010
0000
0000
0000
,
0000
0000
0000
0000
;

//---------------dance-single - ----------------
#NOTES:
     dance-single:
     :
     Hard:
     15:
     :
0000
0000
0000
0000
,
0000
0000
0000
0000
,
0000
0000
0000
0000
,
0000
0000
0000
0000
,
0000
0000
0000
0000
,
0000
0000
0000
0000
,
0000
0000
0000
0000
,
0000
0000
0000
0000
,
0000
0000
0000
0000
,
0010
0000
0000
1000
0000
0000
0010
0000
1000
0000
0001
0000
0100
0000
0010
0000
,
1000
0000
0000
0010
0000
0000
1000
0000
0100
0000
0001
0000
0100
0000
0010
0000
,
0100
0000
0000
1000
0000
0000
0100
0000
1000
0000
0010
0000
0100
0000
0010
0000
,
1000
0000
0000
0001
0000
0000
0010
0000
0100
0000
0000
1000
0000
0000
0100
0000
,
0010
0001
0100
0010
1000
0100
0010
0100
,
1000
0010
0100
0001
0010
0001
0100
0010
,
0100
0001
0100
0000
0010
0100
0010
0000
1000
0010
1000
0000
0002
0000
0000
0000
,
2003
0000
3001
0110
,
0100
0000
0000
0001
0000
0000
0010
0000
0000
0001
0000
0000
1000
0000
0010
0000
,
1000
0000
0000
0001
0000
0000
0100
0000
0000
0001
0000
0000
0010
0000
0100
0000
,
1000
0000
0100
1000
0000
0100
1000
0000
0001
0000
0010
0001
0000
0010
0001
0000
,
0100
0000
0001
0100
0000
0001
0100
0000
0010
0000
1000
0010
0000
1000
0010
1000
,
0010
0000
0000
1000
0000
0000
0100
0000
0000
1000
0000
0000
0001
0000
0100
0000
,
0001
0000
0000
1000
0000
0000
0010
0000
0000
1000
0000
0000
0100
0000
0010
0000
,
0001
0000
0010
0001
0000
0010
0001
0000
1000
0000
0100
1000
0000
0100
1000
0000
,
0010
0000
1000
0010
0000
1000
0010
0000
0100
0000
0001
0100
0001
0000
0000
0000
,
0100
0000
0000
0010
0000
0000
0100
0000
0001
0000
0010
0000
0100
0000
0010
0000
,
0001
0000
0000
1000
0000
0000
0001
0000
1000
0000
0010
0000
0100
0000
0001
0000
,
1000
0000
0000
0001
0000
0000
1000
0000
0100
0000
0010
0000
0100
0000
1000
0000
,
0001
0000
0000
1000
0000
0000
0100
0000
0001
0000
0000
0100
0000
0000
1000
0000
,
0010
1000
0100
0010
0001
0100
0010
0100
,
0001
0010
0100
1000
0010
1000
0100
0010
,
0100
1000
0100
0000
0010
0100
0010
0000
0001
0010
0001
0000
1000
0000
0000
0000
,
0002
0000
2000
3003
,
0001
0000
1000
0010
0000
0000
1000
0000
0100
0000
1000
0100
0000
0000
0010
0000
,
0001
0000
0100
0001
0000
0000
0100
0000
0010
0000
1000
0010
1000
0000
0000
0000
,
0001
0000
0100
0010
0000
0000
0100
0000
0001
0000
0010
0100
0000
0000
0010
0000
,
0001
0000
1000
0010
0000
0000
1000
0000
0001
0000
0000
0000
0100
0000
0001
0000
,
1000
0000
0010
0100
0000
0000
0001
0000
0010
0000
0100
1000
0000
0000
0010
0000
,
0100
0000
0001
0010
0000
0000
0001
0000
1000
0000
0001
0010
0001
0000
0000
0000
,
1001
0000
0000
1001
0000
0000
0101
0000
0110
0000
0000
1010
0000
0000
0110
0000
,
1001
0000
0000
0011
0000
0000
0110
0000
1100
0000
0000
0101
0000
0000
1001
0000
,
0010
1000
0010
1000
0001
0100
1000
0100
,
0001
0010
0001
0100
0010
1000
0100
0010
,
0100
1000
0010
0100
0001
0010
0001
0100
,
0010
1000
0100
0001
0100
1000
0010
0001
,
0010
0000
1000
0000
0010
0000
1000
0000
0010
0000
0000
0100
0000
0000
0010
0000
,
0100
0000
0001
0000
0100
0000
0001
0000
0010
0000
0000
0100
0000
0000
0010
0000
,
0001
0000
0000
0100
0000
0000
1000
0000
0100
0000
0000
0001
0000
0000
0010
0000
,
0011
0000
0000
1010
0000
0000
0110
0000
0000
1001
0000
0000
0011
0000
0110
0000
,
1000
0000
0001
1000
0000
0001
0100
0000
0001
0000
1000
0001
0000
0100
0001
0000
,
1000
0000
0001
0100
0000
0001
0010
0000
0001
0000
1000
0100
1000
0000
0000
0000
,
0001
0000
1000
0100
0000
1000
0010
0000
1000
0000
0001
0100
0000
0001
0010
0000
,
0001
0000
1000
0100
0000
1000
0010
0000
2000
0000
0000
0000
3100
0000
0010
0000
,
0001
0000
1000
0001
0000
1000
0100
0000
1000
0000
0001
1000
0000
0100
1000
0000
,
0001
0000
1000
0100
0000
1000
0010
0000
1000
0000
0001
0100
0001
0000
0000
0000
,
1001
0000
0000
1100
0000
0000
0101
0000
1001
0000
0000
0011
0000
0000
1010
0000
,
1001
0000
0000
0110
0000
0000
1010
0000
2002
0000
0000
0000
0000
0000
3003
0000
,
0010
0100
1000
0100
0010
0100
1000
0100
,
0010
0001
1000
0001
0010
0001
1000
0001
,
0100
0010
1000
0010
0100
0010
1000
0010
,
0100
0001
0100
0010
1000
0100
0010
0001
,
0010
0100
0010
0001
0020
0000
0000
0030
,
0100
0010
0001
0010
0100
1000
0002
0000
,
1003
0001
1000
0001
2000
0000
3000
0000
0010
1000
0010
1000
0020
0000
0030
0000
,
1010
0000
0000
0011
0000
0000
0110
0000
0000
1100
0000
0000
1001
0000
1001
0000
,
0002
0100
1000
0100
,
0023
0100
0001
0100
,
2030
0010
3020
0001
,
0032
1000
0103
0000
,
0020
1000
0001
1000
,
0230
1000
0001
0010
,
2300
0100
0001
0010
,
0002
3003
0100
0011
,
0001
0000
1000
0001
0000
1000
0100
0000
1000
0000
0001
1000
0000
0100
1000
0000
,
0001
0000
1000
0100
0000
1000
0010
0000
1000
0000
0001
0100
0001
0000
0000
0000
,
1000
0000
0001
0100
0000
0001
0010
0000
0001
0000
1000
0100
0000
1000
0010
0000
,
1000
0000
0001
0100
0000
0001
0010
0000
0002
0000
0000
0000
0103
0000
0010
0000
,
1000
0000
0001
1000
0000
0001
0100
0000
0001
0000
1000
0001
0000
0100
0001
0000
,
1000
0000
0001
0100
0000
0001
0010
0000
0001
0000
1000
0100
1000
0000
0000
0000
,
1001
0000
0000
0101
0000
0000
1001
0000
1010
0000
0000
1001
0000
0000
1010
0000
,
0110
0000
0000
0101
0000
0000
0011
0000
0110
0000
0000
1001
0000
0000
1100
0000
,
2002
0000
0000
0000
3003
1000
0001
0010
,
0001
0000
0000
0100
0000
0000
0010
0000
1000
0000
0100
1000
0001
0100
0001
0100
,
0001
0000
0000
0001
0000
0000
0100
0000
0001
0000
0100
0001
1000
0100
1000
0100
,
1000
0000
0000
1000
0000
0000
0001
0000
1000
0000
0000
0010
0010
0000
0000
0000
,
1001
0000
0000
0101
0000
0000
1001
0000
1010
0000
0000
0110
0000
0000
0101
0000
,
0110
0000
0000
1010
0000
0000
1100
0000
0110
0000
0001
0010
0001
0000
0000
0000
,
1001
0000
0000
0110
0000
0000
1001
0000
1100
0000
0000
0101
0000
0000
1100
0000
,
1001
0000
0000
0101
0000
0000
0110
0000
0010
0000
1000
0000
0001
0000
1000
0000
,
0001
0000
0010
0001
0000
1000
0001
0000
1000
0000
0010
0100
0000
0001
0010
0000
,
0002
0000
0000
0000
0000
0000
0000
0003
1000
0010
1000
0010
0100
0001
0100
0001
,
0010
0000
0000
0000
,
0000
0000
0000
0000
;

//---------------dance-single - ----------------
#NOTES:
     dance-single:
     :
     Challenge:
     19:
     :
0000
0000
0000
0000
,
0000
0000
0000
0000
,
0000
0000
0000
0000
,
0000
0000
0000
0000
,
0000
0000
0000
0000
,
0000
0000
0000
0000
,
0000
0000
0000
0000
,
0000
0000
0000
0000
,
0000
0000
0000
0000
,
0001
0010
0000
0010
0000
0000
0100
1000
0000
1000
0001
0000
0100
0000
0010
0000
,
1000
0100
0000
0100
0000
0000
0010
0001
0000
0001
1000
0000
0010
0000
0100
0000
,
0001
0000
1000
0100
0000
1000
0001
0000
0000
0010
0100
0000
1000
0000
0001
0000
,
0010
0000
0100
1000
0000
0010
0100
0000
0001
0000
0010
0001
0000
1000
0001
0000
,
1000
0000
0010
1000
0000
0001
0010
0000
0000
0100
0010
0000
0001
0000
1000
0000
,
0010
0000
1000
0100
0000
0100
0010
0000
0001
1000
0010
0000
0100
0000
0001
0000
,
0010
0000
0000
0000
0000
0000
0001
0000
0100
0000
0001
0000
0100
0000
0000
0000
0000
0000
0010
0000
1000
0000
0010
0000
1000
0000
0000
0000
0000
0000
0100
0000
0000
0010
0000
0000
0001
0000
1000
0000
0001
0000
1000
0000
0001
0000
1000
0000
,
0020
0000
0000
0000
0000
0000
0000
0000
0000
0000
0000
0000
1030
0000
0000
0100
0000
0000
0010
0000
0000
0001
0000
0000
0100
0000
0000
0000
0000
0000
0010
0000
0000
1000
0000
0000
0001
0000
0000
0000
1000
0000
0000
0000
0100
0000
0000
0000
,
0010
0000
0001
0100
0000
0100
0010
0000
1000
0001
0000
0001
1000
0000
0100
0000
,
0010
0000
0100
1000
0000
1000
0001
0000
1000
0010
0000
0100
0001
0000
0010
0000
,
0100
1000
0010
1000
0010
0001
0100
0001
0100
1000
0010
0001
0100
0001
1000
0010
,
0001
0100
1000
0010
0001
0010
0100
1000
0001
0010
0001
0100
1000
0100
1000
0010
,
0100
0000
0001
1000
0000
1000
0010
0000
0100
0001
0000
0010
0001
0000
1000
0000
,
0100
0000
1000
0010
0000
1000
0010
0000
0100
0001
0000
1000
0001
0000
0010
0000
,
0100
0001
0010
1000
0001
0010
1000
0010
0100
0001
1000
0100
0001
1000
0100
0010
,
1000
0000
0000
0001
0000
0000
0100
0000
0000
1000
0000
0000
0100
0000
0000
0010
0000
0000
0001
0000
0000
0010
0000
0000
0100
0000
0000
0000
0000
0000
1000
0000
0010
0000
0100
0000
0001
0000
0000
0000
0000
0000
1000
0000
0000
0100
0000
0000
,
1000
0000
0001
0010
0000
0001
0100
0000
0010
1000
0000
0100
0010
0000
0001
0000
,
0100
0000
0010
1000
0000
0100
0010
0000
0001
0100
0010
1000
0001
0000
0100
0000
,
0001
0000
0010
0001
0000
1000
0001
0000
1000
0100
0000
0100
0010
0000
0001
0000
,
0100
0000
0010
1000
0000
0010
1000
0000
0100
0000
0010
0001
0000
0010
0001
0000
,
1000
0000
0010
1000
0000
0100
0010
0000
0001
1000
0001
0100
0010
0000
1000
0000
,
0100
0000
0010
0001
0000
1000
0100
0000
0010
0001
1000
0000
0001
0000
0100
0000
,
0010
0000
0000
0000
0000
0000
1000
0000
0000
0100
0000
0000
0000
0000
0000
1000
0000
0000
0001
0000
0000
0010
0000
0000
0100
0000
0000
0000
0000
0000
1000
0000
0010
0000
1000
0000
0010
0000
0000
0000
0000
0000
0100
0000
0001
0000
0100
0000
,
0002
0000
0000
0000
0000
0000
0010
0000
0000
0000
0000
0000
0013
0000
0000
0000
0000
0000
0100
0000
0000
1000
0000
0000
0001
0000
0000
0000
1000
0000
0000
0000
0010
0000
0000
0000
1000
0000
0000
0000
0001
0000
0000
0000
0100
0000
0000
0000
,
0010
1000
0010
1000
0000
0000
0001
0010
0100
1000
0100
1000
0000
0001
0100
0010
,
1000
0100
1000
0001
0000
0010
0100
0000
1000
0010
0000
0100
0000
0001
1000
0001
,
0010
0100
1000
0010
0000
0100
0001
0000
0100
0010
1000
0001
0000
0010
0100
1000
,
0001
0100
0010
1000
0000
0100
1000
0010
0001
0000
0000
0000
1000
0100
0010
0001
,
0100
0001
1000
0010
0001
0010
0001
0100
1000
0100
1000
0100
0010
1000
0001
0010
,
0100
0010
0001
1000
0000
1000
0100
1000
0010
0100
0001
1000
0010
0100
0001
0100
,
0001
0010
0100
1000
0000
0000
0010
1000
0100
1000
0001
0010
0000
0000
0001
0100
,
0010
1000
0100
1000
0000
0001
0010
0100
1000
0010
0001
0100
0010
0100
0001
1000
,
0010
0000
0010
0000
0010
0000
1000
0000
0001
0000
1000
0100
0000
0100
0001
0000
,
0010
0000
0100
0000
1000
0001
0010
0001
1000
0000
0100
0010
0000
0010
0001
0000
,
0100
0000
0010
0000
1000
0000
0100
1000
0001
0000
0010
0001
0000
0001
0100
0000
,
0010
0000
1000
0000
0001
0000
0010
0100
1000
0000
0001
1000
0000
1000
0100
0000
,
0110
0000
0000
0000
0000
0000
0110
0000
0000
0000
0000
0000
0110
0000
0000
0000
0000
0000
0001
0000
0000
0100
0000
0000
0010
0000
0000
0000
0000
0000
1000
0000
0000
0001
0000
0000
0000
0000
0000
1000
0000
0000
0010
0000
0100
0000
0001
0000
,
1000
0000
0000
0000
0000
0000
1000
0000
0000
0000
0000
0000
1000
0000
0000
0000
0000
0000
0100
0000
0000
0010
0000
0000
0001
0000
0000
0000
0000
0000
1000
0000
0000
0001
0000
0000
0000
0000
0000
0100
0000
0000
0001
0000
0010
0000
0100
0000
,
1000
0000
0000
0000
0000
0000
0010
0000
0000
0100
0000
0000
0001
0000
1000
0000
0001
0000
1000
0000
0001
0000
1000
0000
0100
0000
0000
0000
0000
0000
0010
0000
0000
0001
0000
0000
1000
0000
0010
0000
1000
0000
0100
0000
0010
0000
0001
0000
,
1000
0010
0100
0001
0100
0001
0100
0010
0001
1000
0010
1000
0010
0001
0100
1000
,
0010
0000
1000
0000
1000
0000
0100
0010
0001
1000
0001
0010
0000
0100
1000
0001
,
1000
0010
0100
0001
0000
0001
1000
0000
0001
0010
0100
1000
0000
1000
0001
0000
,
0100
0001
0010
0100
1000
0010
1000
0001
0010
0100
0010
0001
1000
0100
1000
0001
,
0100
0010
1000
0001
0000
0010
0100
0000
2000
0000
0000
0000
3001
1000
0001
0010
,
0100
1000
0100
0010
0001
1000
0001
0100
0010
1000
0001
1000
0000
0100
0010
0001
,
0100
0001
0010
0100
1000
0001
0010
0000
0100
1000
0100
1000
0000
0001
0100
0000
,
0010
1000
0100
0001
0000
0001
0010
0100
1000
0010
0100
0001
0000
1000
0100
0001
,
0010
0100
1000
0001
0000
1000
0010
0000
0100
0000
0001
0010
0001
0000
1000
0100
,
0010
1000
0001
0100
1000
0001
0010
0100
,
0001
0010
1000
1000
0010
0100
0001
0100
,
1000
0100
1000
0010
0001
0001
0010
0100
,
0100
0001
1000
1000
0100
0001
0010
0010
,
0100
0000
0000
0000
0000
0000
1000
0000
0000
0000
0000
0000
0001
0000
0000
0000
0000
0000
0010
0000
0000
0000
0000
0000
1000
0000
0100
0000
1000
0000
0100
0000
0000
0010
0000
0000
0000
0000
0000
0001
0000
0000
0100
0000
0010
0000
0100
0000
,
0001
0000
0000
1000
0000
0000
0010
0000
0000
0100
0000
0000
0001
0000
0000
0010
0000
0000
0100
1000
0001
1000
0010
0100
,
0001
0000
0000
0010
0000
0000
0100
0000
0000
1000
0000
0000
0010
0000
0100
0000
0001
0000
0010
0000
0100
0000
1000
0000
0010
0000
0000
0100
0000
0000
0001
0000
0000
1000
0000
0000
0001
0000
0010
0000
0100
0000
1000
0000
0100
0000
0010
0000
,
0001
0000
0000
0011
0000
0000
1100
0000
0000
0101
0000
0000
1001
0000
0110
0000
,
1000
0000
0010
0100
0000
0100
0001
0000
0010
0000
0000
0001
0000
0000
1000
0000
,
0100
0010
0100
0010
0000
0001
1000
0001
0100
0010
1000
0001
0000
0000
0010
0100
,
1000
0010
0100
0002
0000
0000
0010
0000
0013
0100
1000
0002
0000
0000
0100
0000
,
0103
0000
0010
1000
0000
0010
1000
0000
0200
0000
0000
0000
0310
0001
0100
0001
,
1000
0000
0010
0100
0000
0010
0100
0000
0001
0000
1000
0100
0000
1000
0100
0010
,
0001
0100
0010
1000
0000
0001
1000
0000
0010
0000
0000
0100
0000
0000
0001
0000
,
1000
0100
0010
0002
0000
0000
1003
0000
0010
0100
0001
2000
0000
0000
3100
0000
,
0010
0000
0000
0001
0000
0000
1000
0000
0001
0100
1000
0100
0001
0010
1000
0010
,
0001
0000
0100
0010
0000
0010
1000
0000
0100
0010
0001
1000
0000
0001
0100
0010
,
1000
0100
1000
0001
0000
0010
0100
0000
1000
0010
1000
0001
0000
0100
0010
0000
,
1000
0100
1000
0010
0100
0001
1000
0000
0001
0010
0100
0010
0001
1000
0100
0000
,
0010
0001
0100
0010
1000
0100
0001
0000
0020
0000
0100
0000
0130
0000
1000
0001
,
1000
0010
0100
0001
0010
0100
1000
0000
0001
0100
0001
0010
0000
1000
0100
0001
,
1000
0010
0100
0010
1000
0001
0010
0000
0100
1000
0100
0010
0000
0001
1000
0000
,
0001
0100
1000
0100
0010
1000
0010
0001
0010
0001
1000
0010
0100
1000
0001
0100
,
0001
0010
1000
0010
0100
0001
0100
1000
0001
0010
0100
1000
0100
1000
0010
0001
,
0200
0000
0000
0000
0000
0000
0310
0000
0000
0100
0000
0000
0001
0000
0000
1000
0100
0010
0001
0000
0000
0100
0000
0000
,
0010
0000
0000
1000
0000
0000
0001
0000
1000
0000
0100
0010
0001
0100
0001
1000
,
0010
0000
0000
1000
0000
0000
0100
0000
0001
0000
1000
0001
0010
1000
0100
0001
,
1000
0000
0010
0100
0000
0001
1000
0000
0100
0000
0000
1000
0001
0000
0000
0000
,
0010
0100
0010
0001
0100
0010
1000
0001
1000
0100
0010
0001
0000
1000
0001
1000
,
0010
0100
0010
1000
0000
0100
0010
0000
0001
1000
0001
0010
0000
0100
1000
0000
,
0001
0010
0100
1000
0010
0100
0001
1000
0010
1000
0100
0010
0001
0100
0001
1000
,
0100
0010
0001
1000
0010
1000
0001
0100
0001
0010
0100
1000
0010
0100
0001
1000
,
0010
0100
0010
0100
0000
0001
1000
0000
0100
0010
0100
0010
0000
0001
1000
0000
,
0010
0001
1000
0001
1000
0100
0100
0001
0010
0001
0010
0100
1000
0100
1000
0010
,
0001
0000
0000
0000
;

//---------------dance-double - ----------------
#NOTES:
     dance-double:
     :
     Easy:
     7:
     :
00000000
00000000
00000000
00000000
,
00000000
00000000
00000000
00000000
,
00000000
00000000
00000000
00000000
,
00000000
00000000
00000000
00000000
,
00000000
00000000
00000000
00000000
,
00000000
00000000
00000000
00000000
,
00000000
00000000
00000000
00000000
,
00000000
00000000
00000000
00000000
,
00000000
00000000
00000000
00000000
,
00010000
00000010
00000000
00001000
,
00000100
00010000
00000000
00001000
,
00100000
00010000
00000000
01000000
,
00100000
10000000
00010000
01000000
,
00010000
10000000
01000000
00010000
,
00001000
00000010
00000001
00001000
,
00000010
00000010
00001001
00000000
,
00000220
00000000
00000000
00000330
,
00000001
00000100
00000010
00001000
,
00010000
01000000
00100000
10000000
,
00020000
00000000
20030000
00000000
,
32000000
00000000
23000000
30000000
,
10000000
01000000
00100000
00010000
,
00001000
00000100
00000010
00000001
,
00002000
00000000
00003002
00000000
,
00000203
00000000
00000302
00000000
,
00001003
00000000
00000010
00000100
,
00000001
00000000
00000100
00000010
,
00000100
00000000
00000010
00010000
,
00001000
00010000
00100000
10000000
,
00010000
00100000
00010000
00100000
,
01000000
10000000
01000000
10000000
,
01000000
00010000
00001000
00000000
,
00022000
00000000
00000000
00033000
,
00001000
00010000
00000010
00001000
,
00000100
00010000
00001000
00000000
,
00100000
00001000
00010000
00001000
,
01000000
00010000
01000000
00000000
,
00100000
10000000
00010000
00100000
,
00001000
00010000
00001000
00000000
,
00020000
00030000
00000200
00000300
,
00000020
00000030
00000002
00000003
,
00000001
00000100
00001000
00010000
,
00100000
10000000
00010000
00100000
,
00001000
00010000
00000100
00010000
,
00001000
00000010
00000001
00001000
,
00000001
00000100
00001000
00000000
,
00010000
01000000
10000000
00000000
,
01000000
00010000
00001000
00000010
,
00000002
00000000
00000000
00000003
,
00001000
00000010
00001000
00000001
,
00000100
00001000
00010000
00001000
,
00010000
01000000
10000000
01000000
,
00010000
01000000
10000000
00000000
,
00010000
00100000
00010000
10000000
,
01000000
00010000
00001000
00010000
,
00011000
00000000
00001100
00000000
,
00011000
00000000
00001010
00000000
,
00000001
00000001
00000100
00000100
,
00001000
00001000
00010000
00010000
,
00100000
00100000
10000000
10000000
,
01000000
01000000
00010000
00010000
,
00001000
00001000
00000010
00000000
,
00000001
00000001
00001000
00001000
,
00000010
00010000
00000100
00010000
,
00002000
00000000
00000000
00003000
,
00020000
00000000
00000100
00000000
,
00000100
00000000
00001000
00000000
,
00032000
00000000
01000000
00000000
,
01000000
00000000
00010000
00000000
,
00203000
00000000
00001000
00000000
,
00010000
00000000
00001000
00000000
,
00320000
00000000
10000000
00000000
,
01000000
00000000
00000000
00030000
,
00010000
00100000
00010000
10000000
,
01000000
00010000
00001000
00010000
,
00001000
00000100
00000001
00000100
,
00001000
00000100
00000001
00000000
,
00001000
00000010
00001000
00000001
,
00000100
00001000
00010000
00001000
,
00011000
00000000
01010000
00000000
,
00011000
00000000
00001010
00000000
,
00000200
00000000
00000000
00000300
,
00000001
00001000
00000001
00000100
,
00001000
00010000
00001000
00010000
,
01000000
10000000
01000000
00010000
,
00001000
00100000
00001000
00010000
,
00000010
00001000
00000100
00010000
,
00011000
00000000
01100000
00000000
,
20020000
00000000
30030000
00000000
,
10000000
01000000
00010000
00001000
,
00022000
00000000
00000000
00000000
,
00033000
00000000
00000000
00000000
,
00000000
00000000
00000000
00000000
;

//---------------dance-double - ----------------
#NOTES:
     dance-double:
     :
     Medium:
     11:
     :
00000000
00000000
00000000
00000000
,
00000000
00000000
00000000
00000000
,
00000000
00000000
00000000
00000000
,
00000000
00000000
00000000
00000000
,
00000000
00000000
00000000
00000000
,
00000000
00000000
00000000
00000000
,
00000000
00000000
00000000
00000000
,
00000000
00000000
00000000
00000000
,
00000000
00000000
00000000
00000000
,
10000000
00000000
00000000
00010000
00000000
00000000
00100000
00000000
00000000
00000000
00001000
00000000
00010000
00000000
00000000
00000000
,
00100000
00000000
00000000
10000000
00000000
00000000
00100000
00000000
00000000
00000000
00010000
00000000
00001000
00000000
00000000
00000000
,
00000010
00000000
00000000
00000001
00000000
00000000
00001000
00000000
00000000
00000000
00000001
00000000
00000010
00000000
00000000
00000000
,
00000100
00000000
00000000
00001000
00000000
00000000
00000001
00000000
00000010
00000000
00000000
00000100
00000000
00000000
00000100
00000000
,
00010000
00001000
00010000
00000000
00100000
01000000
00100000
00000000
,
10000000
01000000
10000000
00000000
01000000
00010000
01000000
00000000
,
00010000
00001000
00010000
00000100
00002000
00000000
00000000
00000000
,
00000002
00003003
00001001
00000010
,
00000002
00000000
00000100
00000000
00001000
00000000
00000100
00000003
,
00002000
00000000
00000010
00000000
00000001
00000000
00000010
00003000
,
00000200
00000000
00000010
00000000
00000000
00000000
00010000
00000300
,
00020000
00000000
00000010
00000000
00000000
00000000
00001000
00030000
,
00002000
00000000
00010000
00000000
00100000
00000000
00010000
00003000
,
02000000
00000000
00100000
00000000
00010000
00000000
00100000
03000000
,
00002000
00000000
00010000
00000000
00000000
00000000
00000010
00003000
,
00020000
00001000
00000000
00130000
,
10000000
00000000
00000000
00010000
00000000
00000000
00100000
00000000
00000000
00000000
00001000
00000000
00010000
00000000
00000000
00000000
,
00100000
00000000
00000000
10000000
00000000
00000000
00100000
00000000
00000000
00000000
00010000
00000000
00001000
00000000
00000000
00000000
,
00000010
00000000
00000000
00000001
00000000
00000000
00001000
00000000
00000000
00000000
00000001
00000000
00000010
00000000
00000000
00000000
,
00000100
00000000
00000000
00001000
00000000
00000000
00000001
00000000
00000010
00000000
00000000
00000100
00000000
00000000
00010000
00000000
,
00001000
00010000
00001000
00000000
00000010
00000100
00000010
00000000
,
00000001
00000100
00000001
00000000
00000100
00001000
00000100
00000000
,
00001000
00010000
00001000
01000000
00020000
00000000
00000000
00000000
,
20000000
00030000
00200000
30300000
,
10000000
00000000
00000000
01000000
00000000
00000000
00100000
00000000
00010000
00000000
00000000
00100000
00000000
00000000
00001000
00000000
,
00010000
00000000
00000000
00001000
00000000
00000000
00000100
00000000
00000010
00000000
00000000
00000000
00001000
00000000
00000000
00000000
,
00000001
00000000
00000000
00000010
00000000
00000000
00000100
00000000
00001000
00000000
00000000
00000100
00000000
00000000
00010000
00000000
,
00001000
00000000
00000000
00010000
00000000
00000000
01000000
00000000
00100000
00000000
00000000
00000000
00000000
00000000
00000000
00000000
,
00010000
00000000
00000000
01000000
00000000
00000000
00100000
00000000
10000000
00000000
00000000
00100000
00000000
00000000
01000000
00000000
,
00001000
00000000
00000000
00010000
00000000
00000000
00001000
00000000
00100000
00000000
00000000
00000000
01000000
00000000
00000000
00000000
,
00100000
00000000
00000000
00010000
00000000
00000000
00100000
00000000
00001000
00000000
00000000
00010000
00000000
00000000
00000010
00000000
,
00010000
00000000
00000000
00001000
00000000
00000000
00100000
00000000
00010000
00000000
00000000
10000000
00000000
00000000
00010000
00000000
,
10000000
00100000
10000000
00000000
00010000
01000000
00010000
00000000
,
00100000
00010000
00100000
00000000
00001000
00010000
00001000
00000000
,
00100000
01000000
00100000
00000000
00001000
00010000
00001000
00000000
,
00100000
00010000
00100000
00000000
00001000
00010000
00001000
00000000
,
01000000
00000000
00010000
00000000
01000000
00000000
00010000
00000000
01000000
00000000
00000000
00001000
00000000
00000000
00100000
00000000
,
00001000
00000000
00010000
00000000
00001000
00000000
00010000
00000000
00001000
00000000
00000000
00100000
00000000
00000000
00001000
00000000
,
00010000
00000000
00000000
00000010
00000000
00000000
00000100
00000000
00000001
00000000
00000000
00001000
00000000
00000000
00000100
00000000
,
00001100
00000000
00000000
00011000
,
00100000
00000000
00000000
00010000
00000000
00000000
00100000
00000000
00001000
00000000
00000000
00010000
00000000
00000000
00001000
00000000
,
00010000
00000000
00000000
00000010
00000000
00000000
00001000
00000000
00000100
00000000
00000010
00000000
00000001
00000000
00000000
00000000
,
00000001
00000000
00000000
00000100
00000000
00000000
00000001
00000000
00001000
00000000
00000000
00000100
00000000
00000000
00001000
00000000
,
00000010
00000000
00000000
00010000
00000000
00000000
00001000
00000000
00200000
00000000
00000000
00000000
00300000
00000000
00000000
00000000
,
00010000
00000000
00000000
00100000
00000000
00000000
00010000
00000000
10000000
00000000
00000000
01000000
00000000
00000000
10000000
00000000
,
00010000
00000000
00000000
01000000
00000000
00000000
00010000
00000000
00100000
00000000
00001000
00000000
00100000
00000000
00000000
00000000
,
00001000
00000000
00000000
00001000
00000000
00000000
00001000
00000000
00010000
00000000
00000000
00010000
00000000
00000000
00010000
00000000
,
00000100
00000000
00000000
00000100
00000000
00000000
00000100
00000000
00000020
00000000
00000000
00000000
00000000
00000000
00000000
00000000
,
00000031
00001000
00000001
00000000
00001000
00000010
00001000
00000000
,
00000010
00010000
00000010
00000000
00010000
00001000
00010000
00000000
,
00001000
00100000
00001000
00000000
00100000
00010000
00100000
00000000
,
00010000
10000000
00010000
00000000
10000000
00100000
10000000
00000000
,
00010000
01000000
00010000
01000000
10000000
00000000
00000000
00000000
,
10000000
01000000
00010000
01000000
00010000
01000000
00001000
00000000
,
00001000
00010000
00000010
00000000
00010000
00001000
00100000
00000000
,
00001000
00000000
00000000
00100000
00000000
00000000
01000000
00000000
00000000
00100000
00000000
00000000
00010000
00000000
00010000
00000000
,
00200000
00010000
01000000
00010000
,
00302000
00010000
00000010
00010000
,
02003000
00100000
00010000
00100000
,
03020000
01000000
10030000
00000000
,
02000000
00010000
00100000
00010000
,
03002000
00010000
00000100
00010000
,
00003200
00000001
00001000
00000001
,
00001000
00000300
00001000
00011000
,
00000010
00000000
00000000
00001000
00000000
00000000
00000010
00000000
00010000
00000000
00000000
00001000
00000000
00000000
00010000
00000000
,
00001000
00000000
00000000
00100000
00000000
00000000
00010000
00000000
01000000
00000000
00100000
00000000
10000000
00000000
00000000
00000000
,
10000000
00000000
00000000
01000000
00000000
00000000
10000000
00000000
00010000
00000000
00000000
01000000
00000000
00000000
00010000
00000000
,
00100000
00000000
00000000
00001000
00000000
00000000
00010000
00000000
00000020
00000000
00000000
00000000
00000030
00000000
00000000
00000000
,
00001000
00000000
00000000
00000010
00000000
00000000
00001000
00000000
00000001
00000000
00000000
00000100
00000000
00000000
00000001
00000000
,
00001000
00000000
00000000
00000100
00000000
00000000
00001000
00000000
00000010
00000000
00010000
00000000
00000010
00000000
00000000
00000000
,
00010000
00000000
00000000
00010000
00000000
00000000
00010000
00000000
00001000
00000000
00000000
00001000
00000000
00000000
00001000
00000000
,
01000000
00000000
00000000
01000000
00000000
00000000
01000000
00000000
00100000
00000000
00000000
00100000
00000000
00000000
00100000
00000000
,
20000000
00000000
00000000
00000000
30000000
00010000
10000000
00010000
,
10000000
00000000
00000000
01000000
00000000
00000000
01000000
00000000
00100000
00000000
00010000
00000000
00100000
00000000
00001000
00000000
,
00010000
00000000
00000000
00000010
00000000
00000000
00000010
00000000
00001000
00000000
00000100
00000000
00010000
00000000
00001000
00000000
,
00010000
00000000
00000000
00100000
00000000
00000000
00100000
00000000
10000000
00000000
00010000
00000000
10000000
00000000
00000000
00000000
,
01000000
00000000
00000000
00100000
00000000
00000000
01000000
00000000
00010000
00000000
00000000
00001000
00000000
00000000
00010000
00000000
,
00000010
00000000
00000000
00000100
00000000
00000000
00000010
00000000
00001000
00000000
00000001
00000000
00001000
00000000
00000000
00000000
,
00000001
00000000
00000000
00000001
00000000
00000000
00000001
00000000
00001000
00000000
00000000
00001000
00000000
00000000
00001000
00000000
,
00000010
00000000
00000000
00000010
00000000
00000000
00000010
00000000
00010000
00000000
00001000
00000000
00010000
00000000
00001000
00000000
,
00020000
00000000
00000000
00000000
,
00031000
00010000
00100000
10000000
00010000
00100000
00001000
00010000
,
00000100
00000000
00000000
00000000
,
00000000
00000000
00000000
00000000
;

//---------------dance-double - ----------------
#NOTES:
     dance-double:
     :
     Hard:
     15:
     :
00000000
00000000
00000000
00000000
,
00000000
00000000
00000000
00000000
,
00000000
00000000
00000000
00000000
,
00000000
00000000
00000000
00000000
,
00000000
00000000
00000000
00000000
,
00000000
00000000
00000000
00000000
,
00000000
00000000
00000000
00000000
,
00000000
00000000
00000000
00000000
,
00000000
00000000
00000000
00000000
,
00010000
00000000
00000000
00000010
00000000
00000000
00010000
00000000
00000100
00000000
00001000
00000000
00000010
00000000
00000100
00000000
,
00000001
00000000
00000000
00000100
00000000
00000000
00000010
00000000
00010000
00000000
00001000
00000000
00010000
00000000
00000100
00000000
,
00010000
00000000
00000000
00001000
00000000
00000000
00100000
00000000
00010000
00000000
10000000
00000000
01000000
00000000
00100000
00000000
,
01000000
00000000
00000000
00010000
00000000
00000000
00001000
00000000
00000100
00000000
00000000
00000001
00000000
00000000
00000100
00000000
,
00000001
00000100
00000010
00001000
00000100
00010000
00001000
00100000
,
00010000
01000000
00100000
10000000
01000000
00100000
00001000
00100000
,
01000000
00000000
00000000
00100000
00000000
00000000
00010000
00000000
20000000
00000000
00000000
00000000
00000000
00000000
00000000
00000000
,
30020000
00000000
00031000
00000110
,
00000001
00000000
00000000
00000100
00000000
00000000
00010000
00000000
00000000
00001000
00000000
00000000
00000010
00000000
00001000
00000000
,
00010000
00000000
00000000
01000000
00000000
00000000
00100000
00000000
00000000
00001000
00000000
00000000
00010000
00000000
01000000
00000000
,
10000000
00000000
01000000
10000000
00000000
00000000
00010000
00000000
00100000
00000000
00001000
00010000
00000000
00000000
00001000
00000000
,
00010000
00000000
00000100
00001000
00000000
00000000
00000100
00000000
00001000
00000000
00000001
00000100
00000000
00000000
00000001
00000000
,
00000001
00000000
00000000
00000100
00000000
00000000
00010000
00000000
00000000
00001000
00000000
00000000
00000010
00000000
00001000
00000000
,
00010000
00000000
00000000
01000000
00000000
00000000
00100000
00000000
00000000
00001000
00000000
00000000
00010000
00000000
01000000
00000000
,
10000000
00000000
01000000
00010000
00000000
00000000
00100000
00000000
00001000
00000000
00010000
00001000
00000000
00000000
00010000
00000000
,
00000100
00000000
00001000
00000100
00000000
00000000
00001000
00000000
00000001
00000000
00001000
00000100
00001000
00000000
00000000
00000000
,
00001000
00000000
00000000
00000100
00000000
00000000
00000010
00000000
00000001
00000000
00000100
00000000
00001000
00000000
00010000
00000000
,
00001000
00000000
00000000
00000100
00000000
00000000
00001000
00000000
00010000
00000000
01000000
00000000
10000000
00000000
01000000
00000000
,
00100000
00000000
00000000
00001000
00000000
00000000
00010000
00000000
01000000
00000000
10000000
00000000
01000000
00000000
00010000
00000000
,
00001000
00000000
00000000
00000010
00000000
00000000
00001000
00000000
00010000
00000000
00000000
00001000
00000000
00000000
00000010
00000000
,
00000001
00001000
00000010
00000100
00000001
00000100
00000010
00001000
,
00000100
00010000
00001000
00100000
00010000
01000000
00010000
00100000
,
00010000
10000000
00010000
00000000
10000000
00010000
10000000
00000000
00020000
00000000
00000000
00000000
00000000
00000000
00000000
00000000
,
00002000
00003000
20000000
00030000
,
30100000
00000000
01000000
00010000
00000000
00000000
00100000
00000000
00010000
00000000
01000000
00100000
00000000
00000000
00010000
00000000
,
00001000
00000000
00100000
00010000
00000000
00000000
01000000
00000000
00001000
00000000
00010000
00001000
00010000
00000000
00000000
00000000
,
00000010
00000000
00010000
00001000
00000000
00000000
00000100
00000000
00001000
00000000
00010000
00001000
00000000
00000000
00010000
00000000
,
00100000
00000000
00010000
00001000
00000000
00000000
00010000
00000000
00000010
00000000
00000000
00000000
00001000
00000000
00000100
00000000
,
00000010
00000000
00000100
00001000
00000000
00000000
00000010
00000000
00001000
00000000
00000100
00000010
00000000
00000000
00001000
00000000
,
00010000
00000000
00000010
00001000
00000000
00000000
00000100
00000000
00010000
00000000
00001000
00010000
00001000
00000000
00000000
00000000
,
00100000
00000000
00001000
00010000
00000000
00000000
00001000
00000000
01000000
00000000
00010000
00100000
00000000
00000000
00001000
00000000
,
00010000
00000000
00000100
00010000
00000000
00000000
00001000
00000000
00100000
00000000
00010000
00100000
00000000
00000000
00010000
00000000
,
10000000
00100000
10000000
01000000
00010000
00001000
00000010
00000001
,
00000100
00001000
00010000
00100000
00010000
00001000
00100000
01000000
,
00010000
00001000
00000010
00000001
00000010
00001000
00000010
00000001
,
00001000
00000100
00010000
00001000
00100000
00010000
01000000
00100000
,
10000000
00000000
01000000
00000000
00010000
00000000
00001000
00000000
00010000
00000000
00000000
00000100
00000000
00000000
00000010
00000000
,
00000001
00000000
00000100
00000000
00001000
00000000
00010000
00000000
00001000
00000000
00000000
01000000
00000000
00000000
10000000
00000000
,
01100000
00000000
00000000
00010000
00000000
00000000
00001000
00000000
00000110
00000000
00000000
00001000
00000000
00000000
00010000
00000000
,
00011000
00000000
00000000
00110000
00000000
00000000
00011000
00000000
00000000
00001010
00000000
00000000
00011000
00000000
00010000
00000000
,
00000100
00000000
00000000
00000010
00000000
00000100
00001000
00000000
00000001
00000000
00000000
00001000
00000000
00000010
00010000
00000000
,
00001000
00000000
00000000
00100000
00000000
00001000
00010000
00000000
00001000
00000000
00010000
00001000
00100000
00000000
00000000
00000000
,
01010000
00000000
00000000
10000000
00000000
00010000
01000000
00000000
00001000
00000000
00000000
01000000
00000000
00010000
10000000
00000000
,
01000000
00000000
00000000
00010000
00000000
01000000
10000000
00000000
00020000
00000000
00000000
00000000
01030000
00000000
00000000
00000000
,
10010000
00000000
00000000
01000000
00000000
00001000
00010000
00000000
00001000
00000000
00000000
00100000
00000000
00001000
00010000
00000000
,
00000100
00000000
00000000
00001000
00000000
00000010
00010000
00000000
00001000
00000000
00010000
00001000
00010000
00000000
00000000
00000000
,
00001010
00000000
00000000
00011000
00000000
00000000
00001010
00000000
00001010
00000000
00000000
00011000
00000000
00000000
00101000
00000000
,
00110000
00000000
00000000
10010000
00000000
00000000
01100000
00000000
20020000
00000000
00000000
00000000
00000000
00000000
30030000
00000000
,
10000000
01000000
00100000
00010000
01000000
00100000
00010000
00001000
,
00100000
00010000
00001000
00000100
00010000
00001000
00000100
00000010
,
00001000
00000100
00000010
00000001
00001000
00000010
00000100
00000001
,
00001000
00000010
00000100
00001000
00010000
00100000
10000000
10000000
,
00010000
10000000
00010000
00001000
00020000
00000000
00000000
00030000
,
10000000
00010000
10000000
00010000
10000000
00010000
00002000
00000000
,
00003010
00001000
00000010
00001000
00000020
00000000
00000030
00000000
00000100
00000001
00000100
00000001
00000200
00000000
00000300
00000000
,
00000101
00000000
00000000
00000011
00000000
00000000
00001001
00000000
00000000
00001100
00000000
00000000
00010100
00000000
00000100
00000000
,
00020000
00001000
00100000
00001000
,
00230000
10000000
01000000
10000000
,
02300000
00010000
03200000
00010000
,
02300000
10000000
03020000
00000000
,
00032000
00000010
00003200
00010000
,
00002300
00000010
00023000
01000000
,
00100000
01000000
00032000
00000010
,
00000002
00003003
00000010
00011000
,
01000000
00000000
00000000
00100000
00000000
01000000
00010000
00000000
10000000
00000000
00000000
00010000
00000000
00100000
00001000
00000000
,
00010000
00000000
00000000
00000010
00000000
00010000
00001000
00000000
00010000
00000000
00001000
00010000
00000010
00000000
00000000
00000000
,
00001100
00000000
00000000
00000001
00000000
00001000
00000100
00000000
00010000
00000000
00000000
00000100
00000000
00001000
00000001
00000000
,
00000100
00000000
00000000
00001000
00000000
00000100
00000001
00000000
00002000
00000000
00000000
00000000
00003100
00000000
00000000
00000000
,
00001001
00000000
00000000
00000100
00000000
00010000
00001000
00000000
00010000
00000000
00000000
00000010
00000000
00010000
00001000
00000000
,
01000000
00000000
00000000
00010000
00000000
00100000
00001000
00000000
00010000
00000000
00001000
00010000
00001000
00000000
00000000
00000000
,
00101000
00000000
00000000
00110000
00000000
00000000
00101000
00000000
00011000
00000000
00000000
00001010
00000000
00000000
00011000
00000000
,
00001010
00000000
00000000
00010010
00000000
00000000
00011000
00000000
00101000
00000000
00000000
01100000
00000000
00000000
11000000
00000000
,
20020000
00000000
00000000
00000000
30030000
10000000
00010000
00100000
,
00001000
00000000
00000000
01000000
00000000
00000000
00010000
00000000
10000000
00000000
10000000
00010000
01000000
00010000
01000000
00001000
,
00010000
00000000
00000000
00000100
00000000
00000000
00001000
00000000
00000001
00000000
00000001
00001000
00000100
00001000
00000100
00010000
,
00001000
00000000
00000000
01000000
00000000
00000000
00001000
00000000
00010000
00000000
00000000
00000010
00001000
00000000
00000000
00000000
,
00000001
00000000
00001000
00000001
00000000
00000100
00000010
00000000
00010000
00000000
00000010
00001000
00000000
00000100
00010000
00000000
,
00001000
00000000
00100000
00001000
00000000
00010000
00000100
00000000
00000010
00000000
00000100
00001000
00000100
00000000
00000000
00000000
,
00001100
00000000
00000000
00011000
00000000
00000000
00001100
00000000
00001100
00000000
00000000
00011000
00000000
00000000
00101000
00000000
,
00110000
00000000
00000000
00010000
00000000
00000000
10000000
00000000
00010000
00000000
00100000
00000000
00001000
00000000
00010000
00000000
,
00000100
00000000
00001000
00000100
00000000
00000010
00000001
00000000
00001000
00000000
00000001
00000100
00000000
00000010
00001000
00000000
,
00000020
00000000
00000000
00000000
00000000
00000000
00000000
00000030
00001000
00000010
00001000
00000010
00010000
00001000
00100000
00010000
,
00100000
00000000
00000000
00000000
,
00000000
00000000
00000000
00000000
;
