#TITLE:ZENDEGI DANCE;
#SUBTITLE:;
#ARTIST:ARM x BEMANI Sound Team "U1 overground";
#TITLETRANSLIT:;
#SUBTITLETRANSLIT:;
#ARTISTTRANSLIT:;
#GENRE:;
#CREDIT:;
#BANNER:ZENDEGI DANCE-bn.png;
#BACKGROUND:ZENDEGI DANCE-bg.png;
#LYRICSPATH:;
#CDTITLE:;
#MUSIC:ZENDEGI DANCE.ogg;
#OFFSET:0.000000;
#SAMPLESTART:43.125000;
#SAMPLELENGTH:20.000000;
#SELECTABLE:YES;
#DISPLAYBPM:160.000000;
#BPMS:0.000000=160.000000
;
#STOPS:
;
#BGCHANGES:;
#KEYSOUNDS:;
#ATTACKS:;

//---------------dance-single - ----------------
#NOTES:
     dance-single:
     :
     Challenge:
     16:
     0.873612,0.923576,0.460741,0.351838,0.716242,730.000000,675.000000,55.000000,42.000000,0.000000,0.000000,0.873612,0.923576,0.460741,0.351838,0.716242,730.000000,675.000000,55.000000,42.000000,0.000000,0.000000:
0000
0000
0000
0000
,
0000
0000
0000
0000
,
0000
0000
0000
0000
,
0000
0000
0000
0000
,
1010
0000
0100
0000
1010
0000
0100
0000
1010
0000
0100
0000
0001
1000
0001
1000
,
0001
0000
0000
0010
0001
0000
0100
0000
1001
0000
0000
0000
1000
0000
0100
0000
,
0001
0000
0100
0000
1000
0000
0100
0000
0001
0000
0100
0000
1000
0001
1000
0001
,
1000
0000
0000
0010
1000
0000
0100
0000
1001
0000
0010
0000
0001
0000
0100
0000
,
1000
0000
0100
0000
0001
0000
0100
0000
1000
0000
0100
0000
0001
0010
0001
0010
,
0001
0000
0000
1000
0000
0000
0001
0000
0011
0000
0100
0000
1000
0000
0001
0000
,
0010
0100
1000
0001
1010
0100
0001
1000
,
0110
0000
1000
0100
0010
0001
0010
0100
2000
0000
0000
0000
3001
0000
1000
0000
,
0101
0000
0010
0000
1000
0001
0100
0000
0020
1000
0000
1030
0010
0000
0100
0000
,
1001
0000
0010
0100
1000
0100
0002
0000
,
0013
0000
0001
0000
1000
0000
0001
0200
0000
0000
0010
0000
0310
0000
1000
0000
,
1200
0000
0310
0001
0201
0000
0310
1000
,
0100
0000
1000
0001
1000
0000
0100
0000
1000
0010
0000
0010
0001
0000
0000
0000
,
0100
0000
0000
0000
0001
0000
0010
0000
0001
0100
0010
0100
0001
0000
1000
0001
,
1000
0010
0000
0010
0100
0000
0001
0000
0010
0100
1000
0000
1100
0000
0000
0000
,
0002
0000
0000
0000
0003
0000
1000
0000
1000
0000
0001
0100
0001
0000
0010
0000
,
0100
1000
0100
1000
0100
0000
0010
0000
0010
0000
0001
1000
0100
0000
0000
0000
,
0110
0000
0000
0000
0001
1000
0001
1000
0100
0000
0010
0001
0100
0000
0000
0000
,
0010
1000
0010
1000
0010
1000
0010
1000
0100
0000
0010
0001
0100
0000
0000
0000
,
0010
1000
0010
1000
0010
1000
0010
1000
0100
0000
0010
0001
0100
0000
0000
0000
,
0010
1000
0010
1000
0010
1000
0010
1000
0100
0000
0010
0001
0100
0000
0000
0000
,
0001
0001
0010
0010
0100
0100
1000
1000
,
0001
0100
0010
1000
0001
0000
0001
0000
0010
0100
0010
0001
1000
0010
1000
0100
,
0000
0000
1000
0001
0100
0000
0010
0000
2000
0000
0000
0000
3001
0000
0000
0000
,
0011
0000
0000
0000
1100
0000
0000
0000
0001
1000
0000
0001
1000
0000
0100
0000
,
1001
0000
0101
0000
1100
0010
0101
0000
,
0010
0000
0001
0000
1000
0000
0001
0100
0000
0100
0010
0000
1000
0000
0001
0000
,
0010
0000
0001
0100
0001
0000
1000
0000
0100
0010
0001
0010
0001
0000
1000
0000
,
0010
0000
1000
0100
1000
0000
0001
0000
0100
0010
1000
0001
0100
0000
0010
0000
,
1001
0000
0000
0000
0010
0000
1000
0000
0100
0010
0100
1000
0001
0000
0100
0001
,
1000
0001
0000
1000
0001
0000
0100
0000
0110
0000
1001
0000
0110
0000
0000
0000
,
2010
0000
0000
0000
3001
0000
1000
0000
0100
0010
0001
1000
0001
0000
0100
0000
,
0010
0000
1000
0001
1000
0000
0100
0000
1000
0010
0100
0010
1000
0000
0001
0000
,
0011
0000
1100
0000
0101
0010
1100
0000
,
0001
0000
0010
0000
0001
0000
1000
0100
0000
0100
0010
0000
0001
0000
1000
0000
,
0001
0100
0001
0100
0010
0000
1000
0000
0100
0010
0100
0010
0001
0000
1000
0000
,
0010
0000
1000
0001
0010
0000
0100
0000
1000
0001
0100
0001
1000
0000
0010
0000
,
1001
0000
0000
0000
0010
0000
1000
0000
0100
0010
0100
0010
0001
0000
1000
0001
,
0100
0010
0000
0010
1000
0000
0001
0000
0011
0000
0110
0000
1100
0000
0000
0000
,
0010
0000
0000
0000
0101
0000
1000
0000
0010
0000
0100
0001
1000
0000
0001
0000
,
0010
0000
0001
0100
0010
0100
0001
0100
0010
0000
1000
0001
1000
0000
0000
0000
,
0002
0000
0203
0000
0320
0000
2030
0000
3100
0010
0100
0010
0001
1000
0001
1000
,
0020
0000
0230
0000
0302
0000
2003
0000
3100
1000
0001
1000
0020
0000
0230
0000
,
0302
0000
0023
0000
0032
0000
0203
0000
0302
0000
2003
0000
3010
0100
0010
1000
,
0020
0000
0230
0000
0320
0000
2030
0000
3200
0000
0320
0000
0032
0000
0000
1003
,
0001
0000
0100
0000
1000
0000
0100
0000
0001
0010
0001
0010
0100
1000
0100
1000
,
0010
0000
0001
0000
0010
0000
1000
0000
0010
0000
0100
0001
0100
0010
1000
0001
,
0010
0000
1000
0000
0010
0000
0100
0000
0010
0000
0001
0000
0010
0000
0100
1000
,
0001
0100
0001
0100
0001
0100
0001
0100
0001
0100
0001
0100
0001
0000
0000
0000
,
0010
0000
0000
0010
0001
0000
1000
0000
1010
0000
0000
0000
0001
0000
0100
0000
,
1000
0000
0100
0000
0001
0000
0100
0000
1000
0000
0100
0000
0001
1000
0001
1000
,
0001
0000
0000
0000
1000
0010
1000
0010
1000
0000
0100
0000
0001
0000
0100
0000
,
1000
0000
0100
0000
0001
0000
0100
0000
1000
0000
0010
0000
0100
0001
0100
0001
,
0100
0000
0000
0010
0000
0000
1000
0000
1010
0000
0100
0000
0010
0000
0001
0000
,
1000
0100
0010
0001
0011
0100
0001
1000
,
0000
0101
0000
1100
0000
0001
0100
1000
,
0010
1000
0000
0000
0100
0000
0010
0000
0001
1000
0000
0000
0010
0000
0100
0000
,
0001
0000
0000
0010
0001
0000
0100
0000
1000
0010
0100
0010
1000
0000
0001
0000
,
0010
0100
1000
0100
0010
0100
1000
0100
0010
0100
1000
0100
0020
0000
0032
0000
,
0103
0000
0000
0001
1000
0000
0010
0000
0100
0001
1000
0001
0100
0010
1000
0001
,
0100
0010
0000
0010
1000
0000
0001
0000
1001
0000
0110
0000
1001
0000
0000
0000
,
0001
1000
0010
1000
0001
1000
0010
1000
0001
1000
0010
1000
0001
1000
0010
0000
,
2000
0000
3200
0000
0320
0000
0032
0000
1003
0010
1000
0001
0100
0001
0010
0100
,
1000
0000
0001
0100
0001
0000
1000
0100
1000
0002
0000
0000
0013
0000
0100
0000
,
1000
0000
0010
0000
0100
0000
0001
2000
0000
0000
0010
0000
3010
0000
0100
0000
,
0001
0010
0001
0010
0001
0000
1000
0000
0001
0100
0001
0100
0001
0000
1000
0000
,
0010
0000
0100
0001
0100
0000
0010
0000
1000
0001
0100
0001
1000
0000
0000
0000
,
1100
0000
0000
0000
0010
0000
0001
0000
0100
0010
1000
0001
0010
0000
0100
1000
,
0001
0100
0000
0100
0010
0000
1000
0000
1100
0000
0110
0000
0011
0000
0000
0000
,
1001
0000
0000
0000
0000
0000
0100
0000
0010
0000
1000
0001
1000
0000
0100
0000
,
0110
0000
0000
0000
0000
0000
0001
0000
0010
0000
0001
1000
0001
0000
0100
0000
,
0101
0011
1100
1010
,
0101
0000
1000
0001
1010
0000
0010
0000
,
0202
0000
0000
0000
,
0000
0000
0000
0303
;

//---------------dance-single - ----------------
#NOTES:
     dance-single:
     :
     Hard:
     15:
     0.765907,0.824621,0.284822,0.393724,0.494249,640.000000,606.000000,34.000000,47.000000,0.000000,0.000000,0.765907,0.824621,0.284822,0.393724,0.494249,640.000000,606.000000,34.000000,47.000000,0.000000,0.000000:
0000
0000
0000
0000
,
0000
0000
0000
0000
,
0000
0000
0000
0000
,
0000
0000
0000
0000
,
0010
0000
1000
0000
0001
0000
1000
0000
0001
0000
0100
0000
0010
1000
0010
1000
,
0010
0000
0101
0000
1100
0000
0001
0100
,
1000
0000
0100
0000
0001
0000
0100
0000
1000
0000
0100
0000
0001
0010
0001
0010
,
0001
0000
1000
0010
0100
0010
1000
0010
,
0001
0000
0010
0000
1000
0000
0010
0000
0001
0000
0010
0000
1000
0100
1000
0100
,
1000
0000
0000
0001
0000
0000
1000
0000
0010
0000
0100
0000
0001
0000
1000
0000
,
0010
0100
0001
1000
0100
0010
0001
1000
,
0000
0000
0001
1000
0001
1000
0001
1000
0002
0000
0000
0000
0103
0000
0010
0000
,
1000
0000
0001
0000
1000
0100
1000
0000
0020
0000
0000
0000
0030
0000
0000
0000
,
0101
0000
1100
0000
0001
0100
1000
0000
,
0010
0000
1000
0000
0100
0000
1000
0002
0000
0000
0010
0000
0013
0000
0100
0000
,
2000
0000
3001
0100
2000
0000
3001
0100
,
1000
0000
0010
0100
0010
0000
1000
0000
0002
0000
0100
0000
0103
0000
0000
0000
,
0110
0000
0000
0000
0000
0000
0001
0000
1000
0100
1000
0100
1000
0000
0001
0000
,
0100
0000
0000
0001
1000
0000
0001
0000
0010
0000
0010
0000
0010
0000
0000
0000
,
1100
0000
0000
0000
0000
0000
0001
0000
1000
0000
0001
0100
0001
0000
1000
0000
,
0010
0000
0100
0001
0100
0000
0010
0000
1000
0000
0001
0100
0001
0000
0000
0000
,
0020
0000
0001
0000
0001
0000
0001
0000
0031
0000
1000
0100
1000
0000
0000
0000
,
0020
0000
1000
0000
1000
0000
1000
0000
1030
0000
0001
0100
0001
0000
0000
0000
,
0200
0000
0001
0000
0001
0000
0001
0000
0301
0000
1000
0010
1000
0000
0000
0000
,
0200
0000
1000
0000
1000
0000
1000
0000
1300
0000
0001
0010
0001
0000
0000
0000
,
1000
1000
0001
0001
1000
1000
0001
0001
,
0100
0100
0010
0010
0100
0100
0010
0010
,
0000
0000
1000
0001
1000
0000
0100
0000
0020
0000
0000
0000
0031
0000
0000
0000
,
1001
0000
0000
0000
1001
0000
0000
0000
1001
0000
0000
0100
0010
0000
1000
0000
,
1100
0000
1100
0000
0001
0100
1000
0000
,
0010
0000
1000
0000
0100
0000
1000
0002
0000
0000
0100
0000
0103
0000
0010
0000
,
0100
0001
1000
0001
0100
0000
0010
0000
1000
0100
0010
0100
1000
0000
0001
0000
,
0100
0000
0001
0010
0001
0000
0100
0000
0010
1000
0100
1000
0010
0000
0000
0000
,
0110
0000
0000
0000
0000
0000
1000
0000
0010
0100
0010
0100
0001
1000
0001
1000
,
0100
0000
0000
0010
0001
0000
0100
0000
0001
0000
1000
0000
1000
0000
0000
0000
,
1010
0000
0000
0000
0000
0000
0001
0000
1000
0000
0100
0010
0001
0000
0100
0000
,
0010
0000
1000
0100
1000
0000
0001
0000
0001
0000
0000
0000
0011
0000
0100
0000
,
1000
0000
1000
0000
1000
0100
0001
0000
,
0010
0000
0001
0000
1000
0000
0001
0200
0000
0000
0010
0000
0310
0000
1000
0000
,
0001
0000
0010
0100
1000
0000
1000
0000
1000
0001
0100
0001
0010
0000
0100
0000
,
1000
0000
0010
1000
0001
0000
0100
0000
0001
0010
0100
0010
0001
0000
0000
0000
,
0101
0000
0000
0000
0000
0000
0010
0000
1000
0001
0100
0001
1000
0010
0100
0010
,
1000
0000
0000
0001
1000
0000
0100
0000
0010
0000
0010
0000
0010
0000
0000
0000
,
0011
0000
0000
0000
1100
0000
0001
0000
1000
0000
0010
0100
0010
0000
1000
0000
,
0001
0000
0100
0010
1000
0010
0100
0001
1000
0000
0010
0000
1001
0000
0000
0000
,
0002
0000
0203
0000
0320
0000
2030
0000
3100
0010
0100
0010
0001
0100
0010
1000
,
0200
0000
0320
0000
0032
0000
2003
0000
3010
1000
0001
1000
0200
0000
0320
0000
,
0230
0000
0320
0000
0230
0000
2300
0000
3002
0000
0203
0000
0301
1000
0010
0100
,
0002
2003
3002
2003
3020
0230
0302
0000
,
0013
0000
0001
0000
0100
0000
0001
0000
1000
0010
0100
0010
1000
0010
0100
0010
,
1000
0000
0001
0000
0010
0000
0001
0000
0100
0001
0010
0000
0100
0000
1000
0001
,
1000
0000
0010
0000
0001
0000
0010
0000
1000
0000
0100
0000
0010
0000
0001
1000
,
0001
0000
1000
0100
1000
0000
0010
0100
0001
0000
0010
0100
1000
0000
0000
0000
,
0010
0000
1010
0000
0101
0000
0001
0010
,
1000
0000
0010
0000
0001
0000
0010
0000
1000
0000
0010
0000
0001
0100
0001
0100
,
0001
0000
1000
0010
0001
0010
0100
0010
,
0001
0000
0010
0000
1000
0000
0010
0000
0100
0000
0001
0000
1000
0010
1000
0010
,
1000
0000
0000
0100
0000
0000
0010
0000
0001
0000
0100
0000
0010
0000
1000
0000
,
0001
0100
0010
1000
0001
0010
0100
1000
,
0000
0101
0000
1100
0000
0001
0100
1000
,
0010
0200
0000
0000
0301
0000
1000
0000
0100
0020
0000
0000
0031
0000
1000
0000
,
0010
0000
0000
1000
0001
0000
0100
0000
0001
0010
0001
0010
0001
0000
1000
0000
,
0100
0010
0001
0010
0100
0010
0001
0010
0100
0010
0001
0010
0100
0000
0000
0000
,
1001
0000
0000
0000
0000
0000
0010
0000
1000
0001
0100
0010
1000
0001
0100
0010
,
1000
0000
0000
0010
1000
0000
0100
0000
0010
0000
0001
0000
0001
0000
0000
0000
,
0100
0001
1000
0000
0100
1000
0001
0000
0010
0001
1000
0000
0010
1000
0001
0000
,
2000
0000
3020
0000
0230
0000
0302
0000
0013
0100
0010
0100
1000
0001
1000
0001
,
0100
0000
1001
0000
0001
0100
1000
0000
,
0010
0000
1000
0000
0001
0000
1000
0200
0000
0000
0010
0000
0310
0000
0001
0000
,
0100
0010
0100
0001
1000
0000
1000
0000
0100
0010
0100
1000
0001
0000
0001
0000
,
0100
0000
0001
0010
0001
0000
0100
0000
1000
0010
0100
0010
1000
0000
0000
0000
,
1001
0000
0000
0000
0010
0000
0100
0000
0001
0010
0001
0010
0001
1000
0010
0100
,
0001
0000
0000
0001
1000
0000
0100
0000
0010
0000
0010
0000
0010
0000
0000
0000
,
0011
0000
0000
0000
0000
0000
1000
0000
0001
0000
1000
0010
0100
0000
0001
0000
,
1010
0000
0000
0000
0000
0000
0100
0000
0001
0000
1000
0100
0010
0000
0001
0000
,
0101
1010
1100
0011
,
0210
1300
1002
0103
,
0202
0000
0000
0000
,
0000
0000
0000
0303
;

//---------------dance-single - ----------------
#NOTES:
     dance-single:
     :
     Medium:
     12:
     0.570840,0.560742,0.251313,0.418855,0.020943,477.000000,447.000000,30.000000,50.000000,0.000000,0.000000,0.570840,0.560742,0.251313,0.418855,0.020943,477.000000,447.000000,30.000000,50.000000,0.000000,0.000000:
0000
0000
0000
0000
,
0000
0000
0000
0000
,
0000
0000
0000
0000
,
0000
0000
0000
0000
,
1010
0000
0011
0000
1010
0000
1000
0001
,
1000
0000
0101
0000
1100
0000
0001
0100
,
1000
0000
0001
0100
1000
0000
0010
0100
,
0010
0000
1000
0100
0001
0000
1000
0100
,
0001
0000
0010
0100
1000
0000
0001
0100
,
0002
0000
0000
0000
1003
0001
0100
0010
,
1000
0001
0100
0010
1000
0100
0010
0001
,
0000
0100
0010
0100
0020
0000
1030
0001
,
1000
0010
0100
0010
2000
0000
3000
0000
,
1001
0000
0110
0000
1000
0001
1000
0000
,
0001
0000
0010
0000
0001
0000
0000
0100
0000
0000
1000
0000
0010
0000
0100
0000
,
0002
0000
0013
0100
2000
0000
3010
1000
,
0001
0010
0001
0100
0002
0000
2003
0000
,
3020
0000
0030
1000
0010
0100
0010
1000
,
0001
0000
0001
0100
0001
1000
0001
0000
,
0011
0000
0000
0100
1000
0001
1000
0010
,
0100
0001
1000
0001
0100
0000
0110
0000
,
0001
1000
0001
1000
0010
0000
0101
0000
,
1000
0001
1000
0001
0100
0000
1010
0000
,
0001
1000
0001
1000
0010
0000
0101
0000
,
1000
0001
1000
0001
0100
0000
1010
0000
,
0001
0100
0001
0100
0001
0100
0001
0000
,
1000
0100
1000
0100
1000
0100
1000
0000
,
0000
0001
1000
0001
2000
0000
3010
0000
,
1010
0000
0101
0000
1010
0000
0001
1000
,
0001
0000
0001
0000
0001
0100
1000
0000
,
0010
0000
1000
0000
0001
0000
0000
0100
0000
0000
0010
0000
1000
0000
0001
0000
,
0200
0000
0310
1000
0200
0000
0310
0001
,
0100
0010
0100
0001
2000
0100
3100
0000
,
1001
0000
0000
0010
1000
0001
1000
0100
,
0020
0000
0031
0100
0010
0100
0100
0000
,
0101
0000
0000
1000
0001
1000
0010
1000
,
0100
0010
0001
1000
0100
0000
0010
0001
,
0100
0000
0101
0000
0010
1000
0100
0000
,
1000
0000
0001
0000
0010
0000
0000
0100
0000
0000
0010
0000
0001
0000
0100
0000
,
0002
0000
0103
0010
2000
0000
3100
0010
,
0001
1000
0001
1000
0200
0010
0310
0000
,
0110
0000
0000
1000
0001
0010
0001
0100
,
0020
0000
1030
0001
1000
0100
0001
0000
,
1010
0000
0000
0001
1000
0010
1000
0001
,
0100
0010
1000
0001
2000
0010
3010
0000
,
1001
0000
1000
0010
0000
0000
1000
0001
,
1000
0000
0100
0000
0000
0010
0000
0000
0001
0000
0000
0000
0100
0000
0010
0000
,
0100
0001
0000
1000
0000
0000
0010
0100
,
0010
1000
0001
1000
0001
1000
0100
0000
,
0010
0001
0100
0001
0010
0001
0100
0010
,
1000
0100
0010
0100
1000
0100
0010
0001
,
0100
0010
0100
0001
0100
0010
1000
0001
,
0020
0230
2300
3002
,
0103
0000
0101
0000
1100
0000
0001
0010
,
1000
0000
0001
0010
1000
0000
1000
0100
,
1000
0000
0010
1000
0100
0000
0010
0001
,
0100
0000
0001
0010
1000
0000
0001
0100
,
0002
0000
0000
0000
1003
0001
0100
0010
,
1000
0001
0100
0010
1000
0100
0010
0001
,
0000
0110
0000
0110
0000
0010
1000
0001
,
2000
0000
3010
0100
0002
0000
0013
0100
,
2000
0000
3001
0010
0001
0100
0001
1000
,
0020
0230
0302
2003
3020
0230
0302
2003
,
3100
0000
0000
0010
0001
1000
0001
0100
,
0010
0000
0010
1000
0001
1000
0100
0000
,
0010
0001
0010
0001
1000
0010
1000
0010
,
0200
0320
2030
3002
0203
0320
2030
3002
,
0103
0000
0100
0000
0100
0001
1000
0000
,
0001
0000
0010
0000
0001
0000
0000
1000
0000
0000
0010
0000
0100
0000
0001
0000
,
0010
0010
0010
0100
1000
1000
1000
0100
,
0010
0001
1000
0001
0100
0100
0100
0000
,
1001
0000
0000
0010
1000
0001
1000
0100
,
0010
0000
0001
0100
0001
1000
1000
0000
,
1100
0000
0000
0010
1000
0100
1000
0100
,
0011
0000
0000
0010
0001
0100
0001
0100
,
0020
2030
3200
0320
,
0032
0003
2000
3000
,
0202
0000
0000
0000
,
0000
0000
0000
0303
;

//---------------dance-single - ----------------
#NOTES:
     dance-single:
     :
     Easy:
     7:
     0.398511,0.461788,0.427232,0.351838,0.000000,333.000000,282.000000,51.000000,42.000000,0.000000,0.000000,0.398511,0.461788,0.427232,0.351838,0.000000,333.000000,282.000000,51.000000,42.000000,0.000000,0.000000:
0000
0000
0000
0000
,
0000
0000
0000
0000
,
0000
0000
0000
0000
,
0000
0000
0000
0000
,
1010
0101
1010
0001
,
1000
0010
0010
1000
,
0100
1000
0001
0100
,
0010
0100
0001
0100
,
0010
0010
0010
1000
,
0002
0003
0011
0100
,
1010
0100
0011
0100
,
1001
0010
0010
0010
,
1001
0001
0200
0300
,
0001
0001
0001
0001
,
1000
0100
1000
0001
,
2020
3030
0202
0303
,
0001
0100
0010
0010
,
1000
0000
0001
0001
,
0010
0001
0100
1000
,
1001
0000
0010
1000
,
0100
0100
0100
1001
,
0020
1000
1030
1010
,
0002
0010
0013
0011
,
0200
0001
0301
0101
,
2000
0100
3100
1100
,
0002
0023
0230
2300
,
3020
2030
3002
0203
,
0300
0010
1000
0001
,
1001
1001
1001
1001
,
0010
0010
1000
0001
,
0010
0001
0100
0010
,
2000
3001
0002
1003
,
0001
0010
0100
0100
,
0110
0000
1000
0001
,
0100
0100
0001
1000
,
1001
0000
0010
1000
,
0001
0001
0001
0100
,
0101
0101
1000
0001
,
0010
0001
1000
0010
,
0201
0310
1020
0130
,
0001
0010
0001
1000
,
1100
0000
1000
0001
,
1000
0001
0010
0010
,
1001
0110
1000
0110
,
0001
0001
0001
1001
,
0010
0000
0000
1000
0000
0000
0100
0000
,
0010
0001
0000
0000
1000
0000
1010
0000
,
0001
0000
0000
0100
0000
0000
0010
0000
,
2000
0000
3002
0000
1003
0100
1000
0000
,
0000
0001
0000
1000
0000
0001
0000
1000
,
0000
0010
0000
0100
0000
0001
0010
0001
,
0000
1000
0000
0100
0000
1000
0000
0010
,
0200
0302
2003
3200
,
0310
0001
0001
0001
,
1000
0001
1000
0100
,
0100
0010
0001
0100
,
0010
1000
1000
0001
,
0200
0300
1010
0100
,
0011
0100
1010
0100
,
0000
0110
0000
0110
0000
1000
0001
1000
,
0002
0013
2000
3100
,
1002
0103
2001
3010
,
1000
0100
1000
0001
,
0101
0000
0010
0010
,
1000
0001
0010
0100
,
1000
0001
1000
0001
,
0020
0230
2300
3001
,
0101
0000
1100
0000
0001
0100
0001
0000
,
0010
0001
0100
0010
,
1020
1030
0201
0301
,
0010
0001
0100
0000
1020
0000
1030
0000
,
1100
0000
0000
0000
0001
1000
0001
1000
,
0002
0000
0013
0000
1000
0001
1000
0000
,
0101
0000
0010
0010
,
1100
0000
0010
0010
,
0001
1000
0001
1000
,
1100
0000
0011
0000
,
2002
0000
0000
0000
,
0000
0000
0000
3003
;

//---------------dance-single - ----------------
#NOTES:
     dance-single:
     :
     Beginner:
     5:
     0.208231,0.296864,0.167542,0.067017,0.000000,174.000000,154.000000,20.000000,8.000000,0.000000,0.000000,0.208231,0.296864,0.167542,0.067017,0.000000,174.000000,154.000000,20.000000,8.000000,0.000000,0.000000:
// measure 0
0000
0000
0000
0000
,  // measure 1
0000
0000
0000
0000
,  // measure 2
0000
0000
0000
0000
,  // measure 3
0000
0000
0000
0000
,  // measure 4
0010
0010
0010
0000
,  // measure 5
0000
1000
1000
0000
,  // measure 6
0001
0000
0100
0000
,  // measure 7
0000
0010
0010
0000
,  // measure 8
0100
0000
0001
0000
,  // measure 9
0000
0000
1001
0000
,  // measure 10
0110
0000
1001
0000
,  // measure 11
0000
0000
0000
0000
,  // measure 12
0010
0010
0010
0000
,  // measure 13
1000
1000
1000
0000
,  // measure 14
0001
0000
0010
0000
,  // measure 15
0001
0000
1000
0000
,  // measure 16
0001
0001
0001
0000
,  // measure 17
0110
0000
0001
0000
,  // measure 18
0100
0100
0100
0000
,  // measure 19
0010
0000
1000
0000
,  // measure 20
0001
0001
0001
0000
,  // measure 21
0020
0000
0030
0000
,  // measure 22
0002
0000
0003
0000
,  // measure 23
2000
0000
3000
0000
,  // measure 24
0200
0000
0300
0000
,  // measure 25
1000
0000
1000
0000
,  // measure 26
0001
0000
0001
0000
,  // measure 27
0000
0000
0000
0000
,  // measure 28
0100
0100
0100
0100
,  // measure 29
0100
0100
0100
0000
,  // measure 30
0010
0010
0010
0000
,  // measure 31
1001
0000
0110
0000
,  // measure 32
1000
1000
1000
0000
,  // measure 33
0001
0000
0010
0000
,  // measure 34
0001
0001
0001
0000
,  // measure 35
0100
0000
0010
0000
,  // measure 36
1000
1000
1000
0000
,  // measure 37
0001
0001
0001
0001
,  // measure 38
0001
0001
0001
0000
,  // measure 39
1001
0000
0110
0000
,  // measure 40
1000
1000
1000
0000
,  // measure 41
0010
0000
1000
0000
,  // measure 42
0100
0100
0100
0100
,  // measure 43
0000
1001
0000
0110
,  // measure 44
0000
0000
0000
0000
,  // measure 45
2000
0000
0000
0000
,  // measure 46
0000
0000
3000
0000
,  // measure 47
0002
0000
0000
0000
,  // measure 48
0000
0000
0003
0000
,  // measure 49
0010
0000
0010
0000
,  // measure 50
0001
0000
0001
0000
,  // measure 51
0100
0000
0100
0000
,  // measure 52
1000
0000
1000
0000
,  // measure 53
0001
0000
1000
0000
,  // measure 54
0010
0010
0010
0000
,  // measure 55
0000
0100
0100
0000
,  // measure 56
0010
0000
1000
0000
,  // measure 57
0000
0000
1001
0000
,  // measure 58
0110
0000
1001
0000
,  // measure 59
0000
0010
0000
0010
,  // measure 60
1000
0000
0001
0000
,  // measure 61
0100
0000
0100
0000
,  // measure 62
0110
0000
0000
0000
,  // measure 63
1000
0000
0001
0001
,  // measure 64
0001
0010
0010
0000
,  // measure 65
0001
0000
0000
0000
,  // measure 66
1000
0000
0000
0000
,  // measure 67
0010
0010
0010
1000
,  // measure 68
0100
0100
0100
0000
,  // measure 69
1001
0000
0110
0000
,  // measure 70
1000
0001
1000
0000
,  // measure 71
0110
0000
1000
0001
,  // measure 72
0010
0010
0010
0000
,  // measure 73
1001
0000
0000
0000
,  // measure 74
0110
0000
0000
0000
,  // measure 75
1000
1000
0001
0001
,  // measure 76
1000
0000
0100
0000
,  // measure 77
2002
0000
0000
0000
,  // measure 78
0000
0000
0000
3003
;
