#TITLE:Your Love;
#SUBTITLE:;
#ARTIST:The Outfield;
#TITLETRANSLIT:;
#SUBTITLETRANSLIT:;
#ARTISTTRANSLIT:;
#GENRE:;
#CREDIT:;
#BANNER:Your Love-bn.png;
#BACKGROUND:Your Love-bg.png;
#LYRICSPATH:;
#CDTITLE:;
#MUSIC:Your Love.ogg;
#OFFSET:0.000000;
#SAMPLESTART:14.789000;
#SAMPLELENGTH:20.000000;
#SELECTABLE:YES;
#DISPLAYBPM:129.000000:130.000000;
#BPMS:0.000000=129.366592
,32.000000=129.639999
;
#STOPS:
;
#BGCHANGES:;
#KEYSOUNDS:;
#ATTACKS:;

//---------------dance-single - ----------------
#NOTES:
     dance-single:
     :
     Hard:
     10:
     0.381778,0.428312,0.053989,0.413915,0.040492,297.000000,291.000000,6.000000,46.000000,0.000000,0.000000,0.381778,0.428312,0.053989,0.413915,0.040492,297.000000,291.000000,6.000000,46.000000,0.000000,0.000000:
0000
0000
0000
0000
,
0000
0000
0000
0000
,
0000
0000
0000
0000
,
0000
0000
0000
0000
,
1000
0000
0010
0100
0000
0100
0001
0000
,
0010
0001
0000
1000
0010
0000
0100
0000
,
0010
0000
1000
0100
0000
1000
0001
0000
,
0010
0001
0000
0100
0010
0000
1000
0000
,
0001
0000
0000
0000
0010
0001
1000
0010
,
1000
0000
0000
1000
0000
0000
1000
0000
0200
0000
0000
0000
0310
0000
0000
0000
,
0001
0000
1000
0010
0000
0200
0000
0301
,
0010
0001
1000
0001
2000
0000
3100
0000
,
0010
0000
0000
0000
0001
0100
0000
0010
,
1000
0000
0000
1000
0000
0000
1000
0000
0002
0000
0000
0000
0103
0000
0010
0000
,
1000
0000
0010
0100
0000
0010
1000
0001
,
1000
0100
1000
0100
0010
0001
0100
0000
,
0001
1000
0000
0000
0010
1000
0100
0010
,
0002
0000
2003
0000
3020
0000
1030
0001
,
0200
0000
0000
0310
0000
0010
1000
0000
,
0100
0010
0000
0010
0001
0000
1000
0000
,
0001
0000
0000
0000
1000
0100
0010
0100
,
2000
0000
3002
0000
0203
0000
0310
1000
,
0020
0000
0000
0130
0000
0100
0001
0000
,
1000
0010
0000
1000
0001
1010
0110
0000
,
1001
0000
0010
0001
1000
0010
1000
0001
,
1000
0000
0000
0100
0000
0000
0010
0000
0001
0000
0100
0000
0010
0000
0000
0000
,
1000
0000
0010
0100
0000
0001
1000
0010
,
1000
0100
0010
0100
1000
0001
0100
0000
,
0010
0000
1000
0001
0000
1000
0100
0010
,
0001
0100
0010
1000
0100
1000
0001
0000
,
0010
0001
0010
0100
0000
1000
0001
1000
,
0010
1000
0100
0010
0002
0000
2003
0000
,
3010
1000
0100
0000
1000
0010
0100
0001
,
0020
0000
0230
0000
2300
0000
3010
0100
,
0002
0000
1003
0010
1000
0100
0001
0000
,
0010
0001
1000
0001
0000
0100
0010
0000
,
1000
0100
0010
0000
0001
0100
0010
1000
,
0200
0000
0320
0000
0032
0000
1003
0010
,
2000
0000
3100
0010
0001
0100
1000
0000
,
0001
0100
0010
1000
0000
0001
0001
1000
,
2100
0000
0000
0000
0010
0000
0000
0000
0000
0000
3001
0000
0000
1000
0000
0000
,
0020
2030
3200
0320
,
0031
0000
1000
0000
0100
0000
0010
0000
0000
0000
0001
0000
0000
0100
0000
0000
,
0002
0000
2003
0000
3010
1000
0100
0000
,
0012
0000
0000
0000
1000
0000
0000
0000
0000
0000
0013
0000
0000
0100
0000
0000
,
2000
3020
0230
0302
,
0013
0000
0001
0000
0100
0000
0010
0000
0000
0000
1000
0000
0000
0001
0000
0000
,
2000
0000
3020
0000
0130
0001
1000
1000
,
0020
0000
0130
0000
0001
0010
0001
1000
,
0020
2030
3200
0302
,
0023
0000
0000
0000
1030
0000
0000
0000
0001
0100
0001
0000
0000
0000
0010
0000
,
0100
1000
0001
0000
0100
0010
1000
0000
,
0001
0000
0010
0000
1000
0000
0000
0000
0100
0000
0000
0010
0000
0000
0001
0000
,
2000
0000
3010
0200
0000
0302
0000
1003
,
0200
0000
0310
0000
0001
1000
0001
0100
,
0010
1000
0100
0010
0001
0100
1000
0000
,
0101
0000
0000
0000
;

//---------------dance-single - ----------------
#NOTES:
     dance-single:
     :
     Medium:
     8:
     0.254519,0.277143,0.017996,0.269944,0.000000,198.000000,196.000000,2.000000,30.000000,0.000000,0.000000,0.254519,0.277143,0.017996,0.269944,0.000000,198.000000,196.000000,2.000000,30.000000,0.000000,0.000000:
0000
0000
0000
0000
,
0000
0000
0000
0000
,
0000
0000
0000
0000
,
0000
0000
0000
0000
,
1000
0000
0000
0010
0000
0000
1000
0000
,
0000
0001
0000
0000
0100
0000
0010
0000
,
0100
0000
0000
0001
0000
0000
0010
0000
,
0000
0100
0000
0000
1000
0000
0001
0000
,
0100
0000
0000
0010
0000
0000
1000
0000
,
0000
0010
0000
0000
0100
0000
0001
0000
,
1000
0000
0000
0010
0000
0000
0100
0000
,
0000
0010
0000
0000
1000
0000
0001
0000
,
0010
0000
0000
0001
0000
0000
0100
0000
,
0000
0010
0000
0000
1000
0000
0001
0000
,
0010
0000
0000
0100
0000
0000
1000
0000
,
0000
0010
0000
0000
0100
0000
0001
0000
,
0100
0000
0000
0000
0001
1000
0001
0000
,
0020
0000
0230
0000
2300
0000
3000
0001
,
2000
0000
0000
3010
0000
0000
0100
0000
,
0000
0001
0000
0000
0010
0000
0001
0000
,
0100
0000
0000
0000
0010
1000
0010
0000
,
0200
0000
0302
0000
2003
0000
3000
0100
,
0020
0000
0000
0031
0000
0000
0100
0000
,
0000
0010
0000
0000
0000
1000
0001
0000
,
1001
0000
0000
0010
1000
0010
0100
0000
,
0001
0001
1000
1000
,
0100
0000
0010
0000
0000
0001
1000
0000
,
0001
0100
0010
0000
1000
0000
0001
0000
,
0100
0000
0010
0000
1000
0001
0100
0000
,
0001
0010
0001
1000
,
0100
0000
1000
0000
0000
0010
0100
0000
,
0001
0010
0001
0000
1000
0000
1000
0000
,
0010
0100
0000
0000
0001
1000
0001
0000
,
2000
0000
3002
0000
0023
0000
0030
0001
,
0200
0000
0000
0310
0000
0000
1000
0000
,
0000
0001
1000
0010
0000
0000
0100
0000
,
0001
0000
0000
0000
1000
0100
1000
0000
,
0020
0000
0230
0000
0302
0000
0003
1000
,
0020
0000
0000
0130
0000
0000
0001
0000
,
0000
0000
1000
0100
0000
1000
0001
1000
,
0020
0000
0000
0000
0000
0130
0000
0100
,
0001
0010
0001
1000
,
0010
0200
0000
0000
0000
0301
0000
0001
,
0010
0001
0100
0010
,
2000
0000
0000
0000
0000
3010
0000
0010
,
1000
0100
1000
0010
,
0001
0200
0000
0000
0000
0310
0000
0010
,
0100
0000
0001
0000
1000
0010
0100
0001
,
2000
0000
3000
0000
0001
0010
0001
0000
,
2000
3020
0032
0203
,
2300
0000
3000
0000
0010
0100
0010
0000
,
2000
3002
0023
0230
,
0300
1000
0000
0000
0001
0000
0100
0000
,
0001
0000
0010
0001
0000
1000
0000
0010
,
0000
0000
0000
0000
1000
0100
0001
0000
,
0010
0010
0001
1000
,
0110
0000
0000
0000
;

//---------------dance-single - ----------------
#NOTES:
     dance-single:
     :
     Easy:
     5:
     0.160681,0.226753,0.035993,0.089981,0.000000,125.000000,121.000000,4.000000,10.000000,0.000000,0.000000,0.160681,0.226753,0.035993,0.089981,0.000000,125.000000,121.000000,4.000000,10.000000,0.000000,0.000000:
0000
0000
0000
0000
,
0000
0000
0000
0000
,
0000
0000
0000
0000
,
0000
0000
0000
0000
,
1000
0000
0000
0000
,
0010
0000
0000
0000
,
0100
0000
0000
0000
,
0001
0000
0000
0000
,
0010
0000
0001
0000
,
0100
0000
0010
1000
,
0100
0000
0000
0000
,
0100
1000
0001
0000
,
0010
0000
0100
0000
,
1000
0000
0010
0100
,
0001
0000
0000
0000
,
0001
1000
0010
0000
,
0100
0000
0001
0000
,
0010
0010
0010
0000
,
0002
0000
0003
0000
,
0000
0000
1000
0100
,
1000
0000
0010
0000
,
0100
0100
0100
0000
,
0002
0000
0003
0000
,
0000
0000
0000
0110
,
1001
0000
0010
0000
,
1000
0100
1000
0001
,
0100
0000
0010
0000
,
1000
0100
0001
0010
,
0001
0000
0100
0000
,
0010
1000
0100
0010
,
0001
0000
1000
0000
,
0001
1000
0010
0100
,
0010
0000
1000
0000
,
0001
0001
0001
0000
,
0200
0000
0300
0000
,
0010
0000
1000
0000
,
0100
0000
0010
0000
,
0001
0001
0001
0000
,
0200
0000
0300
0000
,
0001
0000
1000
0000
,
2002
0000
0000
0003
,
0010
0010
0001
3100
,
2000
0000
0000
3000
,
0001
1000
0010
1000
,
0200
0000
0000
0300
,
1000
1000
0001
0100
,
0020
0000
0000
0030
,
0100
0001
0100
0010
,
1000
0000
0100
0000
,
1000
0001
1000
0010
,
0100
0000
0010
0000
,
0100
0001
0010
0100
,
1000
0000
0001
0000
,
1000
0010
0100
0010
,
1000
0000
0001
0000
,
0010
0001
0200
0300
,
0110
0000
0000
0000
;

//---------------dance-single - ----------------
#NOTES:
     dance-single:
     :
     Beginner:
     2:
     0.075842,0.125974,0.017996,0.035993,0.000000,59.000000,57.000000,2.000000,4.000000,0.000000,0.000000,0.075842,0.125974,0.017996,0.035993,0.000000,59.000000,57.000000,2.000000,4.000000,0.000000,0.000000:
0000
0000
0000
0000
,
0000
0000
0000
0000
,
0000
0000
0000
0000
,
0000
0000
0000
0000
,
1000
0000
0000
0000
,
0000
0000
0000
0000
,
0001
0000
0000
0000
,
0000
0000
0000
0000
,
0010
0000
0000
0000
,
0000
0000
0000
0000
,
0100
0000
0000
0000
,
0000
0000
0000
0000
,
1000
0000
0000
0000
,
0000
0000
0000
0000
,
0010
0000
0000
0000
,
0000
0000
0000
0000
,
0100
0000
0000
0000
,
0001
0000
1000
0000
,
0002
0000
0003
0000
,
0000
0000
0000
0000
,
0010
0000
0000
0000
,
0001
0000
1000
0000
,
0002
0000
0003
0000
,
0000
0000
0000
0000
,
1001
0000
0000
0000
,
0100
0000
0010
0000
,
1000
0000
0000
0000
,
0001
0000
0010
0000
,
0001
0000
0000
0000
,
0100
0000
0100
0000
,
0010
0000
0000
0000
,
1000
0000
0001
0000
,
1000
0000
0000
0000
,
0010
0000
0100
0000
,
0002
0000
0003
0000
,
0000
0000
0000
0000
,
0010
0000
0000
0000
,
0001
0000
0100
0000
,
0002
0000
0003
0000
,
0000
0000
0000
0000
,
1001
0000
0000
0000
,
0010
0000
0010
0000
,
0010
0000
0000
0000
,
1000
0000
1000
0000
,
1000
0000
0000
0000
,
0100
0000
0100
0000
,
0100
0000
0000
0000
,
0001
0000
0001
0000
,
0001
0000
0000
0000
,
0010
0000
0000
0000
,
0001
0000
0000
0000
,
0100
0000
0010
0000
,
1000
0000
0000
0000
,
0100
0000
0000
0000
,
1000
0000
0000
0000
,
0001
0000
1000
0000
,
0010
0000
0000
0000
;

//---------------dance-single - ----------------
#NOTES:
     dance-single:
     :
     Challenge:
     12:
     0.488471,0.503896,0.107978,0.215956,0.076484,380.000000,368.000000,12.000000,24.000000,0.000000,0.000000,0.488471,0.503896,0.107978,0.215956,0.076484,380.000000,368.000000,12.000000,24.000000,0.000000,0.000000:
// measure 0
0000
0000
0000
0000
,  // measure 1
0000
0000
0000
0000
,  // measure 2
0000
0000
0000
0000
,  // measure 3
0000
0000
0000
0000
,  // measure 4
1000
0010
0010
1000
0100
0100
1000
0001
,  // measure 5
0001
0010
0001
0001
0100
0010
1000
0000
,  // measure 6
0001
0010
0010
0001
0100
0100
0001
1000
,  // measure 7
1000
0010
1000
1000
0010
0100
0001
0000
,  // measure 8
0100
0010
0010
1000
0001
0010
0100
1000
,  // measure 9
0100
0010
0100
1000
0002
0000
0203
0000
,  // measure 10
0310
1000
1000
0001
1000
1000
0010
0100
,  // measure 11
0001
0010
0001
0100
2000
0000
3002
0000
,  // measure 12
0013
0001
0001
1000
0010
0100
0010
1000
,  // measure 13
0100
0010
0001
0100
0002
0000
1003
0010
,  // measure 14
1000
0100
0100
0010
0000
0001
1000
0001
,  // measure 15
0100
0010
1000
0010
1000
0001
0200
0000
,  // measure 16
0310
1000
0000
0100
1000
0010
0100
0001
,  // measure 17
0020
0000
0130
1000
0002
0000
1003
0010
,  // measure 18
0200
0000
0001
0301
0000
1000
1000
0010
,  // measure 19
0100
0100
0001
0010
0001
0100
1000
0000
,  // measure 20
0001
0010
0000
0001
0100
0010
1000
0001
,  // measure 21
2000
0000
3100
0010
0002
0000
0103
0010
,  // measure 22
2000
0000
0000
0000
3100
0000
1000
0001
1000
0000
0010
0000
0100
0000
0001
0000
,  // measure 23
0010
0010
0000
0001
0100
1010
0110
0000
,  // measure 24
1001
0000
0010
1000
1000
0100
1000
0001
,  // measure 25
0100
1000
0100
0001
0100
0010
1000
0001
,  // measure 26
0010
0100
1000
0010
0000
1000
0001
1000
,  // measure 27
0100
0010
0001
0100
1000
0100
0001
0100
,  // measure 28
0010
1000
0001
1000
0000
0001
0001
0010
,  // measure 29
0100
1000
0010
1000
0001
1000
0100
0000
,  // measure 30
0010
0001
0100
0010
0000
1000
0100
0010
,  // measure 31
0001
0000
0100
0000
0001
0000
0010
0000
1000
0000
0100
0000
0001
0000
0010
0100
,  // measure 32
0010
0001
1000
0000
0001
0100
0010
1000
,  // measure 33
0100
1000
0000
0000
0001
1000
0000
0000
0010
0100
0000
0000
0001
0000
1000
0000
,  // measure 34
0020
0000
0130
0001
0010
0001
1000
0010
,  // measure 35
0100
0000
0010
0000
1000
0000
0001
0000
0010
0000
0100
0000
1000
0000
0001
0100
,  // measure 36
0001
0000
0010
0000
0001
0100
0010
1000
,  // measure 37
0100
0010
0000
0000
0001
1000
0000
0000
0010
1000
0000
0000
0001
0000
0100
0000
,  // measure 38
0020
0000
0000
0000
1030
0000
0100
0010
0100
0000
1000
0000
0001
0000
0000
0000
,  // measure 39
0100
0010
1000
0001
0000
0011
0110
1100
,  // measure 40
1001
0000
0000
0000
0010
0000
0100
0000
0001
0000
0020
0000
0000
0230
0000
0000
,  // measure 41
1300
0001
0100
0010
1000
0100
0001
0000
,  // measure 42
0010
0000
0001
0000
1000
0000
0001
0000
0000
0000
0200
0000
0000
0320
0000
0000
,  // measure 43
1030
0001
0010
0001
0100
0010
1000
0000
,  // measure 44
0100
0000
0000
0000
0010
0000
0001
0000
0000
0000
2000
0000
0000
3002
0000
0000
,  // measure 45
0013
0000
0001
0100
0010
1000
0001
0000
,  // measure 46
1000
0000
0100
0000
0010
0000
0001
0000
0000
0000
0200
0000
0000
0320
0000
0000
,  // measure 47
1030
0100
0001
0000
0010
0011
0110
1100
,  // measure 48
1001
0010
0100
0000
0001
0010
0001
1000
,  // measure 49
0100
0010
0001
0100
0001
0010
1000
0000
,  // measure 50
0100
0000
0010
0000
0001
0000
0000
0000
1000
0010
1000
0000
0100
0000
0001
0000
,  // measure 51
0010
0001
0100
0001
1000
0100
0002
0000
,  // measure 52
0013
0000
0001
0000
0100
0000
0010
0000
1000
0001
0000
1000
0001
0000
0100
0000
,  // measure 53
0020
0000
1030
0001
1000
0010
0100
0001
,  // measure 54
0010
0000
0100
0000
1000
0010
1000
0001
,  // measure 55
1000
0100
0001
0100
1000
0010
0100
0000
,  // measure 56
0101
0000
0000
0000
;
