#TITLE:Young Forever;
#SUBTITLE:;
#ARTIST:Rebecca;
#TITLETRANSLIT:;
#SUBTITLETRANSLIT:;
#ARTISTTRANSLIT:;
#GENRE:;
#CREDIT:;
#BANNER:Young Forever-bn.png;
#BACKGROUND:Young Forever-bg.png;
#LYRICSPATH:;
#CDTITLE:;
#MUSIC:Young Forever.ogg;
#OFFSET:0.000000;
#SAMPLESTART:63.435001;
#SAMPLELENGTH:20.000000;
#SELECTABLE:YES;
#DISPLAYBPM:140.000000;
#BPMS:0.000000=139.985001
;
#STOPS:
;
#BGCHANGES:0.000=Young Forever-bg.png=1.000=0=0=0=StretchNoLoop====,
19.000=Young Forever.mp4=1.000=1=0=0=StretchNoLoop==CrossFade==,
99999=-nosongbg-=1.000=0=0=0 // don't automatically add -songbackground-
;
#KEYSOUNDS:;
#ATTACKS:;

//---------------dance-single - ----------------
#NOTES:
     dance-single:
     :
     Easy:
     4:
     0.239360,0.306207,0.106046,0.000000,0.000000,158.000000,148.000000,10.000000,0.000000,0.000000,0.000000,0.239360,0.306207,0.106046,0.000000,0.000000,158.000000,148.000000,10.000000,0.000000,0.000000,0.000000:
0000
0000
0000
0000
,
0000
0000
0000
0000
,
0000
0000
0000
0000
,
0000
0000
0000
0000
,
0000
0000
0000
0000
,
1000
0000
1000
0000
,
1000
0001
1000
0000
,
0001
0000
0001
0000
,
0001
1000
0001
0000
,
0010
0000
0010
0000
,
0010
0100
0010
0000
,
0001
0000
0001
0000
,
0001
1000
0001
0000
,
1000
0100
0010
0001
,
1000
0000
0001
1000
,
0001
0010
0100
1000
,
0001
0000
1000
0001
,
1000
0010
1000
0100
,
1000
0000
0001
0100
,
0001
0010
0001
0100
,
0001
0000
1000
0100
,
1000
1000
0001
1000
,
0001
0000
0010
0100
,
1000
1000
0001
1000
,
0001
0000
0010
0001
,
0010
0010
0001
1000
,
0100
0000
0010
0001
,
0010
0010
0001
1000
,
0100
0000
0010
0001
,
1001
1001
0000
0000
,
0110
0110
0000
0000
,
1000
0100
0010
0001
,
1000
0001
0100
0010
,
1001
1001
0000
0000
,
0110
0110
0000
0000
,
0001
0010
0100
1000
,
0001
1000
0010
0100
,
0001
0001
1000
0100
,
1001
0000
0001
0010
,
0001
1000
0001
0100
,
0001
0000
1000
0100
,
0010
0010
0001
1000
,
0110
0000
1000
0010
,
1000
0001
1000
0100
,
1000
0000
0001
0100
,
0001
0000
0001
0000
,
0001
1000
0001
0000
,
1000
0000
1000
0000
,
1000
0001
1000
0000
,
0100
0000
1000
0000
,
0001
0010
0100
0000
,
1000
0000
0001
0000
,
1000
0001
0100
0000
;

//---------------dance-single - ----------------
#NOTES:
     dance-single:
     :
     Medium:
     6:
     0.302988,0.306207,0.275719,0.000000,0.000000,200.000000,174.000000,26.000000,0.000000,0.000000,0.000000,0.302988,0.306207,0.275719,0.000000,0.000000,200.000000,174.000000,26.000000,0.000000,0.000000,0.000000:
0000
0000
0000
0000
,
0000
0000
0000
0000
,
0000
0000
0000
0000
,
0000
0000
0000
0000
,
0000
0000
0000
0000
,
1000
1000
0001
0000
,
1001
1001
0110
0000
,
0001
0001
1000
0000
,
0110
0110
1001
0000
,
0010
0010
1000
0000
,
1100
0011
1100
0000
,
0001
0001
0010
0000
,
0011
1100
0011
0000
,
0000
0000
0001
0010
0000
0001
0000
1000
,
0000
1000
0000
1000
0000
1000
0010
1000
,
0000
0001
1000
0100
0000
1000
0000
0001
,
0000
0001
0000
0001
0000
0001
0010
0001
,
0000
1000
0001
0100
0000
0001
0000
1000
,
0000
0010
0000
1000
0000
0001
0000
1000
,
0000
0100
1000
0010
1000
0000
0000
0000
,
1000
0000
1000
0000
,
0000
0000
0001
0010
0000
0001
0000
1000
,
0000
1000
0000
1000
0000
1000
0010
1000
,
0000
0001
1000
0100
0000
1000
0000
0001
,
0000
0001
0000
0001
0000
0001
0010
0001
,
0000
1000
0001
0010
0000
0001
0000
1000
,
0000
0010
0000
1000
0000
0001
0000
1000
,
0000
0100
1000
0010
1000
0000
0000
0000
,
1000
0000
1000
0000
,
0001
0000
1000
0100
0000
0000
0000
0000
,
1000
0000
0001
0010
0000
0000
0000
0000
,
1000
0100
0001
0010
,
1000
0100
0001
0010
,
1000
0000
0001
0010
0000
0000
0000
0000
,
0001
0000
1000
0100
0000
0000
0000
0000
,
0001
0010
1000
0100
,
0001
0010
1000
0100
,
1000
0000
0000
0010
0000
0000
0000
1000
,
0001
0000
1000
0010
0000
1000
0000
0000
,
0001
0001
1000
1000
,
1001
0100
1001
0100
,
0001
0000
0000
0010
0000
0000
0000
0001
,
1000
0000
0001
0010
0000
0001
0000
0000
,
1000
1000
0001
0001
,
1001
0100
1001
0100
,
1000
1000
0001
0000
,
1000
1100
1001
0000
,
0001
0001
1000
0000
,
0001
0011
1001
0000
,
0010
0010
1000
0000
,
1010
1001
1100
0000
,
0001
0001
0010
0000
,
0011
1001
0101
0000
;

//---------------dance-single - ----------------
#NOTES:
     dance-single:
     :
     Hard:
     9:
     0.396914,0.420537,0.084837,0.000000,0.042418,262.000000,254.000000,8.000000,0.000000,0.000000,0.000000,0.396914,0.420537,0.084837,0.000000,0.042418,262.000000,254.000000,8.000000,0.000000,0.000000,0.000000:
0000
0000
0000
0000
,
0000
0000
0000
0000
,
0000
0000
0000
0000
,
0000
0000
0000
0000
,
0000
0000
0000
0000
,
1000
0000
0100
1000
0100
0000
1000
0000
0001
0000
0000
0000
0001
0000
0000
0000
,
1000
0001
1000
0000
1000
0000
0010
1000
,
0001
0000
0100
0001
0100
0000
0001
0000
1000
0000
0000
0000
1000
0000
0000
0000
,
0001
1000
0001
0000
0001
0000
0010
0001
,
1000
0000
0100
1000
0100
0000
1000
0000
0001
0000
0000
0000
0001
0000
0000
0000
,
1000
0001
1000
0000
1000
0000
0010
1000
,
0001
0000
0100
0001
0100
0000
0001
0000
1000
0000
0000
0000
1000
0000
0000
0000
,
0001
1000
0001
0000
0001
0000
0010
0001
,
1000
0000
1000
0000
1000
0001
1000
0000
,
0001
0000
0001
0000
0001
1000
0001
0000
,
1000
1000
0001
0001
,
1000
0010
1000
0000
0001
0100
0001
0000
,
1000
0000
0100
0000
0010
0001
0010
0000
,
0001
0000
1000
0000
0100
0010
0100
0000
,
1000
1000
0001
0001
,
1000
0100
1000
0000
0001
0010
0001
0000
,
1000
0000
1000
0000
1000
0001
1000
0000
,
0001
0000
0001
0000
0001
1000
0001
0000
,
1000
1000
0001
0001
,
1000
0010
1000
0000
0001
0100
0001
0000
,
1000
0000
0100
0000
0010
0001
0010
0000
,
0001
0000
1000
0000
0100
0010
0100
0000
,
1000
1000
0001
0001
,
1000
0100
1000
0000
0001
0010
0001
0000
,
1000
1001
0001
1001
,
1000
1001
0001
1001
,
1000
0000
1000
0000
0001
1000
0001
0000
,
1000
0000
1000
0000
0001
1000
0001
0000
,
1000
1100
0001
0011
,
0100
0110
0010
0110
,
0001
0000
0001
0000
1000
0100
1000
0100
,
1000
0000
0001
0000
,
0100
0100
0100
0100
,
0001
0000
1000
0000
,
0001
0001
0001
0000
1000
1000
1000
0000
,
0001
0010
0001
0000
1000
0100
1000
0000
,
0010
0010
0010
0010
,
1000
0000
0001
0000
,
1000
1000
1000
0000
0001
0001
0001
0000
,
1000
0100
1000
0000
0001
0010
0001
0000
,
1000
0000
0100
1000
0100
0000
1000
0000
0001
0000
0000
0000
0001
0000
0000
0000
,
1000
0001
1000
0000
1000
0000
0010
1000
,
0001
0000
0100
0001
0100
0000
0001
0000
1000
0000
0000
0000
1000
0000
0000
0000
,
0001
1000
0001
0000
0001
0000
0010
0001
,
1000
0000
0100
1000
0100
0000
1000
0000
0001
0000
0000
0000
0001
0000
0000
0000
,
1000
0001
1000
0000
1000
0000
0010
1000
,
0001
0000
0100
0001
0100
0000
0001
0000
1000
0000
0000
0000
1000
0000
0000
0000
,
0001
1000
0001
0000
0001
0000
0010
0001
;

//---------------dance-double - ----------------
#NOTES:
     dance-double:
     :
     Easy:
     5:
     0.254510,0.308394,0.127255,0.000000,0.000000,168.000000,156.000000,12.000000,0.000000,0.000000,0.000000,0.254510,0.308394,0.127255,0.000000,0.000000,168.000000,156.000000,12.000000,0.000000,0.000000,0.000000:
00000000
00000000
00000000
00000000
,
00000000
00000000
00000000
00000000
,
00000000
00000000
00000000
00000000
,
00000000
00000000
00000000
00000000
,
00000000
00000000
00000000
00000000
,
00100000
00000000
01000000
00000000
,
00100000
01000000
00100000
10010000
,
00001000
00000000
00000001
00000000
,
00001000
00000001
00001000
00001001
,
00010000
00000000
00001000
00000000
,
00010000
00001000
00010000
00011000
,
01000000
00000000
00100000
00000000
,
01000000
00100000
01000000
10010000
,
00000000
10000000
00000000
10000000
,
00000000
00100000
00010000
00001000
,
00000010
00000001
00000000
00000001
,
00000000
00000100
00001000
00010000
,
00001000
00100000
00000000
00100000
,
01000000
00100000
10000000
00010000
,
10000000
01000000
00010000
00001000
,
00000100
00000000
00000010
00000000
,
00000000
00000001
00000000
00000001
,
00000000
00000100
00010000
00001000
,
00100000
10000000
00000000
10000000
,
00000000
01000000
00010000
00001000
,
00010000
00000100
00000000
00000100
,
00000010
00000001
00000100
00001000
,
00010000
00001000
00100000
00100000
,
00010000
00010000
00001000
00011000
,
00100000
00000000
00011000
00000000
,
00000010
00000000
00011000
00000000
,
00100000
01000000
00100000
01000000
,
00100000
00010000
00001000
00000100
,
00000001
00000000
00001000
00000000
,
00010000
01000000
10000000
00000000
,
00100000
00000000
01000000
00000000
,
00100000
00100000
00100000
10010000
,
00010000
00100000
00010000
00100000
,
10000000
01000000
10000000
00010000
,
00001000
00000000
00000010
00000000
,
00000100
00000000
00000010
00000000
,
00001000
00000010
00001000
00000010
,
00000001
00000100
00001000
00010000
,
10000000
00000000
00010000
00000000
,
01000000
01000000
00100000
10010000
,
01000000
00100000
01000000
00100000
,
00010000
00001000
00000100
00001001
,
00001000
00010000
00001000
00010000
,
00001000
00010000
00001000
00011000
,
00010000
01000000
00100000
01000000
,
00100000
01000000
00100000
10010000
,
00001000
00010000
00001000
00000100
,
00000010
00000000
00000100
00000000
00001000
00000000
00010000
00001000
;

//---------------dance-double - ----------------
#NOTES:
     dance-double:
     :
     Medium:
     6:
     0.340861,0.364466,0.233300,0.000000,0.000000,225.000000,203.000000,22.000000,0.000000,0.000000,0.000000,0.340861,0.364466,0.233300,0.000000,0.000000,225.000000,203.000000,22.000000,0.000000,0.000000,0.000000:
00000000
00000000
00000000
00000000
,
00000000
00000000
00000000
00000000
,
00000000
00000000
00000000
00000000
,
00000000
00000000
00000000
00000000
,
00000000
00000000
00000000
00000000
,
10000000
00000000
10000000
00000000
01000000
00010000
00001000
00000000
,
00010000
00001000
00010000
00000000
00001100
00000000
00000100
00000000
,
00000001
00000000
00000001
00000000
00000001
00000100
00001000
00000000
,
00010000
00001000
00100000
00000000
10100000
00000000
01000000
00000000
,
00100000
00000000
00100000
00000000
00010000
00100000
00010000
00000000
,
00010000
00000100
00001000
00000000
00000011
00000000
00000100
00000000
,
00000010
00000000
00000010
00000000
00001000
00000100
00001000
00000000
,
00010000
00001000
00100000
00000000
10100000
00000000
01000000
00000000
,
10000000
01000000
00100000
01000000
,
00001000
00000000
00010000
00000000
00000010
00000000
00000001
00000001
,
00000000
00000100
00000010
00010000
,
00001000
00000000
01000000
00000000
00100000
00000000
10000000
10000000
,
00000000
00100000
10000000
01000000
,
00010000
00011000
00000100
00000011
,
00000010
00000001
00000100
00001000
,
00100000
01000000
00100000
10010000
,
00000000
10000000
01000000
00010000
,
00001000
00000000
00010000
00000000
01000000
00000000
00010000
00010000
,
00000000
00001000
00000010
00000001
,
00000100
00000000
00001000
00000000
00010000
00000000
00001000
00001000
,
00000000
00100000
00010000
01000000
,
11000000
00010000
00011000
00000100
,
00000010
00000100
00001000
00010000
,
01000000
01000000
00100000
10010000
,
00010000
00010000
10000000
10000000
,
00010000
00010000
00000100
00000100
,
00000001
00000011
00001000
00001100
,
00000100
00010000
00001000
01000000
,
10000000
10000000
00010000
00010000
,
00100000
00100000
01000000
01000000
,
00010000
00010000
00001000
00000100
,
00000001
00000000
00000000
00000010
00000100
00000000
00000000
00000000
,
00000001
00000101
00001000
00001100
,
00001000
00100000
10000000
01000000
,
10000000
00000000
01010000
00000000
,
00001000
00010000
00000010
00000001
,
00000001
00000101
00001000
00011000
,
00100000
01000000
00010000
01000000
,
00100000
00000000
11000000
00000000
,
00100000
10000000
00010000
01000000
,
10000000
00000000
10000000
00000000
01000000
00010000
00001000
00000000
,
00000010
00000001
00000100
00000000
00000011
00000000
00000100
00000000
,
00001000
00000000
00001000
00000000
00000001
00000100
00001000
00000000
,
00010000
00100000
10000000
00000000
11000000
00000000
00010000
00000000
,
00100000
00000000
00100000
00000000
00010000
00001000
00000100
00000000
,
00000010
00000001
00000100
00000000
00000011
00000000
00000100
00000000
,
00000010
00000000
00000010
00000000
00001000
00000100
00001000
00000000
,
00001000
00010000
00100000
00000000
10100000
00000000
01000000
00010000
;

//---------------dance-double - ----------------
#NOTES:
     dance-double:
     :
     Hard:
     9:
     0.446907,0.476609,0.360555,0.000000,0.000000,295.000000,261.000000,34.000000,0.000000,0.000000,0.000000,0.446907,0.476609,0.360555,0.000000,0.000000,295.000000,261.000000,34.000000,0.000000,0.000000,0.000000:
00000000
00000000
00000000
00000000
,
00000000
00000000
00000000
00000000
,
00000000
00000000
00000000
00000000
,
00000000
00000000
00000000
00000000
,
00000000
00000000
00000000
00000000
,
00000010
00000001
00000010
00000000
00000001
00000100
00001000
00010000
,
00001000
00010000
00001000
01000000
00010000
00000000
10010000
00000000
,
00100000
10000000
00100000
00000000
10000000
01000000
00010000
00001000
,
00010000
00001000
00010000
00000100
00001000
00000000
00001001
00000000
,
00000010
00000001
00000010
00000000
00000001
00000100
00001000
00010000
,
00001000
00010000
00011000
00000000
01010000
00000000
10010000
00000000
,
00100000
10000000
00100000
00000000
10000000
01000000
00010000
00001000
,
00010000
00001000
00011000
00000000
00001100
00000000
00001001
00000000
,
00000000
00000000
00000010
00000100
00000000
00000001
00000000
00001000
,
00000000
00000000
00001000
00000100
00001000
00000100
00001000
00010000
,
00000000
00000000
00100000
01000000
00000000
10000000
00000000
00010000
,
00000000
00000000
00010000
01000000
00010000
01000000
00010000
00001000
,
00000000
00000000
00000010
00000100
00000000
00001001
00000000
00000000
,
00010000
00011000
01000000
10010000
,
10100000
10100000
01000000
01000000
,
00100000
10000000
00100000
00000000
00010000
01000000
00010000
00000000
,
00000000
00000000
00001000
00010000
00000000
00011000
00000000
00000100
,
00000000
00000000
00000010
00000001
00001000
00000100
00000010
00000001
,
00000000
00000000
00000010
00000100
00000000
00000001
00000000
00001000
,
00000000
00000000
00000100
00010000
00001000
00010000
00001000
00100000
,
00000000
00000000
00100000
01000000
00000000
10000000
00000000
10010000
,
00000000
01000000
00000000
00010000
00000000
00011000
00000000
00000100
,
00000000
00001001
00000000
00000100
00000000
00001001
00000000
00000000
,
00000100
00001001
00000010
00001001
,
00000001
00000010
00000001
00000000
00001000
00000100
00001000
00000000
,
00010000
00000000
00010000
00000000
00100000
00010000
00100000
00000000
,
00110000
00000000
00110000
00000000
01000000
00100000
01000000
00000000
,
11000000
11000000
10100000
01010000
,
00010000
00001000
00010000
00000000
00000010
00001000
00000010
00000000
,
00000100
00000001
00000100
00000000
00000010
00000001
00000010
00000000
,
00001000
00000001
00000100
00000010
00001000
00000100
00010000
00000000
,
00011000
00000000
00000000
00100000
01000000
00000000
00000000
00000000
,
10000000
01000000
10000000
00100000
10000000
01000000
00100000
00000000
,
00001000
00010000
00000100
00000000
00000010
00000001
00000100
00000000
,
00000011
00000000
00001100
00000000
,
00000010
00000001
00000010
00000001
00001000
00000100
00001000
00000000
,
00000001
00000100
00000001
00000010
00000001
00000100
00000010
00000000
,
00010000
00001000
01000000
00000000
10000000
00100000
01000000
00000000
,
10100000
00000000
01010000
00000000
,
10000000
00100000
10000000
00100000
01000000
00010000
01000000
00000000
,
00100000
10000000
00100000
00000000
10000000
01000000
00010000
00001000
,
00010000
00001000
00010000
00000100
00001000
00000000
00001001
00000000
,
00000010
00000001
00000010
00000000
00000001
00000100
00001000
00010000
,
00001000
00010000
00001000
01000000
00010000
00000000
10010000
00000000
,
00100000
10000000
00100000
00000000
10000000
01000000
00010000
00001000
,
00010000
00001000
00010000
00000100
00001000
00000000
00001001
00000000
,
00000010
00000001
00000010
00000000
00000001
00000100
00001000
00010000
,
00001000
00010000
00001000
01000000
00010000
00000000
00010000
00100000
;

//---------------dance-couple - ----------------
#NOTES:
     dance-couple:
     :
     Challenge:
     6:
     0.272689,0.336430,0.148464,0.000000,0.000000,180.000000,166.000000,14.000000,0.000000,0.000000,0.000000,0.274204,0.364466,0.159068,0.000000,0.000000,181.000000,166.000000,15.000000,0.000000,0.000000,0.000000:
00000000
00000000
00000000
00000000
,
00000000
00000000
00000000
00000000
,
00000000
00000000
00000000
00000000
,
00000000
00000000
00000000
00000000
,
00000000
00000000
00000000
00000000
,
10000001
10000000
00010001
00000000
,
10010001
10010000
01100001
00000000
,
10001000
00001000
10000001
00000000
,
10001001
00001001
10000110
00000000
,
00100001
00100000
10000001
00000000
,
11000001
00110000
11000001
00000000
,
10000010
00000010
10001000
00000000
,
10001100
00000011
10001100
00000000
,
00100001
00010000
01000001
10000000
,
01000001
00010000
00100001
10010000
,
10000010
00000001
10000100
00001000
,
10000100
00000011
10000010
00001001
,
01000001
00010000
01000001
00100000
,
01000001
10000000
01000001
00010000
,
10000100
00000001
10000100
00000010
,
10000100
00001000
10000100
00000001
,
10001000
00000000
10001000
00000000
00001000
00000001
00001000
00000000
,
10000001
00000000
10000001
00000000
10000000
00010000
10000000
00000000
,
00011000
00011000
10000001
10000001
,
00011000
01000100
10000001
00000000
01000100
00011000
10000001
00000000
,
00010001
00000000
01000000
00000000
00100001
10000000
00100000
00000000
,
10001000
00000000
00000100
00000000
10000010
00000001
00000010
00000000
,
00011000
00011000
10000001
10000001
,
00011000
01000100
10000001
00000000
01000100
00011000
10000001
00000000
,
10000001
00000000
00000100
00001000
10000000
00000000
00000000
00000000
,
00010001
00000000
01000000
10000000
00000001
00000000
00000000
00000000
,
00011000
00100010
00011000
10000001
,
00011000
01000100
00011000
00011000
,
10000001
00000000
00000100
00001000
10000000
00000000
00000000
00000000
,
00010001
00000000
01000000
10000000
00000001
00000000
00000000
00000000
,
00011000
00100010
00011000
10000001
,
00011000
01000100
00011000
00011000
,
10000001
11000101
00011000
01011100
,
10000001
00000001
10001000
00001000
,
00010001
00000000
01010101
00000000
,
10000001
11000101
00011000
01011100
,
10000001
10000000
00010001
00010000
,
10000001
00000000
11001100
00000000
,
00010001
00000000
00010000
00000000
01000001
00010000
01000000
10000000
,
01000001
00000000
00010000
00000000
00010001
00000000
10001000
00010001
,
10001000
00000000
00001000
00000000
10000100
00001000
00000100
00000001
,
10000100
00000000
00001000
00000000
10001000
00000000
00010001
10001000
,
00010001
00000000
00010000
00000000
01000001
00010000
01000000
10000000
,
01000001
00000000
00010000
00000000
00010001
00000000
10001000
00010001
,
10001000
00000000
00001000
00000000
10000100
00001000
00000100
00000001
,
10000100
00000000
00001000
00000000
10001000
00000000
00010001
10001000
,
00010001
00110011
00010001
10001000
,
00010001
00010001
00010001
00000000
10001000
00000000
00010001
10001000
;

//---------------dance-solo - ----------------
#NOTES:
     dance-solo:
     :
     Easy:
     3:
     0.224211,0.281021,0.074232,0.000000,0.000000,148.000000,141.000000,7.000000,0.000000,0.000000,0.000000,0.224211,0.281021,0.074232,0.000000,0.000000,148.000000,141.000000,7.000000,0.000000,0.000000,0.000000:
000000
000000
000000
000000
,
000000
000000
000000
000000
,
000000
000000
000000
000000
,
000000
000000
000000
000000
,
000000
000000
000000
000000
,
100000
000001
000001
000000
,
010000
000010
100001
000000
,
000001
100000
100000
000000
,
000100
001000
000001
100000
,
000001
100000
100000
000000
,
000010
010000
100001
000000
,
100000
000001
000001
000000
,
000100
001000
100000
000001
,
100000
000000
100000
000000
,
000001
100000
000100
000000
,
001000
000000
001000
000000
,
000001
100000
000100
000000
,
010000
000000
010000
000000
,
000010
100000
000001
000000
,
000100
000000
000100
000000
,
000010
010000
000001
000000
,
100000
000000
100000
000000
,
000001
100000
000100
000000
,
001000
000000
001000
000000
,
000001
100000
000100
000000
,
010000
000000
010000
000000
,
000010
100000
000001
000000
,
000100
000000
000100
000000
,
000010
010000
000001
000000
,
100000
000000
100000
100000
,
000001
000000
000001
000001
,
100000
000001
000100
001000
,
010000
000010
100000
100001
,
000001
000000
000001
000001
,
100000
000000
100000
100000
,
000001
100000
000100
001000
,
000010
010000
000001
100001
,
100000
000000
100000
000000
,
000001
100000
000100
000000
,
001000
000000
001000
000000
,
000001
100000
000100
000000
,
010000
000000
010000
000000
,
000010
100000
000001
000000
,
000100
000000
000100
000000
,
000010
010000
000001
000000
,
100000
000001
000001
000000
,
010000
000010
100001
000000
,
000001
100000
100000
000000
,
000100
001000
000001
100000
,
000001
100000
100000
000000
,
000010
010000
100001
000000
,
100000
000001
000001
000000
,
000100
001000
100000
000001
,
100001
000000
000000
000000
;

//---------------dance-solo - ----------------
#NOTES:
     dance-solo:
     :
     Medium:
     5:
     0.330256,0.393429,0.222696,0.000000,0.000000,218.000000,197.000000,21.000000,0.000000,0.000000,0.000000,0.330256,0.393429,0.222696,0.000000,0.000000,218.000000,197.000000,21.000000,0.000000,0.000000,0.000000:
000000
000000
000000
000000
,
000000
000000
000000
000000
,
000000
000000
000000
000000
,
000000
000000
000000
000000
,
000000
000000
000000
000000
,
100001
100001
000010
000010
,
100001
100001
001000
001000
,
010001
010001
000001
000001
,
100010
100010
100000
100000
,
000100
100000
001000
000000
100000
000000
100000
000000
,
000001
001000
000100
000000
100000
000000
100000
000000
,
100000
001000
000100
000000
000001
000000
000001
000000
,
000100
001000
000100
000000
100001
000000
100001
000000
,
000000
000000
000010
000100
000000
000001
000000
100000
,
000000
100000
000000
100000
000000
100000
000000
100000
,
000000
000001
010000
000100
000000
100000
000000
000001
,
000000
000001
000000
000001
000000
000001
010000
000001
,
000000
100000
000010
000100
000000
000001
000000
100000
,
000000
000001
000000
100000
000000
000001
000000
100000
,
000000
000001
010000
000100
010000
000000
000000
000000
,
100000
000000
100000
000000
,
000000
000000
000010
000100
000000
000001
000000
100000
,
000000
100000
000000
100000
000000
100000
000000
100000
,
000000
000001
100000
000100
000000
100000
000000
000001
,
000000
000001
000000
000001
000000
000001
000000
000001
,
000000
100000
000010
000100
000000
000001
000000
100000
,
000000
000001
000000
100000
000000
000001
000000
100000
,
000000
000001
010000
000100
010000
000000
000000
000000
,
100000
100000
010000
000010
,
000001
000000
100000
001000
000000
000000
000000
000000
,
100000
000000
000001
000100
000000
000000
000000
000000
,
100000
000010
010000
000001
,
100000
000010
010000
000001
,
100000
000000
000001
100000
000000
001000
000000
100000
,
000000
000001
000000
000001
000000
000000
000000
000000
,
010000
010000
000100
001000
,
001100
000000
001100
000000
,
000010
000000
000000
000010
000000
000000
000000
100000
,
000001
000000
100000
000100
000000
100000
000000
000000
,
010000
000010
000100
000100
,
010000
000010
001000
001000
,
010000
000000
000000
010000
000000
000000
000000
000001
,
100000
000000
000001
000100
000000
000001
000000
000000
,
010000
000010
000100
000100
,
010000
000010
001000
001000
,
100001
100001
000001
001000
,
100001
100001
100000
001000
,
100010
100010
000001
001000
,
010001
010001
100000
001000
,
000001
100000
001000
000000
100000
000000
100000
000000
,
000001
001000
000100
000000
100000
000000
100000
000000
,
000010
001000
000100
000000
100000
000000
100000
000000
,
010000
001000
000100
000000
000001
000000
000001
000000
,
100001
000000
000000
000000
;

//---------------dance-solo - ----------------
#NOTES:
     dance-solo:
     :
     Hard:
     7:
     0.546893,0.702552,0.265114,0.000000,0.021209,361.000000,336.000000,25.000000,0.000000,0.000000,0.000000,0.546893,0.702552,0.265114,0.000000,0.021209,361.000000,336.000000,25.000000,0.000000,0.000000,0.000000:
000000
000000
000000
000000
,
000000
000000
000000
000000
,
000000
000000
000000
000000
,
000000
000000
000000
000000
,
000000
000000
000000
000000
,
000010
010000
000010
000000
100000
000001
100000
000000
,
000010
001000
000001
100000
001000
010000
010000
000000
,
000010
100000
000010
000000
010000
000001
010000
000000
,
000100
001000
000001
100000
001000
010000
010000
000000
,
000100
100000
000001
000000
010000
000010
001000
000000
,
000001
010000
000001
010000
000010
100000
100000
000000
,
000001
001000
000001
000000
100000
001000
100000
000000
,
000010
010000
000010
000100
000001
100000
100000
000000
,
000000
001000
000010
001000
000100
001000
000100
001000
,
010000
001000
010000
100000
001000
100000
001000
001000
,
000000
100000
001000
100000
000001
100000
000001
100000
,
000010
100000
000010
001000
000100
001000
000100
000100
,
000000
000001
010000
000001
100000
000001
010000
000001
,
100000
000100
010000
000100
100000
000100
100000
001000
,
100000
001000
010000
001000
000100
001000
010000
000000
,
100000
001000
100000
000001
001000
000001
001000
000000
,
000000
000100
000010
000100
000001
000100
000001
000100
,
000010
000100
000010
100000
000100
100000
000100
000100
,
000000
100000
000100
100000
000001
100000
000001
100000
,
000010
100000
000010
001000
000100
001000
000100
000100
,
000000
000001
010000
000001
100000
000001
010000
000001
,
100000
001000
010000
001000
100000
001000
100000
000100
,
100000
000100
010000
000100
100000
000100
010000
000000
,
100000
000100
100000
000001
000100
000001
000100
000000
,
000010
010000
001000
000000
100000
000010
001000
000000
,
000100
010000
000001
000000
000100
000010
100000
000000
,
000001
000100
001000
100000
000001
001000
000001
000000
,
100000
001000
000100
000001
100000
001000
100000
000000
,
000010
010000
000100
001000
000001
100000
001000
100000
,
000010
010000
000100
001000
000100
001000
000100
010000
,
000010
100000
000010
010000
000010
100000
000010
001000
,
000100
001000
000010
001000
000010
001000
000100
000000
,
100100
100100
100100
000000
101000
101000
101000
000000
,
001100
001100
001100
000000
000101
000101
000101
000000
,
010000
000001
100000
000100
001000
000001
001000
000000
,
000001
010000
000001
000100
000001
010000
000001
000000
,
101000
101000
101000
000000
000101
000101
000101
000000
,
100001
100001
100001
000000
001001
001001
001001
000000
,
010000
000001
100000
000100
001000
000001
001000
000000
,
100000
000010
100000
000100
100000
000010
100000
000000
,
100000
000000
001000
100000
001000
000000
100000
000000
000001
000000
001000
000000
000001
000000
000000
000000
,
010000
000010
010000
000000
000001
100000
001000
000000
,
000001
000000
001000
000001
001000
000000
000001
000000
100000
000000
001000
000000
100000
000000
000000
000000
,
000010
010000
000010
000000
100000
000001
001000
000000
,
100000
000000
001000
100000
001000
000000
100000
000000
000010
000000
001000
000000
000010
000000
000000
000000
,
100000
000001
010000
000000
000010
100000
001000
000000
,
000001
000000
001000
000001
001000
000000
000001
000000
010000
000000
000010
000000
010000
000000
000000
000000
,
000001
010000
000010
000000
100000
000001
001000
000000
,
001001
000000
000000
000000
;

//---------------dance-double - ----------------
#NOTES:
     dance-double:
     :
     Challenge:
     12:
     0.577191,0.533940,0.127255,0.084837,0.222696,381.000000,369.000000,12.000000,8.000000,0.000000,0.000000,0.577191,0.533940,0.127255,0.084837,0.222696,381.000000,369.000000,12.000000,8.000000,0.000000,0.000000:
00000000
00000000
00000000
00000000
,
00000000
00000000
00000000
00000000
,
00000000
00000000
00000000
00000000
,
00000000
00000000
00000000
00000000
,
00000000
00000000
00000000
00000000
,
00000001
00000000
00001000
00000100
00001000
00000000
00000010
00000000
00000001
00000000
00000010
00000000
00010000
00000000
00001000
00000000
,
01000000
01000000
01000000
00000000
01100000
00000000
10000000
00010000
,
00100000
00000000
00001000
00010000
00001000
00000000
01000000
00000000
10000000
00000000
01000000
00000000
00010000
00000000
00100000
00000000
,
00001000
00001000
00001000
00000000
00011000
00000000
00000010
00001000
,
00000100
00000000
00000010
00000001
00000010
00000000
00000100
00000000
00000001
00000000
00000100
00000000
00010000
00000000
00001000
00000000
,
00100000
00100000
00100000
00000000
01100000
00000000
10000000
01000000
,
10000000
00000000
00100000
01000000
00100000
00000000
00001000
00000000
00100000
00000000
10000000
00000000
00100000
00000000
00010000
00000000
,
00000100
00000100
00000100
00000000
00000110
00000000
00001000
00000001
,
00000010
00000000
00000000
00000001
00000100
00000000
00000010
00000000
00001000
00000000
00000100
00000000
00010000
00000000
00001000
00000000
,
01000000
00000000
00000000
00100000
10000000
00000000
00010000
00000000
00100000
00000000
01000000
00000000
10000000
00000000
00010000
00000000
,
01000000
00000000
00000000
00100000
10000000
00000000
01000000
00000000
10000000
00000000
00100000
00000000
01000000
00000000
00001000
00000000
,
00010000
00000000
00000000
00000010
00000100
00000000
00000010
00000000
00010000
00000000
00000100
00000000
00001000
00000000
00000001
00000000
,
00000100
00000000
00000000
00000010
00000100
00000000
00000001
00000000
00001000
00000000
00000010
00000000
00001000
00000000
00000100
00000000
,
00000001
00000100
00010000
00001000
01000000
00100000
20000000
00000000
,
30010000
00000000
00100000
00010000
00000000
00000000
01000000
00000000
00100000
00000000
10000000
00010000
00000000
00000000
01000000
00000000
,
00001000
00000000
00010000
00000010
00000000
00000000
00000100
00000000
00000010
00000000
00001000
00000001
00000000
00000000
00000010
00000000
,
00000100
00000000
00000000
00001000
00000010
00000000
00010000
00000000
00001000
00000000
00100000
00000000
10000000
00000000
00100000
00000000
,
00010000
00000000
00000000
01000000
00100000
00000000
10000000
00000000
00010000
00000000
00100000
00000000
00010000
00000000
01000000
00000000
,
00001000
00000000
00000000
00100000
00010000
00000000
00000100
00000000
00000001
00000000
00000010
00000000
00000001
00000000
00001000
00000000
,
00000010
00000000
00000000
00010000
00000100
00000000
00000010
00000000
00000001
00000000
00001000
00000000
00000010
00000000
00010000
00000000
,
00001000
00000000
00000000
01000000
00010000
00000000
10000000
00000000
00100000
00000000
01000000
00000000
10000000
00000000
01000000
00000000
,
00010000
00100000
10000000
00100000
00001000
00010000
00000010
00000100
,
00000001
00000000
00000000
00000010
00000001
00000000
00000100
00000000
00000010
00000000
00010000
00001000
00000000
00000000
01000000
00000000
,
00010000
00000000
10000000
00100000
00000000
00000000
10000000
00000000
01000000
00000000
00100000
00010000
00000000
00100000
00010000
00000000
,
01000000
00000000
00100000
00000000
10000000
00000000
00100000
00000000
01000000
00000000
00000000
00001000
00000000
00000000
00010000
00000000
,
00000010
00000000
00000100
00000000
00000001
00000000
00001000
00000000
00000010
00000000
00000100
00000001
00000000
00000100
00000001
00000000
,
00000020
00000000
00000230
00000000
00001300
00000001
00001000
00000010
,
00000100
00000000
00000001
00000010
00000000
00000000
00000100
00000000
00010000
00000000
00001000
01000000
00000000
00000000
00100000
00000000
,
10000000
00000000
00010000
01000000
00010000
00000000
20000000
00000000
00000000
00000000
30100000
00000000
01000000
00000000
00010000
00000000
,
00100000
00000000
10000000
00000000
00100000
00000000
00001000
00000000
00010000
00000000
00000000
00000010
00000000
00000000
00000100
00000000
,
00000001
00000010
00000001
00000100
00000001
00001000
00000100
00010000
,
00011000
00000000
00000000
00000000
00000000
00000000
01000000
00100000
02000000
00000000
00000000
00000000
03000000
00000000
00010000
00000000
,
10000000
00000000
00100000
00000000
10000000
00000000
01010000
00000000
00000000
00000000
00100000
10000000
00000000
00100000
10000000
00000000
,
01000000
00100000
00001000
00010000
00000010
00000100
00000001
00001000
,
00000100
00000001
00000100
00001000
00000010
00000100
00000001
00001000
,
00002200
00000000
00000000
00000000
00003000
00000000
00000000
00000000
00010300
00001000
00020000
00000000
00000000
00000000
00000000
00000000
,
00030100
00000000
00010000
00000000
00001000
00000000
00101000
00000000
00000000
00000000
00010000
10000000
00000000
00010000
10000000
00000000
,
00100000
01000000
00001000
00010000
00001000
00000100
00000001
00000010
,
00010000
00000010
00000001
00001000
00000010
00010000
00001000
01000000
,
00100000
00000000
10000000
00010000
00000000
00000000
00100000
00000000
01000000
00000000
10000000
01000000
00000000
00000000
00100000
00000000
,
00001000
00000000
00010000
00000100
00010000
00000000
00000010
00000000
00000100
00000000
00001000
00000000
00000100
00000000
00000001
00000000
,
00001000
00001000
00001000
00000000
00001001
00000000
00000010
00010000
,
00001000
00000000
00100000
01000000
00100000
00000000
00010000
00000000
01000000
00000000
10000000
00000000
01000000
00000000
00100000
00000000
,
01000000
01000000
01000000
00000000
01010000
00000000
10000000
00010000
,
00100000
00000000
01000000
10000000
01000000
00000000
00100000
00000000
00001000
00000000
00010000
00000000
00000010
00000000
00000100
00000000
,
00000001
00000001
00000001
00000000
00001001
00000000
00000100
00000001
,
00000010
00000000
00000001
00001000
00000001
00000000
00000100
00000000
00010000
00000000
00000100
00000000
00000010
00000000
00010000
00000000
,
00001000
00001000
00001000
01000000
00100000
00010000
00100000
10000000
,
01010000
00000000
00000000
00000000
;

//---------------dance-single - ----------------
#NOTES:
     dance-single:
     :
     Challenge:
     12:
     0.581736,0.533940,0.127255,0.084837,0.222696,384.000000,372.000000,12.000000,8.000000,0.000000,0.000000,0.581736,0.533940,0.127255,0.084837,0.222696,384.000000,372.000000,12.000000,8.000000,0.000000,0.000000:
0000
0000
0000
0000
,
0000
0000
0000
0000
,
0000
0000
0000
0000
,
0000
0000
0000
0000
,
0000
0000
0000
0000
,
0001
0000
0010
0100
0010
0000
0001
0000
0100
0000
1000
0000
0100
0000
0001
0000
,
0010
0010
0010
0000
0011
0000
1000
0001
,
0100
0000
0010
1000
0010
0000
0100
0000
1000
0000
0100
0000
0010
0000
0100
0000
,
0001
0001
0001
0000
0101
0000
1000
0100
,
0010
0000
0001
1000
0001
0000
0100
0000
1000
0000
0100
0000
0001
0000
1000
0000
,
0010
0010
0010
0000
1010
0000
0001
0010
,
0001
0000
1000
0100
1000
0000
0010
0000
0100
0000
1000
0000
0100
0000
0001
0000
,
1000
1000
1000
0000
1001
0000
0010
0100
,
0001
0000
0000
0010
0001
0000
0100
0000
0010
0000
0001
0000
0010
0000
1000
0000
,
0100
0000
0000
0010
0001
0000
1000
0000
0100
0000
0010
0000
0100
0000
0001
0000
,
0100
0000
0000
1000
0010
0000
0100
0000
1000
0000
0100
0000
0001
0000
1000
0000
,
0001
0000
0000
0010
0001
0000
1000
0000
0001
0000
0100
0000
0010
0000
1000
0000
,
0100
0000
0000
0100
0010
0000
0001
0000
1000
0000
0001
0000
0100
0000
0010
0000
,
0001
0010
1000
0001
1000
0100
0020
0000
,
0031
0000
1000
0001
0000
0000
0100
0000
0010
0000
1000
0001
0000
0000
1000
0000
,
0100
0000
0010
0001
0000
0000
0100
0000
0001
0000
1000
0001
0000
0000
0010
0000
,
0100
0000
0000
0100
1000
0000
0010
0000
0100
0000
1000
0000
0100
0000
0001
0000
,
0100
0000
0000
0001
1000
0000
0001
0000
0010
0000
1000
0000
0010
0000
0100
0000
,
0010
0000
0000
0001
0100
0000
0001
0000
1000
0000
0010
0000
1000
0000
0100
0000
,
0010
0000
0000
0010
0001
0000
0100
0000
0001
0000
1000
0000
0010
0000
0100
0000
,
0001
0000
0000
1000
0001
0000
0100
0000
0010
0000
0100
0000
1000
0000
0100
0000
,
0001
0010
1000
0010
0100
0010
1000
0010
,
0001
0000
0100
0000
0010
0000
1000
0000
0100
0000
0010
0001
0000
0000
0010
0000
,
0100
0000
1000
0001
0000
0000
1000
0000
0010
0000
0100
0001
0000
0100
0001
0000
,
0010
0000
0000
0001
1000
0000
0010
0000
1000
0000
0100
0000
0001
0000
0100
0000
,
1000
0000
0000
0010
0100
0000
0001
0000
1000
0000
0010
0000
1000
0000
0001
0000
,
0020
0000
0230
0000
1300
0010
1000
0001
,
0100
0000
0010
1000
0000
0000
0001
0000
0010
0000
0100
1000
0000
0100
1000
0000
,
0010
0000
0100
0001
0100
0000
0020
0000
0000
0000
1030
0000
0100
0000
0010
0000
,
0001
0000
0100
0000
0001
0000
0010
0000
0001
0000
1000
0100
0000
1000
0100
0000
,
0010
1000
0010
0100
0010
1000
0010
0001
,
1001
0000
0000
0000
0000
0000
0100
0010
0200
0000
0000
0000
0300
0000
0001
0000
,
1000
0000
0010
0000
0100
0000
0101
0000
0000
0000
1000
0001
0000
1000
0001
0000
,
0010
1000
0010
0001
1000
0001
0100
0010
,
1000
0100
0001
0100
1000
0010
0100
0001
,
0022
0000
0000
0000
0030
0000
0000
0000
1003
0001
2000
0000
0000
0000
0000
0000
,
3010
0000
0100
0000
0001
0000
0011
0000
0000
0000
1000
0100
0000
1000
0100
0000
,
0010
0100
0001
0100
1000
0010
1000
0001
,
0100
1000
0100
0001
0010
0001
1000
0001
,
0100
0000
0010
1000
0000
0000
0100
0000
1000
0000
0001
0010
0000
0000
0100
0000
,
1000
0000
0001
0100
0001
0000
0010
0000
0001
0000
0100
0000
1000
0000
0100
0000
,
0001
0001
0001
0000
1001
0000
1000
0100
,
0010
0000
0100
1000
0100
0000
0001
0000
0100
0000
1000
0000
0010
0000
0100
0000
,
0001
0001
0001
0000
0101
0000
1000
0001
,
0100
0000
0001
0010
0001
0000
0100
0000
0010
0000
1000
0000
0100
0000
1000
0000
,
0010
0010
0010
0000
0110
0000
0100
0001
,
1000
0000
0001
0010
0001
0000
0100
0000
0010
0000
0001
0000
0010
0000
1000
0000
,
0100
0010
1000
0010
0100
0010
0001
1000
,
1100
0000
0000
0000
;

//---------------dance-single - ----------------
#NOTES:
     dance-single:
     :
     Beginner:
     2:
     0.139374,0.196715,0.021209,0.042418,0.000000,92.000000,90.000000,2.000000,4.000000,0.000000,0.000000,0.139374,0.196715,0.021209,0.042418,0.000000,92.000000,90.000000,2.000000,4.000000,0.000000,0.000000:
// measure 0
0000
0000
0000
0000
,  // measure 1
0000
0000
0000
0000
,  // measure 2
0000
0000
0000
0000
,  // measure 3
0000
0000
0000
0000
,  // measure 4
0000
0000
0000
0000
,  // measure 5
0010
0000
0010
0000
,  // measure 6
0010
0000
0100
0000
,  // measure 7
0001
0000
0001
0000
,  // measure 8
1000
0000
0100
0000
,  // measure 9
0100
0000
0010
0000
,  // measure 10
0001
0000
0001
0000
,  // measure 11
1000
0000
0001
0000
,  // measure 12
1000
0000
0010
0000
,  // measure 13
0000
0000
0100
0000
,  // measure 14
0010
0000
0100
0000
,  // measure 15
0001
0000
0010
0000
,  // measure 16
0001
0000
1000
0000
,  // measure 17
0001
0000
0100
0000
,  // measure 18
0010
0000
0000
1000
,  // measure 19
1000
0000
1000
0000
,  // measure 20
0001
0000
0001
0000
,  // measure 21
0000
0000
0010
0000
,  // measure 22
0100
0000
1000
0000
,  // measure 23
0010
0000
1000
0000
,  // measure 24
0001
0000
1000
0000
,  // measure 25
0100
0000
0010
0000
,  // measure 26
0001
0000
0100
0000
,  // measure 27
0010
0000
0010
0000
,  // measure 28
0000
0000
0000
0000
,  // measure 29
1000
1000
0000
0000
,  // measure 30
0001
0001
0000
0000
,  // measure 31
1000
0000
0010
0000
,  // measure 32
0100
0000
0000
0000
,  // measure 33
0001
0000
0010
0000
,  // measure 34
0001
0001
0001
0000
,  // measure 35
1000
0000
0001
0000
,  // measure 36
1001
0000
0000
0000
,  // measure 37
0020
0000
0030
0000
,  // measure 38
1000
1000
1000
0000
,  // measure 39
0100
0000
0010
0000
,  // measure 40
0002
0000
0003
0000
,  // measure 41
2000
0000
3000
0000
,  // measure 42
0010
0010
0010
0000
,  // measure 43
0100
0000
0001
0000
,  // measure 44
0200
0000
0300
0000
,  // measure 45
0010
0000
1000
0000
,  // measure 46
0001
0000
1000
0000
,  // measure 47
0100
0000
0010
0000
,  // measure 48
0100
0000
1000
0000
,  // measure 49
0001
0000
1000
0000
,  // measure 50
0001
0000
0100
0000
,  // measure 51
0001
0000
0010
0000
,  // measure 52
0100
0000
1000
0000
,  // measure 53
1001
0000
0000
0000
;
