#VERSION:0.83;
#TITLE:You've Got 2 Get Me;
#SUBTITLE:;
#ARTIST:Sota Fujimori feat. RIO;
#TITLETRANSLIT:;
#SUBTITLETRANSLIT:;
#ARTISTTRANSLIT:;
#GENRE:;
#ORIGIN:;
#CREDIT:;
#BANNER:You've Got 2 Get Me-bn.png;
#BACKGROUND:You've Got 2 Get Me-bg.png;
#PREVIEWVID:;
#JACKET:You've Got 2 Get Me-jacket.png;
#CDIMAGE:;
#DISCIMAGE:;
#LYRICSPATH:;
#CDTITLE:;
#MUSIC:You've Got 2 Get Me.ogg;
#OFFSET:0.000000;
#SAMPLESTART:64.864998;
#SAMPLELENGTH:20.000000;
#SELECTABLE:YES;
#DISPLAYBPM:148.000000;
#BPMS:0.000=148.000;
#STOPS:;
#DELAYS:;
#WARPS:;
#TIMESIGNATURES:0.000=4=4;
#TICKCOUNTS:0.000=4;
#COMBOS:0.000=1;
#SPEEDS:0.000=1.000=0.000=0;
#SCROLLS:0.000=1.000;
#FAKES:;
#LABELS:0.000=Song Start;
#BGCHANGES:;
#KEYSOUNDS:;
#ATTACKS:
;

//---------------dance-single - ----------------
#NOTEDATA:;
#CHARTNAME:;
#STEPSTYPE:dance-single;
#DESCRIPTION:;
#CHARTSTYLE:;
#DIFFICULTY:Hard;
#METER:16;
#RADARVALUES:0.849426,0.890049,0.157771,0.315541,1.064952,603.000000,587.000000,16.000000,32.000000,0.000000,0.000000,0.000000,0.000000,0.000000,0.849426,0.890049,0.157771,0.315541,1.064952,603.000000,587.000000,16.000000,32.000000,0.000000,0.000000,0.000000,0.000000,0.000000;
#CREDIT:;
#DISPLAYBPM:148.000000;
#NOTES:
0000
0000
0000
0000
,
0000
0000
0000
0000
,
0000
0000
0000
0000
,
0000
0000
0000
0000
,
1000
0001
0000
0001
0010
0000
0000
0100
0000
0100
0000
0100
1000
0000
0000
0000
,
0001
0100
0000
0100
0010
0000
1000
0001
0000
0001
0100
0000
0010
1000
0010
1000
,
0001
0100
0000
0010
1000
0100
1000
0100
0010
0001
0100
0000
0010
1000
0000
0001
,
1000
0000
0000
0100
0010
0100
1000
0001
0000
0100
0010
0000
0100
0001
1000
0001
,
0010
0100
0000
0000
1000
0001
0000
0001
0000
0001
0000
0100
0010
1000
0000
0010
,
1000
0100
0000
0010
0001
0100
0000
0010
1000
0001
0100
0010
1000
0000
0000
0000
,
0001
0100
0010
0100
0001
0010
0100
0010
0000
0001
1000
0000
0010
1000
0100
1000
,
0001
0000
1010
0000
0100
0001
0000
0000
1000
0100
0010
0100
1000
0000
0000
0000
,
0001
0100
0001
0000
1000
0100
1000
0000
0010
0000
0100
0000
0001
0000
1000
0100
,
0000
0000
0010
0100
0010
0001
1000
0000
0010
0000
0100
0000
0001
0010
0100
1000
,
0001
0100
0001
0100
0001
0000
1000
0000
0000
0010
0000
0010
0100
0000
0001
0000
,
0010
0000
1001
0000
0100
0001
1000
0000
0010
0100
0001
0000
1000
0100
0010
0100
,
1000
0000
0001
0100
0000
0010
1000
0000
0100
0000
0010
0000
0100
0000
1000
0001
,
0000
0000
0010
0001
0010
0100
1000
0000
0001
0000
0100
0000
0010
0000
1000
0001
,
1000
0100
0010
0100
1000
0000
0001
0000
0000
0100
0000
0100
0010
0000
1000
0000
,
0001
0000
0100
0010
0000
0010
1000
0000
0001
1000
0100
0010
0001
0000
0100
0010
,
1000
0000
0001
0000
1000
0001
0100
0001
0000
0010
0100
1000
0000
0010
0100
0010
,
0000
1000
0000
1000
0001
0000
0100
0000
0000
0001
0000
0001
0010
0000
0100
0000
,
1000
0010
0100
0010
0000
1000
0001
1000
0000
0001
0010
0001
0000
0100
0010
0000
,
1000
0100
0010
0100
1000
0000
0001
0000
0100
0010
0100
0000
0001
0010
0001
1000
,
0001
0100
0000
0100
0010
0000
0010
1000
0000
1000
0100
0000
1000
0001
0100
0010
,
0100
0001
0010
0100
0000
1000
0001
1000
0010
0100
0010
0100
0001
0010
0100
1000
,
0001
0000
1000
0100
1000
0000
0010
0100
0000
0010
0100
0000
0001
1000
0001
0100
,
0010
0000
1010
0000
0110
0000
1000
0001
0000
1000
0100
0000
0010
0000
0001
0100
,
0001
0000
0010
0100
2000
0000
3020
0000
0230
0000
0302
0000
0023
0000
0130
1000
,
0001
1000
0010
1000
0001
0100
0010
0000
2000
0000
3002
0000
0023
0000
0230
0000
,
1300
0010
0100
0001
0000
0010
0001
0100
0010
1000
0100
1000
0001
0000
0010
0100
,
0000
1000
0000
0001
0100
0010
0100
0001
0000
1000
0100
1000
0010
0100
0001
1000
,
0010
0100
0010
0100
0020
0000
2030
0000
3002
0000
0023
0000
0032
0000
0203
0000
,
0310
1000
0010
0100
0001
0010
0100
0000
2000
0000
3002
0000
2003
0000
3020
0000
,
0230
0000
0000
0000
0301
0010
0001
0100
0020
0000
2030
0000
3200
0000
0000
0000
,
1300
0001
0100
0010
1000
0001
0100
0010
1000
0001
0100
0010
1000
0001
0100
0010
,
2000
0000
0000
0000
3001
0010
0001
0010
0200
0000
0000
0000
0000
0000
0000
0000
,
1300
0000
0010
0100
0010
0100
0010
1000
0002
0000
0000
0000
0003
0000
0000
0000
,
0011
0000
0000
1100
0000
0000
0101
0000
0000
1010
0000
0000
0110
0000
0001
1000
,
0010
0000
0000
0000
0000
0000
0000
0000
0000
0000
0000
0000
0000
0000
0000
0000
0000
0000
0000
0000
0000
0000
0000
0000
0100
0000
0000
0000
0000
0000
0000
0000
0000
0000
0000
0000
0000
0000
0000
0000
0000
0000
0000
0000
0000
0000
0000
0000
0001
0000
0000
0000
0000
0000
0000
0000
0000
0000
0000
0000
0000
0000
0000
0000
0000
0000
0010
0000
0000
0000
0000
0000
0000
0000
0000
0000
0000
0000
0000
0000
0000
0000
0000
0000
0100
0000
0000
0000
0000
0000
0000
0000
0000
0000
0000
0000
0000
0000
0000
0000
0000
0000
1000
0000
0000
0000
0000
0000
0000
0000
0000
0000
0000
0000
0000
0000
0000
0000
0000
0000
0010
0000
0000
0000
0000
0000
0000
0000
0000
0000
0000
0000
0000
0000
0000
0000
0100
0000
0000
0000
0000
0000
0000
0000
0000
0000
0000
0000
0000
0000
0000
0000
0001
0000
0000
0000
0000
0000
0000
0000
0000
0000
0000
0000
0000
0000
0000
0000
1000
0000
0000
0000
0000
0000
0000
0000
0000
0000
0000
0000
0000
0000
0000
0000
0000
0000
0000
0000
0000
0000
0000
0000
,
2100
0000
3001
0100
0001
0010
0100
1000
,
0010
0000
0100
0000
0010
0000
0001
0000
0010
0000
1000
0000
0100
0010
0100
0010
,
0001
0100
0020
0000
1030
0001
1000
0100
,
0010
0000
0001
0100
0001
0000
1000
0100
1000
0000
0001
0010
0100
0000
1000
0000
,
1002
0000
0000
0000
0013
0000
0001
0000
0100
0000
0010
0000
1000
0000
0100
1000
,
0001
0000
0010
0001
0010
0000
0100
0000
1000
0000
0001
0000
1000
0000
0100
0000
,
0120
0000
0031
0100
1000
0100
0001
1000
,
0100
0000
0010
0001
0010
0000
0100
0000
1000
0010
0100
0001
1000
0100
0010
0001
,
0100
0010
0010
1000
0001
1000
0100
0010
,
0001
0000
0100
0000
0001
0000
0010
0000
1000
0000
0010
0000
0001
0000
0100
0010
,
1000
0000
0001
1000
0001
0010
0100
1000
,
0010
0000
0100
0001
0010
0100
1000
0000
0001
0100
0010
0100
0001
0000
1000
0001
,
0100
0010
0010
1000
0001
1000
0100
0010
,
0001
0000
0100
0001
0010
0000
0100
1000
0010
0000
0100
0000
0001
0000
1000
0000
,
0101
0000
0000
0000
0010
0000
1000
0000
0001
0000
1000
0000
0100
0000
0010
0001
,
0100
0000
1001
0000
0000
0000
0010
0000
1000
0001
0010
0001
0100
0010
1000
0000
,
0001
0000
1000
0100
1000
0010
0000
0100
0000
0001
0100
0000
0010
1000
0001
1000
,
0100
0010
0000
0001
1000
0001
0100
0010
0000
1000
0100
1000
0001
0000
0110
0000
,
1010
0000
0001
1000
0001
0010
0100
1000
0000
0001
0100
0010
0100
0000
0001
1000
,
0001
0000
0010
0000
0001
0100
0010
1000
0100
0010
0100
1000
0002
0200
0000
0000
,
0000
0000
0000
0000
,
0000
0000
0000
0000
,
0000
0303
0000
0000
;

//---------------dance-single - ----------------
#NOTEDATA:;
#CHARTNAME:;
#STEPSTYPE:dance-single;
#DESCRIPTION:;
#CHARTSTYLE:;
#DIFFICULTY:Medium;
#METER:12;
#RADARVALUES:0.542337,0.552444,0.157771,0.177492,0.123258,385.000000,369.000000,16.000000,18.000000,0.000000,0.000000,0.000000,0.000000,0.000000,0.542337,0.552444,0.157771,0.177492,0.123258,385.000000,369.000000,16.000000,18.000000,0.000000,0.000000,0.000000,0.000000,0.000000;
#CREDIT:;
#DISPLAYBPM:148.000000;
#NOTES:
0000
0000
0000
0000
,
0000
0000
0000
0000
,
0000
0000
0000
0000
,
0000
0000
0000
0000
,
1000
0001
0010
0001
0100
0010
1000
0000
,
0001
0000
0100
0010
0000
1000
0100
0010
,
0001
0000
0100
0001
0010
0100
1000
0001
,
0100
0000
0001
1000
0100
0010
0001
0000
,
0100
0001
0010
0000
0100
1000
0001
0000
,
1000
0000
0100
0000
0010
0000
0000
0000
0001
1000
0001
1000
0001
0000
0000
0000
,
0010
0000
0001
0000
0100
0000
0000
0010
0000
0000
1000
0000
0100
0000
1000
0000
,
0000
0000
1001
0000
0000
0010
0000
0000
0100
0001
0100
0001
0100
0000
0000
0000
,
0010
1000
0100
1000
0001
0010
0100
1000
,
0001
0100
0010
0100
0001
1000
0100
0000
,
0010
0000
0001
0000
0100
0000
0010
0000
0000
1000
0000
0000
0001
0000
0100
0000
,
0000
0110
0000
1000
0001
1000
0100
0010
,
0001
0100
0001
1000
0100
0010
0100
1000
,
0010
0100
0001
0010
0001
1000
0100
0010
,
0001
0000
1000
0000
0001
0000
0100
0000
0000
0010
0000
0000
1000
0000
0001
0000
,
1000
0000
0000
1000
0000
0000
1000
0000
0001
0000
0100
0000
0010
0000
0100
0000
,
0001
0010
0100
1000
0010
1000
0001
0000
,
0100
0001
0010
0001
1000
0010
1000
0100
,
1000
0010
1000
0000
0001
0010
0001
0000
,
0000
0101
0000
1100
0000
0010
1000
0001
,
1000
0000
0100
0000
0010
0000
0000
0001
0000
0000
0100
0000
0001
0000
1000
0000
,
0001
0010
0000
0001
0100
0010
1000
0001
,
1000
0000
0100
0000
1000
0000
0000
0010
0000
0000
0100
0000
0001
0000
1000
0000
,
1010
0000
0000
0100
0000
0000
0011
0000
0000
0100
0000
0000
1000
0000
0001
0000
,
0000
0100
0001
0010
0001
0100
0001
0010
,
0100
1000
0001
0100
0001
1000
0001
0100
,
0000
0010
1000
0001
1000
0100
0010
0001
,
0000
0000
0100
0000
0001
0000
0010
0000
0000
0000
0001
0000
1000
0100
1000
0100
,
1000
0000
0001
0010
0001
1000
0100
0010
,
0000
0000
0001
1000
0000
0001
1000
0000
0010
0000
0100
0000
0001
0000
0100
0000
,
0020
0000
1030
0001
1000
0200
0000
0000
,
0310
0001
0010
0100
1000
0001
1000
0100
,
1000
0010
1000
0010
2000
0000
0000
0000
,
3001
0010
0001
0010
0002
0000
0000
0000
,
0103
0000
0000
0010
0000
0000
0100
0000
0000
0010
0000
0000
1000
0000
1000
0000
,
1000
0000
0000
0000
0001
0000
0000
0010
0000
0000
0001
0000
0100
0000
0010
0000
,
1000
0000
0100
0010
0100
1000
0001
0200
,
0000
0320
0000
2030
0000
3001
1000
0100
,
0010
0000
0011
0000
0001
0100
0001
1000
,
0000
1010
0000
0101
0000
1000
0100
0001
,
0010
0000
1100
0000
1000
0100
0010
0002
,
0000
0203
0000
0320
0000
1030
0100
0010
,
0001
0000
0100
0001
0100
0010
1000
1000
,
0000
0000
0110
0000
0000
0000
1000
0000
0010
0100
0010
0100
0010
0000
1000
0000
,
0001
0000
0100
0010
0100
0001
1000
0200
,
0000
0320
0000
0032
0000
1003
0001
0100
,
0010
0000
1001
0000
0100
0001
1000
0100
,
0000
1000
0010
0001
0010
1000
0100
0010
,
0001
0000
0100
0000
0010
1000
0010
0200
,
0000
0302
0000
2003
0000
3001
0010
0100
,
0010
0000
0001
1000
0001
0100
0010
0010
,
0000
0110
0000
1000
0010
0100
1001
0000
,
0001
0000
0010
0000
0001
0000
0000
0100
0000
0000
0010
0000
1000
0000
0001
0000
,
1000
0000
0100
0000
0010
0000
0000
0010
0000
0000
0001
0000
0100
0000
0110
0000
,
1001
0000
0000
0000
1000
0000
0000
0001
0000
0000
1000
0000
0100
0000
0010
0000
,
0001
0001
1000
1000
0001
0020
0200
0000
,
0000
0000
0000
0000
,
0000
0000
0000
0000
,
0000
0330
0000
0000
;

//---------------dance-single - ----------------
#NOTEDATA:;
#CHARTNAME:;
#STEPSTYPE:dance-single;
#DESCRIPTION:;
#CHARTSTYLE:;
#DIFFICULTY:Easy;
#METER:7;
#RADARVALUES:0.315541,0.337605,0.098607,0.216935,0.004930,224.000000,214.000000,10.000000,22.000000,0.000000,0.000000,0.000000,0.000000,0.000000,0.315541,0.337605,0.098607,0.216935,0.004930,224.000000,214.000000,10.000000,22.000000,0.000000,0.000000,0.000000,0.000000,0.000000;
#CREDIT:;
#DISPLAYBPM:148.000000;
#NOTES:
0000
0000
0000
0000
,
0000
0000
0000
0000
,
0000
0000
0000
0000
,
0000
0000
0000
0000
,
1000
0010
1000
0001
,
0010
0001
0100
0010
,
1000
0100
0010
0001
,
0100
0001
1000
0100
,
0010
0100
0010
0001
,
0100
0010
1000
1001
,
0100
0001
0010
0100
,
1000
0001
1000
1100
,
0010
0010
0001
0100
,
0010
0010
1000
0100
,
1000
0010
1000
0001
,
1000
0100
0010
0001
,
0100
0100
0001
0010
,
0100
0100
1000
0010
,
0100
0001
1000
0100
,
0110
1001
0010
0100
,
0001
0010
0001
0100
,
1000
0010
1000
0001
,
1000
0100
1000
0010
,
0100
0001
0010
0100
,
1000
0001
1000
0010
,
1000
0100
0001
0010
,
0100
1000
0010
0100
,
0101
0010
1000
0100
,
0001
0020
0230
2300
,
3010
1010
2000
3002
,
0103
0010
0100
0010
,
1000
0001
1000
0001
,
0010
0002
2003
3002
,
2003
3200
0320
0032
,
0203
0320
0230
0301
,
2000
3002
2003
3200
,
0310
0010
0020
0000
,
0031
1000
0002
0003
,
0011
0000
0000
1100
0000
0000
0001
0000
,
1000
0000
0000
0000
0010
0000
0000
0000
0000
1000
0000
0000
0000
0000
0001
0000
,
0000
0100
0010
0100
,
0001
0010
0001
0100
,
0000
1000
0010
1000
,
0001
1000
0100
0010
,
0000
0001
0100
0001
,
1000
0100
1000
0010
,
0000
0100
0001
0010
,
0001
0100
0110
1001
,
0000
0100
0001
0010
,
0001
0100
1000
0010
,
0000
1000
0100
1000
,
0001
0010
0100
0010
,
0000
0001
1000
0001
,
0010
0001
0100
0010
,
0000
1000
0100
1000
,
0010
0100
0001
1000
,
0100
0100
0100
0100
,
0010
0010
0010
0010
,
0001
0100
0001
1000
,
0010
0000
1000
0000
0001
1000
0200
0000
,
0000
0000
0000
0000
,
0000
0000
0000
0000
,
0000
0300
0000
0000
;

//---------------dance-single - ----------------
#NOTEDATA:;
#CHARTNAME:;
#STEPSTYPE:dance-single;
#DESCRIPTION:;
#CHARTSTYLE:;
#DIFFICULTY:Beginner;
#METER:3;
#RADARVALUES:0.160588,0.265129,0.019721,0.019721,0.000000,114.000000,112.000000,2.000000,2.000000,0.000000,0.000000,0.000000,0.000000,0.000000,0.160588,0.265129,0.019721,0.019721,0.000000,114.000000,112.000000,2.000000,2.000000,0.000000,0.000000,0.000000,0.000000,0.000000;
#CREDIT:;
#DISPLAYBPM:148.000000;
#NOTES:
// measure 0
0000
0000
0000
0000
,  // measure 1
0000
0000
0000
0000
,  // measure 2
0000
0000
0000
0000
,  // measure 3
0000
0000
0000
0000
,  // measure 4
1000
0000
0000
0000
,  // measure 5
0001
0000
0100
0000
,  // measure 6
0010
0000
0010
0000
,  // measure 7
0100
0000
0100
0000
,  // measure 8
0001
0000
0000
0000
,  // measure 9
1000
0000
0010
0010
,  // measure 10
0010
0000
0100
0000
,  // measure 11
0010
0000
1000
1000
,  // measure 12
1000
0000
0001
0000
,  // measure 13
1000
0000
0100
0000
,  // measure 14
0010
0000
0000
0000
,  // measure 15
0010
0000
0001
0000
,  // measure 16
0100
0000
0010
0000
,  // measure 17
0100
0000
0001
0000
,  // measure 18
1000
0000
0000
0000
,  // measure 19
0001
0001
0001
0000
,  // measure 20
0010
0000
0001
0000
,  // measure 21
0010
0000
0100
0000
,  // measure 22
1000
0000
0010
0000
,  // measure 23
1000
0000
0001
0000
,  // measure 24
0100
0100
0100
0000
,  // measure 25
0010
0000
0100
0000
,  // measure 26
0001
0001
0001
0000
,  // measure 27
1001
0000
0110
0000
,  // measure 28
1000
1000
1000
1000
,  // measure 29
1000
0000
0001
0000
,  // measure 30
0010
0000
0000
0000
,  // measure 31
0001
0000
0000
0000
,  // measure 32
0100
0000
0010
0000
,  // measure 33
1000
1000
1000
0000
,  // measure 34
0001
0001
0001
0000
,  // measure 35
0010
0000
0100
0000
,  // measure 36
2000
0000
3000
0000
,  // measure 37
0002
0000
0003
0000
,  // measure 38
0100
0000
0010
0000
,  // measure 39
0100
0000
0000
0000
,  // measure 40
0000
0000
0001
0000
,  // measure 41
0010
0000
0001
0000
,  // measure 42
0100
0000
0010
0000
,  // measure 43
1000
0000
0001
0000
,  // measure 44
0010
0000
0001
0000
,  // measure 45
0100
0000
0010
0000
,  // measure 46
1000
0000
0100
0000
,  // measure 47
0010
0010
0010
0000
,  // measure 48
0001
0000
0100
0000
,  // measure 49
0001
0000
1000
0000
,  // measure 50
0100
0000
0010
0000
,  // measure 51
0001
0001
0001
0000
,  // measure 52
0100
0000
0010
0000
,  // measure 53
1000
0000
0001
0000
,  // measure 54
0010
0000
0100
0000
,  // measure 55
1000
0000
0001
0000
,  // measure 56
1000
0000
0000
0000
,  // measure 57
0010
0000
0000
0000
,  // measure 58
1000
0000
0000
0000
,  // measure 59
0100
0100
0100
0100
;
