#TITLE:You Got It (The Right Stuff);
#SUBTITLE:;
#ARTIST:New Kids On The Block;
#TITLETRANSLIT:;
#SUBTITLETRANSLIT:;
#ARTISTTRANSLIT:;
#GENRE:;
#CREDIT:;
#BANNER:You Got It (The Right Stuff)-bn.png;
#BACKGROUND:You Got It (The Right Stuff)-bg.png;
#LYRICSPATH:;
#CDTITLE:;
#MUSIC:You Got It (The Right Stuff).ogg;
#OFFSET:0.000000;
#SAMPLESTART:66.684998;
#SAMPLELENGTH:20.000000;
#SELECTABLE:YES;
#DISPLAYBPM:112.000000;
#BPMS:0.000000=111.400002
,4.000000=111.570000
;
#STOPS:
;
#BGCHANGES:0.000=You Got It (The Right Stuff).avi=1.000=0=0=0=StretchNoLoop====,
99999=-nosongbg-=1.000=0=0=0 // don't automatically add -songbackground-
;
#KEYSOUNDS:;
#ATTACKS:;

//---------------dance-single - ----------------
#NOTES:
     dance-single:
     :
     Beginner:
     2:
     0.080342,0.141950,0.043261,0.000000,0.000000,52.000000,48.000000,4.000000,0.000000,0.000000,0.000000,0.080342,0.141950,0.043261,0.000000,0.000000,52.000000,48.000000,4.000000,0.000000,0.000000,0.000000:
0000
0000
0000
0000
,
0000
0000
0000
0000
,
0000
0000
0000
0000
,
0001
0000
0000
0000
,
0000
0000
0000
0000
,
1000
0000
0000
0000
,
0000
0000
0000
0000
,
0001
0000
0000
0000
,
0001
0000
0000
0000
,
1000
0000
0000
0000
,
1000
0000
0000
0000
,
0001
0000
0000
0000
,
0010
0000
0000
0000
,
1000
0000
0000
0000
,
0010
0000
0000
0000
,
0001
0000
0001
0000
,
0010
0000
0000
0000
,
1000
0000
1000
0000
,
0010
0000
0000
0000
,
0100
0000
0000
0000
,
0000
0000
0000
0000
,
0100
0000
0000
0000
,
1001
0000
0000
0000
,
1000
1000
0000
0000
,
0001
0001
0000
0000
,
1001
0000
0000
0000
,
1001
0000
0000
0000
,
1000
1000
0000
0000
,
0001
0001
0000
0000
,
1001
0000
0000
0000
,
0000
0000
0000
0000
,
1000
1000
1000
0000
,
0001
0001
0001
0000
,
1000
1000
1000
0000
,
0000
0000
0000
0000
,
0001
0001
0001
0000
,
1000
1000
1000
0000
,
0001
0001
0001
0000
;

//---------------dance-single - ----------------
#NOTES:
     dance-single:
     :
     Easy:
     3:
     0.134418,0.187374,0.064892,0.064892,0.000000,87.000000,81.000000,6.000000,6.000000,0.000000,0.000000,0.134418,0.187374,0.064892,0.064892,0.000000,87.000000,81.000000,6.000000,6.000000,0.000000,0.000000:
0000
0000
0000
0000
,
0000
0000
0000
0000
,
0000
0000
0000
0000
,
0001
0000
1000
1000
,
0001
0000
0010
0000
,
0001
0000
1000
1000
,
0000
0000
0100
0000
,
1000
0000
0001
0001
,
1000
0000
0010
0000
,
1000
0000
0001
0001
,
0000
0000
0100
0000
,
0001
0001
0001
0000
,
1000
0000
0001
0000
,
1000
1000
1000
0000
,
0010
0000
0010
0000
,
0001
0001
0001
0000
,
1000
0000
0001
0000
,
1000
1000
1000
0000
,
0010
0000
0010
0000
,
0000
0000
1000
0000
,
0000
0000
0001
0000
,
0000
0000
0010
0000
,
0000
0000
1001
0000
,
1000
0010
1000
0010
,
1000
0000
0000
0000
,
2002
0000
3003
0000
,
0220
0000
0330
0000
,
0001
0010
0001
0010
,
0001
0000
0000
0000
,
2002
0000
3003
0000
,
0010
0000
0100
0000
,
1000
0001
1000
0001
,
1000
1000
1000
0000
,
1000
0001
0001
1000
,
0000
0000
0110
0000
,
0001
1000
0001
1000
,
0001
0001
0001
0000
,
0001
1000
1000
0001
,
0000
0000
0110
0000
;

//---------------dance-single - ----------------
#NOTES:
     dance-single:
     :
     Medium:
     7:
     0.250296,0.270652,0.270381,0.043261,0.032446,162.000000,137.000000,25.000000,4.000000,0.000000,0.000000,0.250296,0.270652,0.270381,0.043261,0.032446,162.000000,137.000000,25.000000,4.000000,0.000000,0.000000:
// measure 0
0000
0000
0000
0000
,  // measure 1
0000
0000
0000
0000
,  // measure 2
0000
0000
0000
0000
,  // measure 3
0010
0000
1000
1100
,  // measure 4
0001
0100
0101
0000
,  // measure 5
0010
0000
0001
0101
,  // measure 6
0000
1001
0110
0000
,  // measure 7
0010
0000
1000
1100
,  // measure 8
0001
0100
0101
0000
,  // measure 9
0010
0000
0001
0101
,  // measure 10
0000
1001
0110
0000
,  // measure 11
0001
0000
0011
0000
0100
0010
0001
0000
,  // measure 12
1000
1010
0100
0000
,  // measure 13
0001
0000
1000
0000
0100
0010
0100
0000
,  // measure 14
1000
0110
0001
0000
,  // measure 15
1000
0000
1010
0000
0100
0010
1000
0000
,  // measure 16
0001
0011
0100
0000
,  // measure 17
1000
0000
0001
0000
0100
0010
0100
0000
,  // measure 18
0001
0110
1000
0000
,  // measure 19
0100
0001
0010
1000
,  // measure 20
0010
1000
0001
0000
0001
1000
0100
0000
,  // measure 21
0010
1000
0100
0001
,  // measure 22
0010
0100
0110
0000
,  // measure 23
0010
1001
0100
0001
,  // measure 24
0010
0000
0100
1000
0000
0001
0100
0000
,  // measure 25
2001
0100
3100
0010
,  // measure 26
0102
0000
1000
0103
,  // measure 27
0010
1001
0100
1000
,  // measure 28
0010
0000
0100
0001
0000
1000
0100
0000
,  // measure 29
1002
0100
0103
0010
,  // measure 30
1002
0000
0100
0103
,  // measure 31
1000
0000
0000
1000
0000
0000
1000
0000
0001
0000
0000
0000
0100
0000
0000
0000
,  // measure 32
0010
0000
0000
0010
0000
0000
0010
0000
1000
0000
0100
0000
0000
0000
0000
0000
,  // measure 33
0001
0000
0000
0001
0000
0000
0001
0000
0010
0000
0000
0000
0100
0000
0000
0000
,  // measure 34
0000
1000
0011
0000
,  // measure 35
0001
0000
0000
0001
0000
0000
0001
0000
1000
0000
0000
0000
0100
0000
0000
0000
,  // measure 36
0010
0000
0000
0010
0000
0000
0010
0000
0001
0000
0100
0000
0000
0000
0000
0000
,  // measure 37
1000
0000
0000
1000
0000
0000
1000
0000
0010
0000
0000
0000
0100
0000
0000
0000
,  // measure 38
0000
0001
1010
0000
;

//---------------dance-single - ----------------
#NOTES:
     dance-single:
     :
     Hard:
     8:
     0.347633,0.374749,0.540763,0.000000,0.064892,225.000000,175.000000,50.000000,0.000000,0.000000,0.000000,0.347633,0.374749,0.540763,0.000000,0.064892,225.000000,175.000000,50.000000,0.000000,0.000000,0.000000:
0000
0000
0000
0000
,
0000
0000
0000
0000
,
0000
0000
0000
0000
,
1000
0000
0000
0100
0000
0000
1000
0000
0010
0000
0000
0000
0101
0000
0000
0000
,
0001
0000
0000
1000
0000
0000
0100
0000
0010
0000
0000
0000
0000
0000
0000
0000
,
0001
0000
0000
0100
0000
0000
0001
0000
0010
0000
0000
0000
1100
0000
0000
0000
,
0000
1010
0101
0000
,
0001
0000
0000
0100
0000
0000
0001
0000
0010
0000
0000
0000
1100
0000
0000
0000
,
1000
0000
0000
0001
0000
0000
0100
0000
0010
0000
0000
0000
0000
0000
0000
0000
,
1000
0000
0000
0100
0000
0000
1000
0000
0010
0000
0000
0000
0101
0000
0000
0000
,
0000
0011
1100
0000
,
0010
0000
0100
0001
0100
1000
1100
0000
,
0010
0000
1000
0100
0010
0000
1100
0000
,
0001
0000
1010
0010
0100
0001
0010
0000
,
0001
0000
1000
0100
1100
0000
0000
0000
,
0010
0000
0100
1000
0100
0001
0101
0000
,
0010
0000
0001
0100
0010
0000
0101
0000
,
1000
0000
0011
0010
0100
1000
0010
0000
,
1000
0000
0001
0100
0101
0000
0000
0000
,
1001
0000
1000
0100
0001
0000
1100
0000
,
0010
0100
0010
0100
0010
0000
0101
0000
,
1100
0000
0001
0100
1000
0000
1001
0000
,
0100
1001
0110
0000
,
1000
0000
1100
0100
0010
0000
0100
0000
,
0001
0000
0101
0010
0000
1000
0100
1000
,
1100
0110
0011
0110
,
1100
0000
0010
0100
0010
0000
0101
0000
,
0001
0000
0101
0100
0010
0000
0100
0000
,
1000
0000
1100
0010
0000
0001
0100
0001
,
0101
0110
1010
0110
,
1000
0001
1000
0100
1000
0001
1001
0000
,
0010
0000
0000
0110
0000
0000
0100
0000
0001
0000
0100
0000
0010
0000
0000
0000
,
1000
0000
0000
1100
0000
0000
0100
0000
0010
0000
0000
0000
0101
0000
0000
0000
,
0010
0000
0000
1000
0000
0000
1100
0000
0100
0000
1000
0000
0001
0000
0000
0000
,
1000
1010
1100
0000
,
0010
0000
0000
0110
0000
0000
0100
0000
1000
0000
0100
0000
0010
0000
0000
0000
,
0001
0000
0000
0101
0000
0000
0100
0000
0010
0000
0000
0000
1100
0000
0000
0000
,
0010
0000
0000
0001
0000
0000
0101
0000
0100
0000
0001
0000
1000
0000
0000
0000
,
0001
0011
0101
0000
;

//---------------dance-double - ----------------
#NOTES:
     dance-double:
     :
     Easy:
     4:
     0.183859,0.208194,0.140598,0.000000,0.000000,119.000000,106.000000,13.000000,0.000000,0.000000,0.000000,0.183859,0.208194,0.140598,0.000000,0.000000,119.000000,106.000000,13.000000,0.000000,0.000000,0.000000:
00000000
00000000
00000000
00000000
,
00000000
00000000
00000000
00000000
,
00000000
00000000
00000000
00000000
,
00000001
00000000
00000100
00000000
,
00001000
00010000
00100000
00000000
,
00010000
00000000
00001000
00000000
,
00000000
01000000
01100000
00000000
,
10000000
00000000
01000000
00000000
,
00010000
00001000
00000010
00000000
,
00001000
00000000
00010000
00000000
,
00000000
00000100
00001001
00000000
,
00000010
00000000
00001000
00001000
,
00010000
00001000
00010000
00000000
,
00100000
10000000
00100000
10000000
,
00010000
01000000
01010000
00000000
,
00100000
00000000
00010000
00010000
,
00001000
00010000
00001000
00000000
,
00000010
00000001
00000010
00000001
,
00001000
00000100
00001100
00000000
,
00000001
00000000
00001100
00000000
,
00010000
00000000
00011000
00000000
,
01000000
00000000
00110000
00000000
,
10000000
00010000
10010000
00000000
,
00100000
00001000
00010000
00000100
,
00010000
00000100
00010100
00000000
,
00000010
00000001
00000010
00000000
,
00001000
00000100
00010000
00000000
,
00000010
00010000
00001000
01000000
,
00001000
01000000
01001000
00000000
,
00100000
10000000
00100000
00000000
,
01000000
01000000
01000000
01100000
,
00010000
10000000
00010000
00100000
,
00001000
00001000
00010000
00000000
,
00000010
00000010
00001000
00000100
,
00000000
00010000
00010010
00000000
,
00001000
00000001
00001000
00000010
,
00010000
00010000
00001000
00000000
,
00100000
00100000
00010000
01000000
,
00000000
00001000
00101000
00000000
;

//---------------dance-double - ----------------
#NOTES:
     dance-double:
     :
     Medium:
     6:
     0.278107,0.291471,0.378534,0.000000,0.000000,180.000000,145.000000,35.000000,0.000000,0.000000,0.000000,0.278107,0.291471,0.378534,0.000000,0.000000,180.000000,145.000000,35.000000,0.000000,0.000000,0.000000:
00000000
00000000
00000000
00000000
,
00000000
00000000
00000000
00000000
,
00000000
00000000
00000000
00000000
,
10000000
01000000
00100000
00110000
,
00001000
00010000
00000010
00000000
,
00001000
00000001
00000100
00001100
,
00010000
00100000
01100000
00000000
,
10000000
00100000
01000000
01010000
,
00001000
00010000
00000100
00000000
,
00001000
00000001
00000010
00001010
,
00010000
01000000
01100000
00000000
,
10000000
00000000
01000000
00000000
00010000
00001000
00010000
00000000
,
00000010
00000000
00001000
00000010
00000100
00000000
00000110
00000000
,
00000001
00000000
00000100
00000000
00000010
00001000
00000010
00000000
,
00010000
00011000
01010000
00000000
,
10000000
00000000
00100000
00000000
00010000
00001000
00010000
00000000
,
00000010
00000000
00001000
00000001
00000100
00000000
00000110
00000000
,
00000001
00000000
00000100
00000000
00000001
00001000
00000010
00000000
,
00010000
00011000
01100000
00000000
,
10000000
00000000
00010000
01000000
00010000
00000000
00000000
00000000
,
00100000
00000000
00001000
00000010
00000100
00000000
00000000
00000000
,
00001000
00000000
00000001
00000100
00001000
00000000
00010000
00000000
,
01000000
10010000
01100000
00000000
,
00010000
00101000
00010000
00000100
,
00000010
00001001
00000100
00000000
,
00000011
00001000
00011000
00000000
,
10100000
00010000
00101000
00000000
,
00001000
00010010
00001000
00010000
,
00100000
10010000
01000000
00010000
,
10100000
00010000
00011000
00000000
,
00000010
00000000
00000010
00000000
00000010
00000100
00000110
00000000
,
00000001
00000100
00000001
00000000
00001000
00000000
00001100
00000000
,
00010000
00001000
00010000
00000000
00001000
00000000
01001000
00000000
,
00100000
01000000
00100000
00000000
10000000
00000000
01010000
00000000
,
00100000
00011000
01010000
00000000
,
10000000
01000000
10000000
00000000
00010000
00000000
01010000
00000000
,
00001000
00010000
00001000
00000000
00010000
00000000
00010100
00000000
,
00000010
00000100
00000010
00000000
00000001
00000000
00001100
00000000
,
00000010
00011000
00001100
00000000
;

//---------------dance-double - ----------------
#NOTES:
     dance-double:
     :
     Hard:
     8:
     0.338363,0.333110,0.302827,0.000000,0.102745,219.000000,191.000000,28.000000,0.000000,0.000000,0.000000,0.338363,0.333110,0.302827,0.000000,0.102745,219.000000,191.000000,28.000000,0.000000,0.000000,0.000000:
00000000
00000000
00000000
00000000
,
00000000
00000000
00000000
00000000
,
00000000
00000000
00000000
00000000
,
00000001
00000000
00000000
00000100
00000000
00000000
00001000
00000000
00010000
00000000
00000000
00000000
01000000
00000000
00000000
00000000
,
00010000
00000000
00000000
00100000
00000000
00000000
00010000
00000000
00001000
00000000
00000000
00000000
00000110
00000000
00000000
00000000
,
00000001
00000000
00000000
00000100
00000000
00000000
00001000
00000000
00010000
00000000
00000000
00000000
01000000
00000000
00000000
00000000
,
00010000
00101000
01010000
00000000
,
10000000
00000000
00000000
01000000
00000000
00000000
00010000
00000000
00001000
00000000
00000000
00000000
00000100
00000000
00000000
00000000
,
00001000
00000000
00000000
00000010
00000000
00000000
00001000
00000000
00010000
00000000
00000000
00000000
01100000
00000000
00000000
00000000
,
10000000
00000000
00000000
01000000
00000000
00000000
00010000
00000000
00001000
00000000
00000000
00000000
00000100
00000000
00000000
00000000
,
00001000
00010010
00001100
00000000
,
00000010
00000000
00000001
00000100
00001000
00000100
00000001
00000000
,
00000010
00000100
00010000
00001000
01000000
00000000
11000000
00000000
,
00100000
00001000
00010000
00100000
10000000
00010000
01000000
00000000
,
00101000
00011000
00000110
00000000
,
00001000
00000000
00000001
00000100
00001000
00000100
00000001
00000000
,
00000010
00000100
00010000
00001000
00100000
00000000
11000000
00000000
,
00100000
00001000
00010000
00100000
01000000
00010000
01000000
00000000
,
00101000
00010010
00000110
00000000
,
00001000
00000000
00000100
00000010
00001000
00000000
00011000
00000000
,
00010000
00000010
00010000
00000100
00001000
00000000
00110000
00000000
,
10000000
00010000
01000000
00001000
00100000
00001000
00010000
00000000
,
00000100
01001000
00010100
00000000
,
00100000
00000000
00000000
00001000
00010000
00000000
00000100
00000000
00000000
00000000
00000010
00000000
00000100
00000000
00000000
00000000
,
00001000
00000000
00000000
00000001
00000100
00000000
00001000
00000000
00010000
00000000
00000000
00000000
00001000
00000000
00000000
00000000
,
01000000
00000000
00000000
00010000
00100000
00000000
01000000
00000000
00000000
00000000
10000000
00000000
00010000
00000000
00000000
00000000
,
00100000
00000000
00000000
00001000
00010000
00000000
01000000
00000000
00010000
00000000
00001000
00000000
00000100
00000000
00000000
00000000
,
00000010
00000000
00000000
00010000
00001000
00000000
01000000
00000000
00010000
00000000
00100000
00000000
01000000
00000000
00000000
00000000
,
00010000
00000000
00000000
10000000
01000000
00000000
00010000
00000000
00001000
00000000
00000000
00000000
00010000
00000000
00000100
00000000
,
00000100
00000000
00000000
00001000
00000010
00000000
00000100
00000000
00000000
00000000
00000001
00000000
00001000
00000000
00000001
00000000
,
00000100
00001000
00110000
11000000
,
00100000
00000000
00000000
00100000
00000000
00000000
00001000
00000000
00010000
00000000
00000100
00000000
00000110
00000000
00000000
00000000
,
00000001
00000000
00000000
00000001
00000000
00000000
00001000
00000000
00000010
00000000
00000000
00000000
00001100
00000000
00000000
00000000
,
00000010
00000000
00000000
00000100
00000000
00000000
00001000
00000000
00001000
00000000
00010000
00000000
00010000
00000000
00000000
00000000
,
01000000
00101000
00001010
00000000
,
00000010
00000000
00000000
00000010
00000000
00000000
00010000
00000000
00001000
00000000
01000000
00000000
01100000
00000000
00000000
00000000
,
10000000
00000000
00000000
10000000
00000000
00000000
00010000
00000000
00100000
00000000
00000000
00000000
01010000
00000000
00000000
00000000
,
00100000
00000000
00000000
01000000
00000000
00000000
00010000
00000000
00010000
00000000
00001000
00000000
00001000
00000000
00000000
00000000
,
00000100
00010010
00110000
00000000
;

//---------------dance-single - ----------------
#NOTES:
     dance-single:
     :
     Challenge:
     11:
     0.460421,0.442885,0.486686,0.151414,0.270381,298.000000,253.000000,45.000000,14.000000,0.000000,0.000000,0.460421,0.442885,0.486686,0.151414,0.270381,298.000000,253.000000,45.000000,14.000000,0.000000,0.000000:
0000
0000
0000
0000
,
0000
0000
0000
0000
,
0000
0000
0000
0000
,
0101
0000
0000
1100
0000
0000
0001
0000
1000
0000
0100
0000
0010
0000
0000
0000
,
0011
0000
0000
1010
0000
0000
0100
0000
0001
0000
1000
0000
1000
0000
0000
0000
,
0110
0000
0000
1001
0000
0000
0010
0000
1000
0000
0100
0000
0001
0000
0000
0000
,
1000
0000
0100
0000
0001
0000
0000
0000
0011
0000
0001
1000
0001
1000
0001
0000
,
0101
0000
0000
1010
0000
0000
0010
0000
0100
0000
0001
0000
1000
0000
0000
0000
,
1100
0000
0000
0011
0000
0000
1000
0000
0001
0000
0100
0000
0100
0000
0000
0000
,
1001
0000
0000
0110
0000
0000
1000
0000
0010
0000
0100
0000
0001
0000
0000
0000
,
1000
0000
0100
0000
0001
0000
0000
0000
1010
0000
0010
0100
0010
0100
0010
0000
,
1000
0000
0000
1000
0000
0000
0001
0010
0100
0000
1000
0000
1000
0000
0000
0000
,
0001
0000
1000
0001
0000
0000
0010
0001
0100
0000
0000
0000
0010
1000
0010
0000
,
0110
0000
0000
1001
0000
0000
0010
0000
1000
0000
0001
0000
0100
0000
0020
0000
,
0000
2030
0000
0000
3100
0000
0010
0000
0001
0000
1000
0000
1000
0000
0001
0100
,
0001
0000
1000
0010
0000
0010
0100
0000
0001
0000
0010
0000
0010
0000
0000
0000
,
0001
0000
0100
0010
0000
0010
1000
0000
0100
0000
0000
0000
1000
0001
1000
0000
,
0010
0000
1000
0100
0000
0000
1000
0001
0100
0000
0010
0000
1000
0000
0002
0000
,
0000
0023
0000
0000
0130
0000
1000
0000
0010
0000
1000
0000
0100
0000
1000
0000
,
0001
0000
0000
0101
0000
0000
0100
0000
0010
0000
1000
0000
0001
0000
0020
0000
,
0000
0130
0000
1000
0000
0001
0100
0000
0110
0000
0000
0000
1000
0001
1000
0000
,
0010
0010
1000
0001
1001
0110
1001
0000
,
0100
0001
0011
0000
1100
1000
0001
0000
,
2000
0000
0000
3020
0000
0000
0130
0000
0002
0000
0000
2003
0000
0000
3010
0000
,
2000
0100
0001
0000
3010
0001
1001
0000
,
1010
0000
0000
0010
0100
0000
0001
0000
0010
0000
1000
0000
1100
0000
0000
0000
,
0001
0000
0100
0010
1000
0000
0001
0000
0001
0000
0000
0000
1000
0100
1000
0000
,
0002
0000
0000
0023
0000
0000
0130
0000
2000
0000
0000
3002
0000
0000
1003
0000
,
0010
0000
0000
0010
0100
0000
0001
0000
1000
0000
0100
0000
1100
0000
0000
0000
,
0101
0000
0000
0001
1000
0000
0010
0000
0110
0000
0000
0000
1001
0000
0000
0000
,
0100
0000
0010
0000
1000
0000
0000
0000
0001
0000
0100
0010
0100
0010
0100
0000
,
0101
0000
0000
1100
0000
0000
0010
0000
1000
0000
0100
0000
0001
0000
0000
0000
,
0011
0000
0000
1010
0000
0000
0010
0000
0100
0000
0000
0000
0001
1000
0001
0000
,
0110
0000
0000
1001
0000
0000
0001
0000
0010
0000
0100
0000
1000
0000
0000
0000
,
0010
1000
0001
0000
1010
0100
0001
0000
,
0101
0000
0000
1010
0000
0000
1000
0000
0100
0000
0001
0000
0010
0000
0000
0000
,
0011
0000
0000
1100
0000
0000
0010
0000
0100
0000
0000
0000
0001
1000
0001
0000
,
1001
0000
0000
0110
0000
0000
0010
0000
1000
0000
0001
0000
0100
0000
0000
0000
,
0010
0100
0001
0000
0011
0100
1000
0000
,
1001
0000
0000
0000
;
