#VERSION:0.83;
#TITLE:You Can Call Me Al;
#SUBTITLE:;
#ARTIST:Paul Simon;
#TITLETRANSLIT:;
#SUBTITLETRANSLIT:;
#ARTISTTRANSLIT:;
#GENRE:;
#ORIGIN:;
#CREDIT:;
#BANNER:You Can Call Me Al-bn.png;
#BACKGROUND:You Can Call Me Al-bg.png;
#PREVIEWVID:;
#JACKET:You Can Call Me Al-jacket.png;
#CDIMAGE:;
#DISCIMAGE:;
#LYRICSPATH:;
#CDTITLE:;
#MUSIC:You Can Call Me Al.ogg;
#OFFSET:0.469000;
#SAMPLESTART:44.424999;
#SAMPLELENGTH:20.000000;
#SELECTABLE:YES;
#DISPLAYBPM:124.000000:131.000000;
#BPMS:0.000=124.000,
8.000=126.000,
16.000=127.000,
24.000=127.960,
28.000=128.500,
44.000=129.000,
48.000=131.000,
60.000=129.500,
72.000=128.900,
100.000=128.000,
112.000=127.400,
128.000=129.150,
140.000=130.000,
148.000=128.610,
172.000=129.750,
188.000=129.125,
192.000=131.315,
200.000=128.700,
204.000=127.350,
224.000=126.750;
#STOPS:;
#DELAYS:;
#WARPS:;
#TIMESIGNATURES:0.000=4=4;
#TICKCOUNTS:0.000=4;
#COMBOS:0.000=1;
#SPEEDS:0.000=1.000=0.000=0;
#SCROLLS:0.000=1.000;
#FAKES:;
#LABELS:0.000=Song Start;
#BGCHANGES:;
#KEYSOUNDS:;
#ATTACKS:
;

//---------------dance-single - ----------------
#NOTEDATA:;
#CHARTNAME:;
#STEPSTYPE:dance-single;
#DESCRIPTION:;
#CHARTSTYLE:;
#DIFFICULTY:Hard;
#METER:12;
#RADARVALUES:0.522407,0.483644,0.225303,0.017331,0.285962,422.000000,396.000000,26.000000,2.000000,0.000000,0.000000,0.000000,0.000000,0.000000,0.522407,0.483644,0.225303,0.017331,0.285962,422.000000,396.000000,26.000000,2.000000,0.000000,0.000000,0.000000,0.000000,0.000000;
#CREDIT:;
#DISPLAYBPM:124.000000:131.000000;
#NOTES:
0000
0000
0000
0000
,
0000
0000
0000
0000
,
0010
0000
0001
0000
0100
0000
0001
0000
1000
0000
0000
1000
0000
0000
1000
0000
,
0010
0000
1000
0000
0001
0000
1000
0000
0100
0000
0000
0100
0000
0000
0100
0000
,
1000
0000
0001
0000
0100
0000
0001
0000
0010
0000
0000
0010
0000
0000
0010
0000
,
0100
0000
1000
0000
0010
0000
1000
0000
0001
0000
0000
0001
0000
0000
0001
0000
,
0100
0000
0010
0000
0100
0000
0001
0000
1000
0000
0000
1000
0000
0000
1000
0000
,
0001
0011
0000
1100
0000
0101
1001
0000
,
0010
0000
1000
0000
0000
0001
0000
0000
0100
0000
0010
0000
0100
0000
0001
0000
,
1000
0000
0100
0000
0000
0010
0000
0000
0001
0000
1000
0000
0001
0000
0100
0000
,
0000
0010
1000
0001
1000
0100
0010
0001
,
0000
0000
0100
0000
0000
0010
0000
0000
0100
0000
0001
0000
1000
0000
0010
0000
,
0000
1000
0100
0010
0001
1000
0001
0100
,
0000
0010
1000
0001
1000
0100
0010
0001
,
0100
0000
0010
0000
1000
0000
0000
0001
0000
0000
0010
0000
0000
0001
0000
0000
,
0100
0000
0000
0010
0000
0000
1000
0000
0001
0000
0100
0000
0010
0000
0000
0000
,
1001
0000
0100
0010
1001
0000
0100
0010
,
0000
0000
1000
0000
0000
0100
0000
0000
1000
0000
0010
0000
0100
0000
0001
0000
,
0010
0000
0001
0100
0001
0010
0001
1000
,
0010
1000
0100
1000
0010
0000
0001
0001
,
1001
0000
0100
0010
1001
0000
0100
0010
,
1000
0000
0100
0000
1000
0000
0010
0100
0000
0100
0001
0000
0010
0000
0000
0000
,
0000
0000
0100
1000
0000
0100
1000
0000
0001
0000
0000
0100
0000
0000
0010
0000
,
1000
0000
0100
0000
1000
0001
1000
0000
0010
0000
0110
0000
1001
0000
0000
0000
,
0001
0000
0010
0000
0001
0000
0100
0000
0010
1000
0000
0010
1000
0000
0000
0000
,
0100
0000
0010
0000
0100
0000
1000
0000
0001
0000
0000
0001
0000
0000
0001
0000
,
0010
0000
0001
0000
0100
0000
0001
0000
1000
0000
0000
1000
0000
0000
1000
0000
,
0001
0000
1000
0000
0010
0000
1000
0000
0100
0000
0000
0100
0000
0000
0100
0000
,
1000
0000
0010
0000
1000
0000
0001
0000
1000
0100
0000
0010
0001
0000
0000
0000
,
0100
0010
1000
0001
0010
0100
1000
0001
,
0201
0000
0000
0000
0310
0000
0000
0000
2010
0000
0000
0001
0000
0000
3100
0000
,
1000
0010
1000
0001
0010
0100
1000
0001
,
0100
0000
0010
0000
1000
0001
1000
0000
0000
0000
0001
0000
0010
0000
0100
0000
,
1000
0000
0000
0001
0000
0000
1000
0000
0010
0100
0000
0010
0100
0000
0001
0000
,
0000
0000
0010
0000
0001
1000
0001
0000
0000
0000
0100
0000
0010
0000
1000
0000
,
0100
0000
0000
0010
0000
0000
0001
0000
1000
0010
0000
1000
0010
0000
0100
0000
,
0000
0000
0001
0000
0100
0010
0100
0000
0000
0000
0010
0000
1000
0000
0001
0000
,
0010
0000
0000
0100
0000
0000
1000
0000
0001
0100
0000
0001
0100
0000
0010
0000
,
0000
0000
1000
0000
0100
0010
0100
0000
0000
0000
1000
0000
0000
0000
0001
0000
,
0100
0000
0000
0000
0010
0000
1000
0000
0001
0010
0000
0001
0010
0000
0100
0000
,
0000
0000
1000
0000
0010
0000
1000
0000
0001
0000
0000
0010
0000
0000
0100
0000
,
1000
0001
0000
1000
0001
0000
0100
0000
0010
0000
0000
0010
0000
0000
0010
0000
,
0000
0000
0100
0000
0001
0000
0100
0000
0010
0000
0000
1000
0000
0000
0001
0000
,
0010
0100
0000
0010
0100
0000
1000
0000
0001
0000
0000
0001
0000
0000
0001
0000
,
0000
0000
1000
0000
0100
0000
1000
0000
0001
0000
0000
0100
0000
0000
0010
0000
,
0100
0001
0000
0001
1000
0000
0100
0000
0010
0000
0000
0010
0000
0000
0010
0000
,
0000
0001
0100
0010
1000
0100
1000
0001
,
1000
0000
0010
0000
1000
0001
1000
0000
0000
0000
0100
0000
0010
0000
0001
0000
,
0000
0110
0001
0100
0001
0010
0100
1000
,
0010
0100
0010
1000
0100
0010
0001
0100
,
0001
0000
0010
0000
0001
0000
0100
0000
0010
1000
0000
0010
1000
0000
0000
0000
,
1100
0101
1100
0101
,
0011
0110
1100
0101
,
1001
0000
0000
0000
0110
0000
0000
0000
1000
0010
0000
1000
0010
0000
0100
0000
,
0001
0000
1000
0000
0010
0000
1000
0000
0100
0010
0000
0010
0001
0000
0000
0000
,
0101
0000
0000
0000
1010
0000
0000
0000
0001
1000
0000
0001
1000
0000
0010
0000
,
0100
0000
0000
0000
0110
0000
0000
0000
0001
0000
0000
0010
0000
0000
0100
0000
,
1000
0000
0001
0000
0100
0000
0001
0000
0010
0000
0000
0010
0000
0000
0010
0000
,
0001
0000
0100
0000
0001
0000
1000
0000
0010
0100
0000
0010
0100
0000
0000
0000
;

//---------------dance-single - ----------------
#NOTEDATA:;
#CHARTNAME:;
#STEPSTYPE:dance-single;
#DESCRIPTION:;
#CHARTSTYLE:;
#DIFFICULTY:Medium;
#METER:9;
#RADARVALUES:0.363951,0.380199,0.103986,0.103986,0.151646,294.000000,282.000000,12.000000,12.000000,0.000000,0.000000,0.000000,0.000000,0.000000,0.363951,0.380199,0.103986,0.103986,0.151646,294.000000,282.000000,12.000000,12.000000,0.000000,0.000000,0.000000,0.000000,0.000000;
#CREDIT:;
#DISPLAYBPM:124.000000:131.000000;
#NOTES:
0000
0000
0000
0000
,
0000
0000
0000
0000
,
0000
0000
0000
0000
0010
0000
0000
0000
0001
0000
0000
0001
0000
0000
0001
0000
,
0000
0000
0000
0000
1000
0000
0000
0000
0010
0000
0000
0010
0000
0000
0010
0000
,
0000
0000
0000
0000
0100
0000
0000
0000
0001
0000
0000
0001
0000
0000
0001
0000
,
0000
0000
0000
0000
1000
0000
0000
0000
0100
0000
0000
0100
0000
0000
0100
0000
,
0000
0000
0000
0000
1000
0000
0000
0000
0001
0000
0000
0001
0000
0000
0001
0000
,
0000
0000
0000
0000
0010
0000
0000
0000
0100
0000
0000
0100
0000
0000
0100
0000
,
0000
0000
1000
0000
0000
0001
0000
0000
0100
0000
0010
0000
0100
0000
0000
0000
,
0001
0000
0010
0000
0001
1000
0010
0100
,
0000
0000
0010
0000
0000
1000
0000
0000
0001
0000
0000
1000
0000
0000
0100
0000
,
0000
0000
0010
0000
0000
0001
0000
0000
0010
0000
0000
0000
0100
0000
1000
0000
,
0000
0000
0001
0000
0100
0000
0001
0000
0000
0010
0000
0000
0100
0000
0000
0000
,
0000
0000
1000
0000
0001
0000
1000
0000
0000
0000
0010
0000
0000
0100
0000
0000
,
0001
0010
0100
0000
1000
0001
0100
0000
,
0010
0000
1000
0000
0000
0001
0000
0000
0010
0000
0000
0000
0100
0000
0000
0000
,
1001
0100
1001
0100
,
0000
0010
0000
1000
0001
0100
0000
0000
,
0000
0000
0001
0010
0001
0000
1000
0010
,
1000
0000
0100
0010
0000
0000
0001
0001
,
1001
0100
1001
0100
,
0010
1000
0010
0000
1000
0001
0100
0000
,
0000
0000
0001
0000
0000
0010
0000
0000
0100
0000
0000
1000
0000
0000
0001
0000
,
1000
1100
0000
0101
0000
0100
0110
0000
,
0010
1000
0100
0000
1000
0001
0100
0000
,
0001
0000
0010
0000
0100
0000
0000
0000
1000
0000
0000
1000
0000
0000
1000
0000
,
0000
0000
0000
0000
0010
0000
0000
0000
0100
0000
0000
0100
0000
0000
0100
0000
,
0000
0000
0000
0000
0001
0000
0000
0000
1000
0000
0000
1000
0000
0000
1000
0000
,
0010
1000
0001
0000
0101
0000
0000
0010
,
1000
0000
0000
0100
0000
0000
1000
0000
0000
0010
0000
0000
0100
0000
0001
0000
,
0020
0031
2000
3010
,
0200
0000
0010
0000
0301
1000
0100
0000
,
0010
0001
1000
0001
0000
0100
0010
0000
,
1000
0000
0000
1000
0000
0000
1000
0000
0001
0000
0000
0001
0000
0000
0001
0000
,
0000
0010
0001
0100
0000
0010
1000
0000
,
0100
0000
0000
0100
0000
0000
0100
0000
0010
0000
0000
0010
0000
0000
0010
0000
,
0000
0001
0100
0001
0000
1000
0100
0000
,
1000
0000
0000
1000
0000
0000
1000
0000
0010
0000
0000
0010
0000
0000
0010
0000
,
0000
0100
0001
1000
0000
1000
0000
0001
,
0010
0000
1001
0000
1000
0001
1000
0100
,
0000
0020
0000
0031
0100
0020
0000
1030
,
0000
0000
0001
0000
0000
0000
1000
0000
0010
0000
0000
0100
0000
0000
0010
0000
,
0000
2000
0000
3001
0200
0000
0310
0100
,
0001
0000
0100
0000
0000
0000
0010
0000
1000
0000
0000
0001
0000
0000
1000
0000
,
0000
0200
0000
1300
0001
0200
0000
0310
,
1000
0000
0100
0000
0000
0000
1000
0000
0001
0000
0000
0100
0000
0000
0001
0000
,
0000
0020
0000
0031
2000
0000
3010
0100
,
0000
0002
0000
0013
0000
0001
0100
1000
,
0000
0000
0110
0000
0000
1000
0000
0000
0001
0000
0000
1000
0000
0000
0100
0000
,
0010
0000
0010
0000
0001
0100
1000
0000
,
0010
1000
0010
0000
1000
0001
0100
0000
,
0001
0001
1000
1000
,
0010
1000
0010
0100
,
0001
0000
0000
0000
0010
0000
0000
0000
0001
0000
0000
0001
0000
0000
0001
0000
,
1000
0010
0100
0000
1010
0000
0000
0000
,
1000
0000
0000
0000
0100
0000
0000
0000
1000
0000
0000
1000
0000
0000
1000
0000
,
0001
0000
0000
0000
0100
0000
0000
0000
0010
0000
0000
0010
0000
0000
0010
0000
,
0000
0000
0000
0000
0100
0000
0000
0000
0001
0000
0000
1000
0000
0000
0001
0000
,
0010
0001
0100
0000
1001
0000
0000
0000
;

//---------------dance-single - ----------------
#NOTEDATA:;
#CHARTNAME:;
#STEPSTYPE:dance-single;
#DESCRIPTION:;
#CHARTSTYLE:;
#DIFFICULTY:Easy;
#METER:5;
#RADARVALUES:0.220352,0.294302,0.051993,0.034662,0.000000,178.000000,172.000000,6.000000,4.000000,0.000000,0.000000,0.000000,0.000000,0.000000,0.220352,0.294302,0.051993,0.034662,0.000000,178.000000,172.000000,6.000000,4.000000,0.000000,0.000000,0.000000,0.000000,0.000000;
#CREDIT:;
#DISPLAYBPM:124.000000:131.000000;
#NOTES:
0000
0000
0000
0000
,
0000
0000
0000
0000
,
0000
0010
0001
0001
,
0000
1000
0010
0010
,
0000
0100
0001
0001
,
0000
1000
0100
0100
,
0000
1000
0001
0001
,
0000
0010
0100
0100
,
0000
1000
0100
0001
,
0000
0010
0001
0100
,
0000
0010
1000
0001
,
0000
1000
0100
0010
,
0000
0001
1000
0001
,
0000
0010
0001
0100
,
0010
0010
1000
0001
,
1000
0100
1000
0001
,
1001
0100
1001
0100
,
0000
0001
0010
1000
,
0000
0100
0100
1000
,
0001
0100
0000
0010
,
1001
0100
1001
0100
,
1000
1000
1000
0001
,
0000
0010
0010
0001
,
0100
0010
1000
0000
,
0001
0010
0001
0000
,
0100
0010
1000
0001
,
1000
0100
0010
0010
,
0000
0001
1000
1000
,
0010
0100
1001
0000
,
1000
0010
1000
0001
,
0200
0000
0320
0000
,
2030
0000
0000
3001
,
1000
0100
0000
0010
,
0000
0001
0000
1000
,
0000
0010
0000
1000
,
0000
0001
0000
0100
,
0000
0001
0000
0010
,
0000
0100
0000
1000
,
0000
0010
0000
0100
,
0001
0001
1000
1000
,
0000
0010
1000
0100
,
1000
0000
0001
0000
,
0000
0010
0001
0100
,
0001
0000
1000
0000
,
0000
0100
1000
0001
,
0100
0000
0010
0000
,
0000
1000
0001
1000
,
0010
0100
0010
1000
,
0000
0001
0010
0001
,
0010
0010
0100
1000
,
0001
0100
0100
0000
,
0001
0000
1000
0000
,
0010
0000
1000
0000
,
0100
0100
0100
0000
,
0010
0001
0100
0000
,
0001
1000
0001
1000
,
0010
0100
0001
0001
,
0000
1000
0100
0100
,
1000
0001
1001
0000
,
0200
0000
0000
0000
,
0000
0000
0000
0000
,
0000
0000
0000
0300
;

//---------------dance-single - ----------------
#NOTEDATA:;
#CHARTNAME:;
#STEPSTYPE:dance-single;
#DESCRIPTION:;
#CHARTSTYLE:;
#DIFFICULTY:Beginner;
#METER:3;
#RADARVALUES:0.127507,0.202773,0.034662,0.000000,0.000000,103.000000,99.000000,4.000000,0.000000,0.000000,0.000000,0.000000,0.000000,0.000000,0.127507,0.202773,0.034662,0.000000,0.000000,103.000000,99.000000,4.000000,0.000000,0.000000,0.000000,0.000000,0.000000,0.000000;
#CREDIT:;
#DISPLAYBPM:124.000000:131.000000;
#NOTES:
0000
0000
0000
0000
,
0000
0000
0000
0000
,
0000
0010
0000
0000
,
0000
0001
0000
0000
,
0000
1000
0000
0000
,
0000
0010
0000
0000
,
0000
0100
0000
0000
,
0000
0001
0000
0000
,
0000
0100
0000
0010
,
0000
1000
0000
0001
,
0000
1000
0000
0100
,
0000
1000
0000
0001
,
0000
0010
0000
0001
,
0000
0100
0000
0010
,
0000
0000
1000
0000
,
0001
0000
0010
0000
,
1001
0000
1001
0000
,
0000
0100
0000
0100
,
0000
0001
0001
0000
,
1000
0000
0000
0000
,
1001
0000
1001
0000
,
0010
0010
0010
0000
,
0100
0000
0001
0000
,
1000
0000
0000
0000
,
0010
0010
0010
0000
,
1000
1000
1000
0000
,
0001
0000
0000
0000
,
0000
0000
0000
0000
,
0100
0100
0100
0000
,
0001
0001
0001
0000
,
1000
0000
0001
0000
,
0100
0000
0000
0000
,
0000
0010
0000
0000
,
1000
0000
0001
0000
,
0000
0010
0000
0000
,
0100
0000
1000
0000
,
0000
0001
0000
0000
,
1000
0000
0010
0000
,
0000
0100
0000
0000
,
0001
0000
1000
0000
,
0000
0001
0000
0010
,
0000
0100
0000
1000
,
0000
0010
0000
1000
,
0000
0001
0000
0100
,
0000
0001
0000
1000
,
0000
0100
0000
0010
,
0000
0001
0000
0100
,
0000
0010
0000
1000
,
0000
0000
0000
0000
,
0000
0000
0000
0000
,
0001
0001
0001
0000
,
1000
0000
0010
0000
,
1000
0000
0001
0000
,
0010
0000
0100
0000
,
1000
1000
1000
0000
,
0001
0000
1000
0000
,
0010
0000
0000
0000
,
0100
0000
0000
0000
,
0010
0010
0010
0000
;

//---------------dance-single - ----------------
#NOTEDATA:;
#CHARTNAME:;
#STEPSTYPE:dance-single;
#DESCRIPTION:;
#CHARTSTYLE:;
#DIFFICULTY:Challenge;
#METER:16;
#RADARVALUES:0.838079,0.802643,0.138648,0.103986,1.039861,677.000000,661.000000,16.000000,12.000000,0.000000,0.000000,0.000000,0.000000,0.000000,0.838079,0.802643,0.138648,0.103986,1.039861,677.000000,661.000000,16.000000,12.000000,0.000000,0.000000,0.000000,0.000000,0.000000;
#CREDIT:;
#DISPLAYBPM:124.000000:131.000000;
#NOTES:
// measure 0
0000
0000
0000
0000
,  // measure 1
0000
0000
0000
0000
,  // measure 2
0010
0000
0001
0000
0100
0010
1000
0000
0100
0010
0000
0010
0001
0000
1000
0000
,  // measure 3
0001
0100
0010
0000
1000
0001
0100
0000
0010
1000
0000
1000
0001
0000
0100
0000
,  // measure 4
0001
0010
0100
0000
1000
0001
0100
0000
0010
1000
0000
1000
0001
0000
0100
0000
,  // measure 5
0010
0100
0001
0000
1000
0100
0010
0000
0001
0100
0000
0100
0010
0000
1000
0001
,  // measure 6
0100
0000
0001
0000
0010
0100
1000
0000
0001
1000
0000
1000
0100
0000
0010
0000
,  // measure 7
0001
0000
0101
0000
1000
0000
1100
0000
0010
0000
0110
0000
1001
0000
0100
0010
,  // measure 8
0000
0010
1000
0000
0000
0001
0000
0000
0100
0000
0010
0000
0100
0001
0000
1000
,  // measure 9
0000
0100
1000
0001
0000
0000
0010
0000
0000
0001
0100
0010
1000
0001
0000
0000
,  // measure 10
1000
0100
0010
0000
0001
0100
0000
0010
0000
0000
1000
0001
1000
0100
0010
0000
,  // measure 11
0001
0100
0010
0000
1000
0100
0010
0000
0001
1000
0010
1000
0001
0000
0100
0000
,  // measure 12
0010
1000
0100
1000
0001
0100
0010
1000
0000
0100
0000
1000
0010
0100
0001
0000
,  // measure 13
0010
0100
1000
0000
0001
0100
0010
0000
1000
0100
1000
0000
0001
0000
0000
0000
,  // measure 14
0010
0000
0100
0000
1000
0001
0010
0000
0001
0100
0010
0000
1000
0000
0100
0010
,  // measure 15
0001
0100
0010
0100
0001
0010
0100
0010
0001
1000
0100
1000
0001
0000
0000
0000
,  // measure 16
1001
0000
0000
0000
0100
0010
1000
0000
1001
0000
0000
0000
0100
0010
0001
0000
,  // measure 17
1000
0000
0001
0010
0100
1000
0010
0100
0001
0000
1000
0000
0010
0000
0100
0001
,  // measure 18
0010
0100
2000
0000
3001
0100
0001
0000
1000
0100
1000
0000
0010
0000
0100
0000
,  // measure 19
0001
1000
0010
1000
0100
1000
0010
0100
0010
1000
0100
0010
0001
0000
0001
0000
,  // measure 20
1001
0000
0010
0000
1000
0001
0100
0000
1001
0000
0010
0000
1000
0001
0100
0000
,  // measure 21
0001
1000
0100
0000
1000
0010
1000
0000
0100
0010
0001
0100
1000
0000
0001
0000
,  // measure 22
0010
0000
0001
0100
0020
0000
1030
0001
0200
0000
0310
0000
1000
0100
0001
0000
,  // measure 23
0010
0011
1000
1010
0010
0110
1001
0200
,  // measure 24
0301
0000
0010
0000
0001
0000
0100
0000
0010
1000
0000
0010
1000
0000
0100
0000
,  // measure 25
1000
0001
0100
0000
0010
0000
1000
0000
0100
0010
0000
0010
0001
0000
1000
0001
,  // measure 26
0100
0000
0001
0000
0010
0100
1000
0000
0010
1000
0000
1000
0001
0000
0100
0000
,  // measure 27
0001
1000
0100
0000
1000
0010
0100
0000
0010
0100
0000
0100
0001
0000
1000
0000
,  // measure 28
0100
0010
0001
0000
1000
0000
0001
0000
0010
0100
0000
0100
1000
0000
0001
0000
,  // measure 29
0100
0010
0000
1000
0001
0000
0010
0000
0100
0000
1000
0010
0100
0001
1000
0000
,  // measure 30
0001
0100
0010
0000
0100
0001
1000
0000
0100
1000
0000
0010
0100
0000
0001
0000
,  // measure 31
0010
0000
0011
0000
1000
0000
1100
0000
0010
0000
0110
0000
1001
0000
0100
0001
,  // measure 32
0000
0000
0010
0000
0001
0100
1000
0000
0010
0000
0100
0001
1000
0000
0100
0000
,  // measure 33
0010
0001
0010
0100
1000
0000
0001
0000
0100
0001
0010
0001
0010
0100
1000
0001
,  // measure 34
0100
0010
1000
0000
0001
0010
0001
0000
1000
0010
1000
0001
1000
0010
0100
0000
,  // measure 35
0001
0010
0001
0010
0100
1000
0010
0100
0010
1000
0010
1000
0010
0100
0001
0000
,  // measure 36
1000
0010
0100
0000
0001
0010
1000
0000
0100
0000
0010
0001
1000
0001
0100
0000
,  // measure 37
0010
1000
0001
0000
1000
0100
0010
0000
0001
0100
0001
0010
0001
0100
1000
0000
,  // measure 38
0010
1000
0001
0000
1000
0100
0010
0000
0001
0010
0001
1000
0001
0100
0010
0000
,  // measure 39
1000
0100
0010
0001
0100
0010
0100
0001
0100
0010
1000
0001
1000
0010
1000
0001
,  // measure 40
0010
0100
2000
0000
3001
0100
0001
0000
1000
0010
0200
0000
0301
0000
0010
0100
,  // measure 41
1000
0001
1000
0010
0100
0000
0001
0000
0010
0100
0000
0100
1000
0001
0100
0000
,  // measure 42
0001
0100
0020
0000
1030
0000
0100
0000
0010
0001
0010
0100
1000
0000
0001
1000
,  // measure 43
0010
0100
0010
1000
0010
0100
0010
1000
0100
0010
0001
0100
0001
1000
0100
0000
,  // measure 44
0010
0001
2000
0000
3010
0100
0001
0000
1000
0100
0010
0001
0000
0001
0100
0000
,  // measure 45
0001
1000
0100
1000
0001
0000
0010
0000
0100
1000
0000
0001
1000
0010
0100
0000
,  // measure 46
0001
1000
0020
0000
0130
0001
1000
0000
0100
0010
0001
0000
1000
0001
0100
0000
,  // measure 47
0001
0010
0200
0000
1300
0001
1000
0000
0010
0000
0100
0001
0010
0100
1000
0000
,  // measure 48
0000
0000
0001
0100
1000
0010
1000
0100
0001
0010
0001
0100
0000
1000
0001
0000
,  // measure 49
0010
0100
0001
1000
0100
0001
0010
1000
0010
1000
0001
0100
1000
0100
0001
0010
,  // measure 50
0100
0000
1000
0000
0010
0100
0001
0000
1000
0001
0000
0001
0010
0000
0100
1000
,  // measure 51
0010
0100
0001
0000
1000
0100
0010
0000
0001
1000
0000
0001
0100
0000
0010
0000
,  // measure 52
1000
0001
0100
0000
0001
0010
0100
0000
1000
0010
0100
0001
1000
0000
0010
0000
,  // measure 53
1000
0100
0001
0100
1000
0001
0100
0010
1000
0100
0010
0001
0100
0010
1000
0001
,  // measure 54
0010
0100
1000
0000
0001
0100
0001
0000
0010
0100
0000
0100
1000
0000
0001
0000
,  // measure 55
0100
0001
0010
0000
0100
1000
0010
0000
1000
0001
0100
0001
0010
0000
1000
0000
,  // measure 56
0100
0010
0001
0000
1000
0001
0010
0100
1000
0000
0010
0100
0000
0100
0001
0000
,  // measure 57
1000
0001
1000
0100
0010
0000
0001
0000
0100
0000
0010
1000
0000
0001
1000
0000
,  // measure 58
0100
0000
0010
0000
0001
0100
1000
0000
0001
1000
0000
0010
0100
0000
0002
0000
,  // measure 59
1000
0100
1000
0010
,  // measure 60
2000
0000
0000
0000
,  // measure 61
0000
0000
0000
3003
;
