#TITLE:You Are;
#SUBTITLE:;
#ARTIST:Lionel Richie;
#TITLETRANSLIT:;
#SUBTITLETRANSLIT:;
#ARTISTTRANSLIT:;
#GENRE:;
#CREDIT:;
#BANNER:You Are-bn.png;
#BACKGROUND:You Are-bg.png;
#LYRICSPATH:;
#CDTITLE:;
#MUSIC:You Are.ogg;
#OFFSET:1.605000;
#SAMPLESTART:64.956001;
#SAMPLELENGTH:20.000000;
#LASTBEATHINT:1.114400;
#SELECTABLE:YES;
#DISPLAYBPM:110.000000:113.000000;
#BPMS:0.000000=112.000000
,36.000000=111.000000
,44.000000=112.169998
,64.000000=111.629997
,68.000000=110.650002
,80.000000=111.349998
,92.000000=110.000000
,96.000000=112.500000
,100.000000=111.750000
,112.000000=113.000000
,124.000000=111.669998
,128.000000=110.870003
,136.000000=112.449997
,160.000000=111.644997
,180.000000=113.400002
,208.000000=112.894997
,212.000000=112.112000
,240.000000=112.764999
;
#STOPS:
;
#BGCHANGES:;
#KEYSOUNDS:;
#ATTACKS:;

//---------------dance-single - ----------------
#NOTES:
     dance-single:
     :
     Hard:
     12:
     0.429032,0.487933,0.218152,0.218152,0.149070,413.000000,383.000000,30.000000,30.000000,0.000000,0.000000,0.429032,0.487933,0.218152,0.218152,0.149070,413.000000,383.000000,30.000000,30.000000,0.000000,0.000000:
0000
0000
0000
0000
,
0000
0000
0000
0000
,
0000
0000
0000
0000
,
0000
0000
0000
0000
,
0000
0000
0000
0000
,
1000
0010
0100
0001
0000
0020
0000
0230
,
0000
0000
0000
0000
0000
0000
1300
0001
2000
0000
0000
0000
3010
0000
0100
0000
,
0010
1000
0001
0100
0000
0002
0000
2003
,
0000
0000
0000
0000
0000
0000
0100
0000
0000
0000
0000
0000
3100
0000
0000
0000
0000
0000
1000
0000
0000
0000
0010
0000
0000
0000
0100
0000
0000
0000
0001
0000
0000
1000
0000
0000
0001
0000
0000
0000
0000
0000
0100
0000
0000
0000
0000
0000
,
0110
1000
0001
0100
0000
0000
0010
1000
,
0100
0000
0000
0010
0000
0000
0001
0000
0000
0000
1000
0000
0002
0000
0000
0000
,
0023
0000
0130
1000
0010
0100
0001
0000
,
1001
0000
0100
0010
1000
0000
0001
0100
,
0001
0000
0000
0010
0000
0000
0100
0000
0000
0000
1000
0000
1000
0000
0001
0000
,
0000
0000
0010
0000
0001
0000
0100
0000
0000
0000
0000
0000
0010
1000
0010
0000
,
0100
0000
0000
0001
0000
0000
1000
0000
0000
0000
0002
0000
0010
0000
0000
0000
,
1003
0000
0100
0000
2000
0000
0000
0000
3001
0000
0100
0010
0100
0000
0001
0000
,
1000
0000
0000
1000
0000
0000
1000
0000
0001
0000
0000
0000
0020
0000
0000
0000
,
0130
1000
0001
1000
0000
0010
0100
0001
,
1000
0000
0100
0000
0001
0000
0000
0000
0010
0000
0000
0000
0001
1000
0001
0000
,
0100
0000
0000
0010
0000
0000
1000
0000
0000
0000
0001
0000
0001
0000
2000
0000
,
0000
0000
3100
0000
0010
0000
0002
0000
0000
0000
1003
0000
0001
0100
0001
0000
,
0010
0000
0100
0110
0000
1000
1000
0001
,
1002
0000
0000
0100
0000
0000
1000
0000
1000
0000
0000
0000
0103
0000
0001
0000
,
0012
0000
1000
2003
0000
3100
1000
0001
,
0100
0010
1000
0010
1000
0001
0100
0010
,
2010
0000
0001
3002
0000
0103
0010
1000
,
0100
0010
0001
0100
0001
0010
1000
0001
,
0201
0000
0010
0320
0000
1030
0100
0001
,
0010
0000
0000
0001
0000
0000
1000
0000
0000
0000
0000
0000
0010
0000
0100
0000
,
0110
0000
0000
0000
1001
0000
0100
0000
0001
0010
0001
0000
1000
0000
0010
0000
,
1001
0000
1010
0200
0001
0000
0310
1000
,
0100
0000
0011
0200
1000
0000
0301
0100
,
0000
0000
1000
0000
0000
0001
0000
0000
0100
0000
0010
0000
0100
0000
0001
0000
,
0001
0000
1000
0000
1000
0000
0001
0000
0100
0000
0100
0000
1000
0010
0100
0010
,
1000
0000
1100
0002
0010
0000
1003
0001
,
0100
0000
0110
2000
0100
0000
3001
1000
,
0000
0000
0010
0000
0000
0100
0000
0000
0001
0000
0000
0000
1000
0000
0001
0000
,
1000
0000
0100
0000
0001
0000
0100
0000
1000
0000
0010
0000
0100
0000
0001
1000
,
0001
0000
0000
0000
0010
0100
1000
0000
1000
0000
0000
0000
0101
0000
1000
0000
,
0000
0000
0010
0000
0000
0010
0100
0000
0001
0000
0000
0000
0011
0000
1000
0000
,
0100
0000
0010
0000
0000
0010
0001
0000
1000
0000
0000
0000
1001
0000
0100
0000
,
0010
0000
1000
0000
0100
0000
0001
0000
0100
0000
1000
0001
1000
0000
0010
0000
,
0110
0000
0000
0000
0001
0000
0100
0000
1000
0000
0000
0000
0010
0000
0100
0001
,
0100
0010
1000
0000
1001
1001
1001
0000
,
0110
0000
0001
0000
0001
0000
1000
0000
0100
0010
0100
0010
0000
0000
0001
0000
,
0001
0000
0100
0000
1000
0000
0010
0000
0100
0000
0002
0000
0000
0000
1003
0100
,
0010
0000
0100
0000
0100
0000
1000
0000
0001
0100
0001
0100
0010
0000
1000
0000
,
0100
0000
0010
0000
0001
0000
1000
0001
1000
0000
0010
0000
0100
0001
1000
0000
,
0100
0000
0010
0000
0010
0000
0001
0000
0100
0010
1000
0010
0000
0000
0100
0000
,
0001
0001
0001
0100
0010
2000
0100
0000
,
3001
0010
0001
0100
0010
1000
0200
0000
,
0310
0000
0000
0000
0011
0000
0000
0000
1100
0000
0000
0000
0001
0100
0001
0000
,
1001
0000
1010
0200
0001
0000
1300
0100
,
0001
0000
0011
2000
0001
0000
3010
1000
,
0000
0000
0100
0000
0000
0010
0000
0000
0100
0000
1000
0000
0001
0000
1000
0000
,
1000
0000
0001
0000
0001
0000
1000
0000
0010
0000
0010
0000
0100
0001
1000
0001
,
0100
0000
0110
2000
0001
0000
3100
0010
,
0001
0000
0101
0020
0100
0000
1030
0001
,
0010
0000
0100
0000
0000
0100
0000
0000
1000
0000
0000
0000
0001
0000
1000
0000
,
0010
0000
0001
0000
0010
0000
1000
0000
0010
0000
0100
0000
0001
1000
0100
0000
,
0110
0000
0000
0000
;

//---------------dance-single - ----------------
#NOTES:
     dance-single:
     :
     Medium:
     9:
     0.319956,0.377039,0.159978,0.305412,0.039994,308.000000,286.000000,22.000000,42.000000,0.000000,0.000000,0.319956,0.377039,0.159978,0.305412,0.039994,308.000000,286.000000,22.000000,42.000000,0.000000,0.000000:
0000
0000
0000
0000
,
0000
0000
0000
0000
,
0000
0000
0000
0000
,
0000
0000
0000
0000
,
0000
0000
0000
0000
,
1000
0010
0100
0001
0000
0020
0000
0230
,
0000
0000
0000
1000
2300
0000
3001
0000
,
0100
0010
1000
0001
0000
0020
0000
0230
,
0000
1000
1300
0000
0000
0001
0100
0010
,
1000
0100
0010
0001
0000
0000
0100
0000
,
0010
0000
0000
0010
0000
0000
0010
0000
0000
0000
0000
0000
2000
0000
0000
0000
,
3001
0000
1000
0100
0000
0010
0000
0000
,
0001
1000
0001
0000
0110
0000
0000
0100
,
0001
0000
0000
0001
0000
0000
0001
0000
0000
0000
1000
0000
0100
0000
2000
0000
,
0000
3020
0000
0230
0000
0000
0301
1000
,
0001
0000
0000
0010
0000
0000
0100
0000
0000
0000
2000
0000
0000
0000
0000
0000
,
3010
0100
0001
0000
1001
0000
0100
0010
,
1000
0000
0000
1000
0000
0000
1000
0000
0000
0000
0000
0000
0002
0000
0000
0000
,
0013
0000
0100
1000
0000
0020
0000
0000
,
0130
0001
1000
0000
1001
0000
0010
0100
,
0001
0000
0000
1000
0000
0000
0001
0000
0000
0000
0010
0000
0100
0000
2000
0000
,
0000
3002
0000
0203
0000
0000
0310
1000
,
0100
0000
0000
0110
0000
0010
0001
1000
,
0002
0000
0100
0000
1000
0000
0103
0001
,
2000
0000
0000
3020
0000
0130
0010
2000
,
0000
3001
0010
0001
0100
0010
1000
0000
,
0002
0000
0000
0023
0000
0130
1000
0002
,
0000
0013
0001
0100
0010
1000
0100
0000
,
2000
0000
0000
3002
0000
0013
0001
0100
,
0010
0000
0000
1000
0000
0000
1000
0000
0000
0000
0000
0000
0100
0000
0010
0000
,
0001
0101
1100
0101
,
1001
0000
0100
0020
0000
0000
1030
0001
,
0000
0000
0010
0200
0000
0000
1300
0001
,
0000
0000
0100
0000
0000
0100
0000
0000
0100
0000
0000
0000
0000
0000
0010
0000
,
1000
0010
1000
0001
1000
0100
0100
0000
,
0110
0000
0001
2000
0000
0000
3100
0010
,
0000
0000
0001
0200
0000
0000
0310
1000
,
0000
0000
0001
0000
0000
0001
0000
0000
0001
0000
0000
0000
0010
0000
0100
0000
,
1000
0001
1000
0001
1000
0100
0010
0001
,
0100
0000
0100
0001
1000
0000
0001
0001
,
0000
1010
0000
0001
1000
0000
0100
0100
,
0000
0000
0010
0000
0000
0010
0000
0000
0010
0000
0000
0000
0001
0000
2000
0000
,
0000
3001
0200
0000
0320
0000
1030
0001
,
0100
0000
0010
1000
0000
0000
0001
0010
,
0200
0000
1300
0000
1001
1001
1001
0000
,
0110
1000
0001
1000
0001
0000
0000
0100
,
0001
1000
0200
0000
0300
2100
0000
0001
,
3001
0100
0010
1000
0001
0000
1000
0200
,
0000
0000
0320
0000
0000
0031
1000
0100
,
0000
1000
0010
0100
0001
0000
0000
0010
,
0001
1000
0010
0100
0000
0102
0000
0000
,
1003
0010
0100
0001
0000
0010
0200
0000
,
1300
1100
0101
1100
,
1001
0000
0010
2000
0000
0000
3001
0100
,
0000
0000
0001
0020
0000
0000
0130
1000
,
0000
0000
0100
0000
0000
0100
0000
0000
0100
0000
0000
0000
0000
0000
1000
0000
,
0001
1000
0001
0100
0001
0010
0010
0000
,
0110
0000
1000
0200
0000
0000
0310
0001
,
0000
0000
0100
0020
0000
0000
1030
0001
,
0000
0000
1000
0000
0000
1000
0000
0000
1000
0000
0000
0000
0001
0000
0100
0000
,
0001
1000
0001
1000
0010
0100
0001
1000
,
0110
0000
0000
0000
;

//---------------dance-single - ----------------
#NOTES:
     dance-single:
     :
     Easy:
     5:
     0.191142,0.310503,0.116348,0.043630,0.000000,184.000000,168.000000,16.000000,6.000000,0.000000,0.000000,0.191142,0.310503,0.116348,0.043630,0.000000,184.000000,168.000000,16.000000,6.000000,0.000000,0.000000:
0000
0000
0000
0000
,
0000
0000
0000
0000
,
0000
0000
0000
0000
,
0000
0000
0000
0000
,
0000
0000
0000
0000
,
1000
0000
0001
0000
,
1000
0000
0100
0000
,
0010
0000
0001
0000
,
0100
0000
0010
1000
,
0001
0000
0010
0000
,
0001
0001
0001
0100
,
0010
0000
1000
0000
,
0100
0100
0100
0000
,
0010
0010
0010
0001
,
1000
0100
0100
0000
,
1000
1000
0010
0100
,
0001
0001
1000
0000
,
0010
1000
0010
0100
,
0001
0010
0001
0100
,
1000
1000
1000
0000
,
0001
0000
1000
0100
,
0010
0010
0010
0000
,
0001
0000
1000
0010
,
0200
0000
0000
0301
,
2000
0000
3001
0010
,
0001
0100
1000
0100
,
0020
0000
0130
1000
,
0010
1000
0001
0000
,
0200
0000
0310
0100
,
0001
0000
0000
0110
,
1001
0110
1001
0110
,
1001
0010
0000
0100
,
0000
0001
0000
1000
,
0000
0100
0010
0000
,
0001
0001
1000
1000
,
0000
0010
0000
1000
,
0000
0001
0000
0100
,
0000
0010
0100
0001
,
1000
1000
1000
0100
,
0110
0001
0001
1000
,
0000
0010
0010
0100
,
0000
0001
0010
0100
,
1000
0010
0010
0100
,
0002
0000
0000
0003
,
2000
3000
1001
0110
,
0100
0001
1000
0000
,
0010
0010
1000
0001
,
1000
0100
0100
0010
,
0001
0100
0000
1001
,
0000
0100
0001
0000
,
0010
0100
0000
1000
,
0001
0001
1000
1000
,
1001
0110
1001
0110
,
1001
1000
0000
0010
,
0000
0100
0000
0001
,
0000
0010
0100
0000
,
1000
1000
0001
0001
,
0000
0010
0000
0001
,
0000
0100
0000
1000
,
0000
0010
1000
0001
,
0100
0010
0100
0010
,
0110
0000
0000
0000
;

//---------------dance-single - ----------------
#NOTES:
     dance-single:
     :
     Beginner:
     2:
     0.104921,0.155251,0.058174,0.000000,0.000000,101.000000,93.000000,8.000000,0.000000,0.000000,0.000000,0.104921,0.155251,0.058174,0.000000,0.000000,101.000000,93.000000,8.000000,0.000000,0.000000,0.000000:
// measure 0
0000
0000
0000
0000
,  // measure 1
0000
0000
0000
0000
,  // measure 2
0000
0000
0000
0000
,  // measure 3
0000
0000
0000
0000
,  // measure 4
0000
0000
0000
0000
,  // measure 5
1000
0000
0000
0000
,  // measure 6
0001
0000
0100
0000
,  // measure 7
0001
0000
0000
0000
,  // measure 8
1000
0000
0000
0000
,  // measure 9
0010
0000
0100
0000
,  // measure 10
0001
0000
0000
0000
,  // measure 11
1000
0000
0100
0000
,  // measure 12
1000
0000
0001
0000
,  // measure 13
0000
0000
0000
0000
,  // measure 14
0010
0010
0010
0000
,  // measure 15
0001
0000
0000
0000
,  // measure 16
1000
0000
0001
0000
,  // measure 17
0100
0000
0000
0000
,  // measure 18
0010
0000
1000
0000
,  // measure 19
0100
0000
0010
0000
,  // measure 20
0000
0000
0000
0000
,  // measure 21
0001
0001
0001
0000
,  // measure 22
0100
0000
0000
0000
,  // measure 23
0010
0000
0000
0000
,  // measure 24
1000
0000
0000
0000
,  // measure 25
0001
0000
0001
0000
,  // measure 26
1000
0000
0000
0000
,  // measure 27
0100
0000
0100
0000
,  // measure 28
0010
0000
0000
0000
,  // measure 29
0001
0000
0000
0000
,  // measure 30
1000
0000
0001
0000
,  // measure 31
0000
0010
0000
0010
,  // measure 32
0000
0100
0000
0100
,  // measure 33
0000
0000
1001
0000
,  // measure 34
0100
0100
0100
0000
,  // measure 35
0000
0001
0000
0001
,  // measure 36
0000
1000
0000
1000
,  // measure 37
0000
0000
1001
0000
,  // measure 38
0010
0010
0010
0000
,  // measure 39
0110
0000
0000
0001
,  // measure 40
0000
0000
0000
1000
,  // measure 41
0000
0000
0000
0100
,  // measure 42
0000
0010
0010
0000
,  // measure 43
0001
0000
0000
0000
,  // measure 44
0110
0000
1001
0000
,  // measure 45
0000
1000
1000
0000
,  // measure 46
0010
0000
0000
0000
,  // measure 47
0000
0100
0100
0000
,  // measure 48
0001
0000
0000
0000
,  // measure 49
0000
0010
0010
0000
,  // measure 50
0100
0000
0000
0000
,  // measure 51
1000
0000
0001
0000
,  // measure 52
1000
0000
0100
0000
,  // measure 53
0000
1000
0000
1000
,  // measure 54
0000
0001
0000
0001
,  // measure 55
0000
0000
0110
0000
,  // measure 56
0010
0010
0010
0000
,  // measure 57
0000
0100
0000
0100
,  // measure 58
0000
0010
0000
0010
,  // measure 59
0000
0000
1001
0000
,  // measure 60
1000
1000
1000
0000
,  // measure 61
0110
0000
0000
0000
;
