#VERSION:0.83;
#TITLE:野球の遊び方 そしてその歴史 ~決定版~;
#SUBTITLE:;
#ARTIST:あさき大監督;
#TITLETRANSLIT:Yakyuu no asobikata soshite sono rekishi ~ketteiban~;
#SUBTITLETRANSLIT:;
#ARTISTTRANSLIT:Asaki dai kantoku;
#GENRE:;
#ORIGIN:;
#CREDIT:;
#BANNER:Yakyuu no asobikata soshite sono rekishi ~ketteiban~.png;
#BACKGROUND:Yakyuu no asobikata soshite sono rekishi ~ketteiban~-bg.png;
#PREVIEWVID:;
#JACKET:Yakyuu no asobikata soshite sono rekishi ~ketteiban~-jacket.png;
#CDIMAGE:;
#DISCIMAGE:;
#LYRICSPATH:;
#CDTITLE:;
#MUSIC:Yakyuu no asobikata soshite sono rekishi ~ketteiban~.ogg;
#OFFSET:0.000000;
#SAMPLESTART:76.575996;
#SAMPLELENGTH:20.000000;
#SELECTABLE:YES;
#DISPLAYBPM:141.000000;
#BPMS:0.000=141.000;
#STOPS:;
#DELAYS:;
#WARPS:;
#TIMESIGNATURES:0.000=4=4;
#TICKCOUNTS:0.000=4;
#COMBOS:0.000=1;
#SPEEDS:0.000=1.000=0.000=0;
#SCROLLS:0.000=1.000;
#FAKES:;
#LABELS:0.000=Song Start;
#BGCHANGES:;
#KEYSOUNDS:;
#ATTACKS:
;

//---------------dance-single - ----------------
#NOTEDATA:;
#CHARTNAME:;
#STEPSTYPE:dance-single;
#DESCRIPTION:;
#CHARTSTYLE:;
#DIFFICULTY:Beginner;
#METER:3;
#RADARVALUES:0.173596,0.228952,0.056333,0.016095,0.000000,151.000000,144.000000,7.000000,2.000000,0.000000,0.000000,0.000000,0.000000,0.000000,0.173596,0.228952,0.056333,0.016095,0.000000,151.000000,144.000000,7.000000,2.000000,0.000000,0.000000,0.000000,0.000000,0.000000;
#CREDIT:;
#DISPLAYBPM:141.000000;
#NOTES:
0000
0000
0000
0000
,
0000
0000
0000
0000
,
0000
0000
0000
0000
,
0000
0000
0000
0000
,
0000
0000
0000
0000
,
0000
0000
0000
0000
,
0000
0000
0000
0000
,
0000
0000
0000
0000
,
0000
0000
0000
0000
,
1000
0000
1000
0000
,
1000
1000
1000
0000
,
0001
0000
0001
0000
,
0001
0001
0001
0000
,
1000
0000
1000
0000
,
1000
1000
1000
0000
,
0001
0000
0001
0000
,
0001
0001
0001
0000
,
0100
0000
1000
0000
,
0100
0000
0100
0000
,
0100
0000
0001
0000
,
0100
0000
0010
0000
,
1000
0000
1000
0000
,
1000
1000
1000
0000
,
0001
0000
0001
0000
,
0001
0000
0000
0000
,
0100
0000
0100
0000
,
0100
0100
0100
0000
,
0010
0000
0010
0000
,
0010
0010
0010
0000
,
1000
0000
1000
0000
,
0001
0001
0001
0000
,
0100
0000
0100
0000
,
1000
0000
0000
0000
,
0001
0000
0001
0000
,
0100
0100
0100
0000
,
1000
0000
1000
0000
,
0010
0010
0010
0000
,
1000
0000
0100
0000
,
1000
0000
0000
0000
,
0001
0000
0100
0000
,
0001
0000
0000
0000
,
0100
0000
0100
0000
,
0010
0000
0010
0000
,
0001
0000
1000
0000
,
1001
0000
0000
0000
,
1000
1000
1000
0000
,
0010
0010
0010
0000
,
0001
0001
0001
0000
,
0010
0010
0010
0000
,
0100
0100
0100
0000
,
1000
1000
1000
0000
,
0100
0100
0100
0000
,
0001
0001
0001
0000
,
1000
0000
1001
0000
,
0001
0001
0001
0000
,
0001
0000
1001
0000
,
1000
1000
1000
0000
,
0100
0000
0110
0000
,
0010
0010
0010
0000
,
0001
0000
1001
0000
,
0010
0010
0010
0000
,
0200
0000
0000
0300
,
0001
0000
0100
0000
,
1000
0000
0100
0100
,
0100
0000
0001
0000
,
1000
0000
0010
0010
,
0010
0000
1001
0000
,
0100
0100
0100
0000
,
1000
0000
0001
0000
,
0100
0000
0100
0000
,
1001
0000
0010
0020
,
0000
0030
0000
0000
0000
0000
0000
0000
,
0000
0000
0000
0000
;

//---------------dance-single - ----------------
#NOTEDATA:;
#CHARTNAME:;
#STEPSTYPE:dance-single;
#DESCRIPTION:;
#CHARTSTYLE:;
#DIFFICULTY:Easy;
#METER:6;
#RADARVALUES:0.282813,0.400666,0.354091,0.144855,0.000000,246.000000,202.000000,44.000000,18.000000,0.000000,0.000000,0.000000,0.000000,0.000000,0.282813,0.400666,0.354091,0.144855,0.000000,246.000000,202.000000,44.000000,18.000000,0.000000,0.000000,0.000000,0.000000,0.000000;
#CREDIT:;
#DISPLAYBPM:141.000000;
#NOTES:
0000
0000
0000
0000
,
0000
0000
0000
0000
,
0000
0000
0000
0000
,
0000
0000
0000
0000
,
0000
0000
0000
0000
,
0000
0000
0000
0000
,
0000
0000
0000
0000
,
0000
0000
0000
0000
,
0000
0000
0000
0000
,
0100
0100
0010
0100
,
0001
0001
1001
0000
,
0010
0010
0100
0010
,
1000
0001
1001
0000
,
0100
0100
0001
0100
,
1000
1000
0110
0000
,
0001
0001
0010
0001
,
1000
0010
0100
0001
,
2000
0000
0100
3100
,
2000
0000
0001
3001
,
2000
0000
0010
3010
,
0110
0001
2002
3003
,
0010
1000
0010
0010
,
0100
0001
1001
0000
,
0100
0100
1000
0100
,
0002
0000
0000
0003
,
1000
1000
0010
1000
,
0001
0100
0110
0000
,
1000
0001
0010
0100
,
0001
1000
1001
0000
,
0100
0010
0100
0010
,
0001
0100
1000
0000
,
0001
0010
0001
0010
,
2000
0000
0000
3000
,
0100
0000
0000
0100
,
1000
1000
0001
0100
,
0010
1000
0001
0010
,
1000
0001
0100
0010
,
0002
1000
0000
1003
,
2000
0001
0000
3001
,
0200
0010
0000
0310
,
0020
0100
0000
0130
,
0220
0330
0100
0000
,
0001
0000
1000
0000
,
0001
0010
0001
0010
,
0100
1000
0001
0000
,
0110
1001
0100
0010
,
1001
1001
1001
0000
,
0100
0000
0010
0000
,
1001
1001
1001
0000
,
0100
0100
0010
0100
,
1000
0010
0100
0000
,
1001
0000
0110
0000
,
1001
1001
1001
0000
,
0001
0110
1000
0001
,
0110
0110
0110
0000
,
1000
0000
0001
0000
,
0110
0110
0110
0000
,
1000
1000
0100
0001
,
1000
0010
0001
0000
,
0110
0000
1001
0000
,
0110
0110
0110
0000
,
2002
0000
0000
3003
,
0100
0000
0100
0000
0001
0001
0001
0000
,
1000
0110
0001
1000
,
0010
0000
0100
0000
1000
1000
1000
0000
,
0002
0000
1003
0100
,
0001
1001
1000
1001
,
0100
0000
0110
0000
0010
0010
0010
0000
,
1000
0110
0001
0110
,
1001
0000
0010
0000
0100
0100
0100
0000
,
0220
0000
0000
0000
0000
0000
0000
0330
,
0000
1001
0000
0000
0000
0000
0000
0000
,
0000
0000
0000
0000
;

//---------------dance-single - ----------------
#NOTEDATA:;
#CHARTNAME:;
#STEPSTYPE:dance-single;
#DESCRIPTION:;
#CHARTSTYLE:;
#DIFFICULTY:Medium;
#METER:9;
#RADARVALUES:0.374784,0.486522,0.402376,0.160950,0.000000,326.000000,276.000000,50.000000,20.000000,0.000000,0.000000,0.000000,0.000000,0.000000,0.374784,0.486522,0.402376,0.160950,0.000000,326.000000,276.000000,50.000000,20.000000,0.000000,0.000000,0.000000,0.000000,0.000000;
#CREDIT:;
#DISPLAYBPM:141.000000;
#NOTES:
0000
0000
0000
0000
,
0000
0000
0000
0000
,
0000
0000
0000
0000
,
0000
0000
0000
0000
,
0000
0000
0000
0000
,
0000
0000
0000
0000
,
0000
0000
0000
0000
,
0000
0000
0000
0000
,
0000
0000
0000
0000
,
1010
0000
1010
0000
0010
0100
0010
0000
,
0101
0000
0101
0000
0100
0010
0100
0000
,
1001
0000
1001
0000
1000
0100
0010
0000
,
0001
0000
0001
0000
0010
0100
1000
0000
,
1100
0000
1100
0000
0100
0010
0100
0000
,
0011
0000
0011
0000
0010
0100
0010
0000
,
0001
1000
0100
0001
,
1000
0100
0010
0000
0001
0010
0100
0000
,
0102
0000
0010
0103
,
1000
0000
0001
0000
1000
0001
1000
0000
,
1010
0100
1010
0100
,
0010
0010
0100
0000
2002
0000
3003
0000
,
1000
0100
1010
0100
,
0010
1000
0010
0000
0100
0000
0001
0000
,
0010
0001
0101
1000
,
0002
0100
0100
0103
,
0100
1010
0000
0110
,
1000
0100
0010
1000
,
0001
0100
1000
0001
,
1001
0000
0110
0000
,
1010
0100
0001
1000
,
0001
0100
1000
0000
0100
0000
0010
0000
,
1100
0001
0010
1000
,
0022
0000
0000
0033
,
1001
0000
0000
0000
0000
0010
0100
0000
,
0001
0000
0100
0000
0010
0000
1000
0100
,
0001
0100
0010
1000
,
1001
0011
1010
0000
,
1200
0001
0000
0301
,
1200
0010
0000
0310
,
0201
1000
0000
1300
,
0201
0010
0000
0310
,
2000
0000
3010
0000
,
0200
0000
0310
0000
,
0001
0100
1000
0010
,
0001
1000
0100
0010
0002
0000
0003
0000
,
0011
0000
0011
0000
1000
0100
0001
0000
,
0101
0101
0110
0000
,
0010
0000
0100
0000
0001
1000
0001
0100
,
1000
0000
0100
0000
0001
0000
0100
0100
,
0010
1000
0100
0001
,
0010
1000
0010
1000
0001
0000
0100
0010
,
0010
0100
0001
1000
,
1020
0001
0130
0000
,
1100
0000
1100
0000
1100
0010
0100
0000
,
0011
0000
1000
0010
0001
0000
0000
0000
,
0101
0000
0010
0000
0101
0010
0100
0000
,
0001
0010
0100
0000
0011
0000
0100
0010
,
0010
1000
1100
0101
,
1000
0000
0010
0001
0100
0000
0010
0000
,
0001
0000
1000
0000
0001
0100
1000
0000
,
0200
0320
2030
3001
,
2002
0000
0000
3003
,
0001
0001
0010
0000
0001
0001
0100
0000
,
0001
0001
0010
0001
0010
0001
0100
0000
,
0010
0010
1000
0000
0010
0010
0100
0000
,
0010
0010
1000
0010
0100
0001
1000
0000
,
1000
1001
1000
0000
0010
1000
0001
0000
,
0100
0101
0100
0000
1000
0001
0010
0000
,
0100
1000
0001
0100
0010
1000
0100
0010
,
0100
0010
0001
0010
0001
0100
0010
1000
,
0002
0000
0000
0000
0100
0103
0010
1000
,
0000
1001
0000
0000
0000
0000
0000
0000
,
0000
0000
0000
0000
;

//---------------dance-single - ----------------
#NOTEDATA:;
#CHARTNAME:;
#STEPSTYPE:dance-single;
#DESCRIPTION:;
#CHARTSTYLE:;
#DIFFICULTY:Hard;
#METER:14;
#RADARVALUES:0.587468,0.811893,0.635754,0.168998,0.229354,511.000000,432.000000,79.000000,21.000000,0.000000,0.000000,0.000000,0.000000,0.000000,0.587468,0.811893,0.635754,0.168998,0.229354,511.000000,432.000000,79.000000,21.000000,0.000000,0.000000,0.000000,0.000000,0.000000;
#CREDIT:;
#DISPLAYBPM:141.000000;
#NOTES:
0000
0000
0000
0000
,
0000
0000
0000
0000
,
0000
0000
0000
0000
,
0000
0000
0000
0000
,
0000
0000
0000
0000
,
0000
0000
0000
0000
,
0000
0000
0000
0000
,
0000
0000
0000
0000
,
0000
0000
0000
0000
,
0101
0010
0100
0000
1100
0010
0100
0000
,
0101
0010
1100
0010
0100
0000
0010
0010
,
1100
0001
1000
0000
0011
1000
0001
0000
,
0101
1000
0110
0001
1010
0100
0010
0000
,
1010
0100
0010
0000
0011
0100
0010
0000
,
1010
0100
0011
0100
0010
0100
0100
0000
,
0011
1000
0001
0000
1100
0001
1000
0000
,
1010
0001
1100
0010
0101
1000
0011
0000
,
2001
0000
0000
0000
0100
0000
3100
0010
,
1002
0010
0100
0103
,
1000
0001
0010
0100
1000
0010
0100
0000
,
0010
0010
0100
0000
1100
2002
0000
3003
,
0100
0101
0100
0101
,
1000
0000
0010
0000
1000
0000
0001
0000
0100
0000
0001
1000
0001
0000
1000
0000
,
0100
1100
0100
1100
,
0012
0000
1000
0000
0100
0100
0103
0000
,
0010
1010
0010
1010
,
1100
0000
0000
0000
0010
0000
0001
0000
0100
0000
0001
0100
0001
0000
1000
0000
,
0001
0011
0100
0011
,
2001
0000
0000
0000
0000
0000
3010
0000
0100
0000
0010
0100
0010
0000
0000
0000
,
0011
0200
0010
0000
1300
0011
0200
0000
,
1300
0000
0001
0000
0100
0000
1000
0000
0100
0000
0010
0100
0010
0000
0100
0000
,
0101
0020
0100
0000
1030
0101
0020
0000
,
1030
0000
0001
0000
1000
0000
0001
0000
1000
0000
0001
1000
0001
0000
1000
0000
,
0010
0000
0110
0000
0011
0200
1000
0000
,
0310
0000
1001
0000
0100
0000
0001
0000
0010
0000
0100
1000
0100
0000
1000
0000
,
1010
0200
0010
0000
0301
1010
0200
0000
,
0301
0000
0010
0000
0100
0000
1000
0000
0010
0000
0100
0000
0001
0100
0001
0000
,
1000
0000
0001
1010
0100
0000
0001
0000
,
0000
0000
0010
1100
0001
0000
1000
0000
,
0000
0000
0010
0101
1000
0000
0010
0000
,
0000
0000
0100
0011
1000
0000
0001
0000
,
1000
1000
0001
0000
,
0100
0100
0001
0000
,
1000
0000
0010
0100
0010
1000
0010
1000
,
0001
0100
0001
0100
0001
0000
1000
0000
0100
0000
0010
0000
0001
0000
0000
0000
,
1100
0010
0001
0000
1100
0010
0001
0100
,
1100
0000
0010
0000
0101
0000
0010
0000
0100
0000
0000
0000
1001
0000
0100
0010
,
0100
0000
0001
0100
0110
1000
0100
0001
,
0110
0000
0001
0000
0100
0000
1000
0000
0110
0000
0000
0000
1000
0000
0001
1000
,
0001
0000
0100
0000
0010
1000
0001
0000
,
1010
0000
0010
0000
1000
0000
0100
0000
0010
0000
0000
0000
0001
0000
0100
0010
,
0100
0000
1000
0010
0110
0001
0010
1000
,
0110
1000
0010
0001
0220
0000
0330
0000
,
0011
0100
1000
0010
0011
0100
1000
0010
,
0011
0000
0100
0000
1000
0000
0100
0000
1001
0000
0010
0000
0100
0000
0001
1000
,
0001
0000
0011
1000
1100
0010
0001
0100
,
0101
0000
0010
0000
1000
0000
0100
0000
0110
0000
0000
0000
0001
0000
1000
0001
,
1000
0001
1000
0100
0001
0100
1000
0010
,
1000
0000
0100
0000
0001
0000
0100
0000
1000
0000
0001
0000
1000
0000
0100
0010
,
0100
0000
0010
1000
1100
0001
1000
0001
,
0011
0000
1010
0100
0011
0000
1010
0000
,
0202
0000
0000
0303
,
0001
1000
0001
1000
0001
1000
0001
1000
0001
0000
1010
0000
0100
0000
0001
0000
,
1000
0001
1000
0001
1000
0001
1000
0000
0010
0100
0000
0010
0100
0000
0001
0000
,
1000
0010
1000
0010
1000
0010
1000
0010
1000
0000
0101
0000
0010
0000
1000
0000
,
0001
0100
0001
0100
0001
0100
0001
0100
0001
0000
1000
0001
1000
0000
1001
0000
,
0000
0000
1000
0100
0010
0001
0000
0000
1000
0100
0010
0001
1000
0100
0010
0001
,
0000
0000
0001
0100
0010
1000
0000
0000
0001
0100
0010
1000
0001
0100
0010
1000
,
0001
0000
0000
0010
0000
0000
1000
0000
0000
0100
0000
0000
0001
0000
1001
0000
,
1000
0100
0000
0010
0100
0000
0001
0100
0000
1000
0001
0000
1000
0001
1000
0000
,
2002
0000
0000
0000
0000
0000
3003
0000
1000
0100
0010
0001
0100
0010
1000
0001
,
0000
0220
0000
0000
0000
0000
0000
0330
,
0000
0010
0000
0000
0000
0000
0000
0000
0000
0000
0000
0000
0000
0000
0000
0000
;

//---------------dance-double - ----------------
#NOTEDATA:;
#CHARTNAME:;
#STEPSTYPE:dance-double;
#DESCRIPTION:;
#CHARTSTYLE:;
#DIFFICULTY:Easy;
#METER:6;
#RADARVALUES:0.266718,0.372047,0.257520,0.120713,0.000000,232.000000,200.000000,32.000000,15.000000,0.000000,0.000000,0.000000,0.000000,0.000000,0.266718,0.372047,0.257520,0.120713,0.000000,232.000000,200.000000,32.000000,15.000000,0.000000,0.000000,0.000000,0.000000,0.000000;
#CREDIT:;
#DISPLAYBPM:141.000000;
#NOTES:
00000000
00000000
00000000
00000000
,
00000000
00000000
00000000
00000000
,
00000000
00000000
00000000
00000000
,
00000000
00000000
00000000
00000000
,
00000000
00000000
00000000
00000000
,
00000000
00000000
00000000
00000000
,
00000000
00000000
00000000
00000000
,
00000000
00000000
00000000
00000000
,
00000000
00000000
00000000
00000000
,
00001000
00010000
00001000
00010000
,
00001000
00010000
00001000
00100000
,
01000000
10000000
01000000
10000000
,
00100000
10000000
00100000
01000000
,
00010000
00100000
00010000
00100000
,
00001000
00010000
00001000
00010000
,
00000100
00001000
00000100
00001000
,
00000001
00000010
00000100
00001000
,
00002002
00000000
00003003
00000000
,
00000220
00000000
00000330
00000000
,
00000010
00000010
00000100
00000100
,
00001000
00010000
00022000
00033000
,
00010000
00001000
00010000
00001000
,
00010000
01000000
10000000
00000000
,
00100000
01000000
00100000
01000000
,
00020000
00000000
00000000
00030000
,
00001000
00010000
00001000
00010000
,
00001000
00000100
00000001
00000000
,
00000010
00000001
00000010
00000001
,
00000100
00000010
00000110
00000000
,
00000001
00001000
00000001
00001000
,
00000010
00001000
00010000
00000000
,
00001000
00010000
00001000
00010000
,
00200000
00000000
00000000
00300000
,
10000000
01000000
10000000
01000000
,
10000000
00100000
00010000
00000000
,
00001000
00010000
00001000
00010000
,
00022000
00000000
00033000
00000100
,
00000010
00000010
00000000
00000001
,
00000000
00001000
00000000
00000100
,
00001000
00010000
00000000
01000000
,
00000000
10000000
00000000
00100000
,
00020000
00000000
00031000
00000000
,
00000010
00000000
00000100
00000000
,
00000001
00000010
00000001
00000010
,
00000100
00000010
00001001
00000000
,
00000100
00001000
00000100
00000001
,
00000110
00001000
00010000
00000000
,
01000000
00010000
01000000
10000000
,
01100000
00010000
00001000
00000000
,
00000010
00000001
00000100
00001000
,
00000110
00001000
00010000
00000000
,
01100000
00000000
10010000
00000000
,
01100000
00010000
00001000
00000000
,
00011000
00000100
00000010
00000100
,
00000110
00001000
00010000
00000000
,
00011000
00000000
00010000
00100000
,
01100000
00010000
00001000
00000000
,
00011000
00000010
00000100
00000010
,
00000110
00001000
00010000
00000000
,
00011000
00000000
00010000
00100000
,
01100000
01100000
01100000
00000000
,
20020000
00000000
00000000
30030000
,
10000000
10000000
01000000
00010000
,
00001000
00011000
00000100
00000001
,
00000010
00000010
00001000
00001000
,
00010000
00011000
01000000
00100000
,
10000000
10010000
01000000
01100000
,
00010000
00011000
00000100
00000110
,
00000001
00000100
00001000
00000010
,
00000110
00001000
00010000
01000000
,
02200000
00000000
00000000
00000000
00000000
00000000
00000000
03300000
,
00000000
10010000
00000000
00000000
00000000
00000000
00000000
00000000
,
00000000
00000000
00000000
00000000
;

//---------------dance-double - ----------------
#NOTEDATA:;
#CHARTNAME:;
#STEPSTYPE:dance-double;
#DESCRIPTION:;
#CHARTSTYLE:;
#DIFFICULTY:Medium;
#METER:10;
#RADARVALUES:0.409273,0.486522,0.490898,0.152903,0.000000,356.000000,295.000000,61.000000,19.000000,0.000000,0.000000,0.000000,0.000000,0.000000,0.409273,0.486522,0.490898,0.152903,0.000000,356.000000,295.000000,61.000000,19.000000,0.000000,0.000000,0.000000,0.000000,0.000000;
#CREDIT:;
#DISPLAYBPM:141.000000;
#NOTES:
00000000
00000000
00000000
00000000
,
00000000
00000000
00000000
00000000
,
00000000
00000000
00000000
00000000
,
00000000
00000000
00000000
00000000
,
00000000
00000000
00000000
00000000
,
00000000
00000000
00000000
00000000
,
00000000
00000000
00000000
00000000
,
00000000
00000000
00000000
00000000
,
00000000
00000000
00000000
00000000
,
00000101
00000000
00000101
00000000
00000100
00000010
00001000
00000000
,
00001100
00000000
00001100
00000000
00000100
00010000
00001000
00000000
,
00011000
00000000
00011000
00000000
00010000
00001000
00100000
00000000
,
00110000
00000000
00110000
00000000
00100000
01000000
10000000
00000000
,
11000000
00000000
11000000
00000000
01000000
10000000
00010000
00000000
,
01010000
00000000
01010000
00000000
01000000
00001000
00010000
00000000
,
00010100
00000000
00010100
00000000
00000100
00001000
00000010
00000000
,
00000100
00000001
00000100
00000001
00001000
00000100
00001000
00000100
,
00020000
00000000
00001000
00031000
,
00010000
00000000
01000000
00000000
10000000
00010000
10000000
00000000
,
10100000
01000000
00110000
01000000
,
10000000
01000000
00010000
00000000
00022000
00000000
00033000
00000000
,
00000100
00001100
00000100
00010100
,
00000100
00001000
00000100
00010000
00000100
00000000
00000010
00000000
,
00000001
00000011
00000001
00001001
,
00000202
00000000
00000000
00000303
,
00000010
00001010
00000010
00010010
,
00000010
00001000
00000010
00010000
00000010
00000000
00001000
00000000
,
00010000
00011000
00010000
00010100
,
00011000
00000000
00010000
01000000
10000000
00000000
00000000
00000000
,
10010000
11000000
00010000
00011000
,
00001000
00000100
00000010
00000000
00000101
00000000
00000010
00000000
,
00001000
00011000
00100000
01010000
,
20020000
00000000
00000000
30030000
,
11000000
00000000
01010000
00000000
00001000
00010000
00001000
00000000
,
00000010
00000000
00000011
00000000
00000100
00000000
00001000
00010000
,
00001000
00011000
01000000
10000000
,
10100000
00010000
00011000
00000000
,
00000020
00010000
00000000
00000031
,
00000200
00000001
00000000
00010300
,
02000000
10000000
00000000
03010000
,
00200000
00010000
00000000
10300000
,
20020000
00000000
30030000
00000000
,
00022000
00000000
00033000
00000000
,
00001001
00000100
00000010
00001000
,
00000100
00001000
00000100
00010000
00002000
00000000
00003000
00000000
,
00011000
00100000
10010000
00100000
,
00011000
00000000
00010000
00001000
00000100
00000000
00000010
00000010
,
00000100
00000000
00000001
00000000
00001000
00000100
00001000
00000000
,
00000010
00000000
00000100
00000000
00001001
00000000
00000100
00000010
,
00000100
00001000
00010000
00001000
,
00100000
00001000
00100000
00001000
00010000
00000000
01000000
00100000
,
01000000
10000000
00100000
00010000
,
01100000
00000000
00100000
00010000
00001000
00000000
00000000
00000000
,
00011000
00000010
00001001
00000010
,
00000101
00000000
00001100
00000000
00001001
00000000
00000100
00000100
,
00000010
00000000
00000100
00000000
00000010
00001000
00000010
00001000
,
00000100
00010000
00001000
00010000
00001000
00000000
00100000
01000000
,
00100000
00110000
00101000
00011000
,
01001000
00000000
01000000
00010000
00100000
00000000
01000000
00100000
,
01000000
00000000
10000000
00000000
10000000
01000000
00010000
00000000
,
00010000
01000000
10000000
00000000
10000000
01000000
00010000
00000000
,
00022000
00000000
00000000
00033000
,
00010000
00001000
00010000
00001000
00000100
00001000
00000100
00001000
,
00000100
00000001
00000100
00000001
00000010
00000001
00000010
00000000
,
00000001
00000100
00000001
00000100
00001000
00010000
00001000
00010000
,
00100000
01000000
00100000
01000000
00010000
10000000
00010000
00000000
,
10000000
00100000
10100000
00000000
01000000
00010000
00100000
00001000
,
00010000
00001000
00011000
00000000
00010000
00000100
00001000
00000010
,
00000100
00000001
00000100
00000001
00001000
00000001
00001000
00000001
,
00000010
00000001
00000010
00000001
00001000
00000100
00001000
00000100
,
00000020
00000000
00000000
00000000
00000031
00000100
00001000
00010000
,
00000000
00011000
00000000
00000000
00000000
00000000
00000000
00000000
,
00000000
00000000
00000000
00000000
;

//---------------dance-double - ----------------
#NOTEDATA:;
#CHARTNAME:;
#STEPSTYPE:dance-double;
#DESCRIPTION:;
#CHARTSTYLE:;
#DIFFICULTY:Hard;
#METER:14;
#RADARVALUES:0.594366,0.724905,0.635754,0.168998,0.209235,517.000000,438.000000,79.000000,21.000000,0.000000,0.000000,0.000000,0.000000,0.000000,0.594366,0.724905,0.635754,0.168998,0.209235,517.000000,438.000000,79.000000,21.000000,0.000000,0.000000,0.000000,0.000000,0.000000;
#CREDIT:;
#DISPLAYBPM:141.000000;
#NOTES:
00000000
00000000
00000000
00000000
,
00000000
00000000
00000000
00000000
,
00000000
00000000
00000000
00000000
,
00000000
00000000
00000000
00000000
,
00000000
00000000
00000000
00000000
,
00000000
00000000
00000000
00000000
,
00000000
00000000
00000000
00000000
,
00000000
00000000
00000000
00000000
,
00000000
00000000
00000000
00000000
,
00011000
00000010
00000100
00000000
00000101
00000010
00001000
00000000
,
00011000
00000010
00000101
00000010
00001000
00000000
00000001
00000000
,
00001100
00000010
00000001
00000000
00000101
00000010
00001000
00000000
,
00001100
00000010
00000001
00001000
00000001
00000100
00001000
00000000
,
00011000
01000000
00100000
00000000
10100000
01000000
00010000
00000000
,
00011000
01000000
10100000
01000000
00010000
00000000
10000000
00000000
,
11000000
00100000
00010000
00000000
01010000
00100000
10000000
00000000
,
11000000
00100000
00001000
01000000
00100000
00010000
00001000
00000000
,
00010020
00000000
00000100
00000000
00001000
00000000
00010030
00000100
,
00002001
00000000
00000010
00000000
00000001
00000000
00003100
00000010
,
00000001
00000100
00001000
00000100
00000010
00010000
00001000
01000000
,
00010000
00100000
10000000
00000000
10010000
00200000
00000000
00000000
,
01300000
00000000
00000000
00000000
10010000
00000000
01000000
00000000
00010000
00000000
01000000
00100000
01000000
00000000
00100000
00000000
,
00010000
00000000
00001000
00000000
00010000
00000000
00000100
00000000
00000010
00000000
00000001
00001000
00000001
00000000
00000100
00000000
,
00000010
00000000
00000000
00000000
00001001
00000000
00000001
00000000
00000100
00000000
00000010
00000100
00000010
00000000
00000100
00000000
,
00002000
00000000
00010000
00000000
00010000
00000000
00013000
00010000
,
00010010
00000000
00000000
00000000
00001100
00000000
00000010
00000000
00000100
00000000
00000010
00000100
00000010
00000000
00000100
00000000
,
00001000
00000000
00000000
00000000
00010010
00000000
00001000
00000000
00010000
00000000
00001000
00010000
00001000
00000000
01000000
00000000
,
00100000
00000000
00000000
00000000
10010000
00000000
01000000
00000000
00100000
00000000
01000000
00100000
01000000
00000000
00100000
00000000
,
00010000
00000000
10000000
00010000
10000000
00000000
10010000
00000000
,
10100000
02000000
00100000
00000000
03010000
00101000
00120000
00000000
,
10030000
00000000
01000000
00000000
00010000
00000000
00001000
00000000
00010000
00000000
00001000
00010000
00001000
00000000
00010000
00000000
,
00010010
00002000
00000100
00000000
00003010
00000101
00000120
00000000
,
00001030
00000000
00000100
00000000
00001000
00000000
00000100
00000000
00000010
00000000
00000001
00000010
00000001
00000000
00000010
00000000
,
00000100
00000000
00001001
00000000
00001010
00000200
00000001
00000000
,
00000310
00000000
00001001
00000000
00000100
00000000
00001000
00000000
00010000
00000000
00001000
00010000
00001000
00000000
00100000
00000000
,
01010000
00200000
10000000
00000000
01300000
10010000
12000000
00000000
,
03100000
00000000
00010000
00000000
10000000
00000000
01000000
00000000
10000000
00000000
00100000
01000000
00100000
01000000
00100000
00000000
,
01000000
00000000
00010000
11000000
00100000
00000000
00010000
00000000
,
00000000
00000000
00001000
00000101
00000010
00000000
00001000
00000000
,
00000000
00000000
00010000
10100000
01000000
00000000
00010000
00000000
,
00000000
00000000
00001000
00000011
00000100
00000000
00001000
00000000
,
00020000
00000000
10000000
00000000
,
00032000
00000000
00000001
00000000
,
00013000
00000000
00001000
01000000
00010000
00100000
01000000
10000000
,
00010000
10000000
00010000
10000000
00010000
00000000
10000000
00000000
00100000
00000000
00010000
00000000
00001000
00000000
00000000
00000000
,
00010100
00000010
00001000
00000000
00001001
00000010
00000100
00001000
,
00010010
00000000
00001000
00000000
00000100
00000000
00000010
00000000
00001001
00000000
00000000
00000000
00000101
00000000
00000100
00000001
,
00000100
00000000
00000010
00000100
00000110
00001000
00010000
00001000
,
00011000
00000000
00010000
00000000
01000000
00000000
00100000
00000000
01100000
00000000
00000000
00000000
00010000
00000000
10000000
01000000
,
10000000
00000000
10010000
00000000
00100000
01000000
00010000
00000000
,
01001000
00000000
00010000
00000000
00001000
00000000
00000010
00000000
00000001
00000000
00000000
00000000
00001000
00000000
00000001
00000010
,
00000001
00000000
00000001
00000010
00000110
00001000
00000001
00001000
,
00001001
00000100
00001000
00010000
00022000
00000000
00033000
00000000
,
00101000
00010000
01000000
00001000
00110000
01000000
10000000
00010000
,
01001000
00000000
00010000
00000000
00101000
00000000
01000000
00000000
10010000
00000000
00000000
00000000
10100000
00000000
00100000
10000000
,
00100000
10000000
00010000
00100000
01100000
00010000
00001000
00010000
,
01100000
00010000
00001000
00010000
01100000
00000000
00010000
00001000
,
00010100
00001000
00000100
00000010
00001100
00000010
00000001
00000100
,
00001010
00000000
00010000
00000000
00001000
00000000
00000010
00000000
00000110
00000000
00000000
00000000
00001001
00000000
00000001
00001000
,
00000001
00000000
00000010
00000100
00000110
00001000
00010000
01000000
,
01100000
00010000
00001000
00000100
00000110
00000000
00010010
00000000
,
02002000
00000000
00000000
03003000
,
00010000
10000000
00010000
10000000
00010000
10000000
00010000
10000000
00010000
00000000
00100000
00000000
01000000
00000000
10000000
00000000
,
01010000
00000000
00100000
00000000
01010000
00000000
00001000
00000000
00010000
01000000
00000000
00001000
00010000
00000000
00000010
00000000
,
00001000
00000001
00001000
00000001
00001000
00000001
00001000
00000001
00001000
00000000
00000100
00000000
00000010
00000000
00000001
00000000
,
00001010
00000001
00001100
00000001
00001010
00010000
00001000
00000100
,
00000000
00000000
00000001
00000010
00000001
00000010
00000000
00000000
00000100
00001000
00000100
00001000
00000100
00010000
00000100
00010000
,
00000000
00000000
00001000
00100000
00001000
00100000
00000000
00000000
00010000
00100000
00010000
00100000
00010000
10000000
00010000
10000000
,
01000000
00000000
00000000
00010000
00000000
00000000
00001000
00000000
00000000
00000100
00000000
00000000
00000001
00000000
00001000
00000000
,
00000001
00000100
00000000
00000010
00001000
00000000
00000100
00010000
00000000
00001000
00100000
00000000
00010000
01000000
00010000
00000000
,
20200000
00000000
00000000
00000000
00000000
00000000
30300000
00000000
10000000
01000000
10000000
01000000
00100000
00010000
00100000
00010000
,
00000000
00202000
00000000
00000000
00000000
00000000
00000000
00303000
,
00000000
00010000
00000000
00000000
00000000
00000000
00000000
00000000
00000000
00000000
00000000
00000000
00000000
00000000
00000000
00000000
,
00000000
00000000
00000000
00000000
;

//---------------dance-single - ----------------
#NOTEDATA:;
#CHARTNAME:;
#STEPSTYPE:dance-single;
#DESCRIPTION:;
#CHARTSTYLE:;
#DIFFICULTY:Challenge;
#METER:17;
#RADARVALUES:0.878329,0.958534,0.281663,0.088523,0.973749,764.000000,729.000000,35.000000,11.000000,0.000000,0.000000,0.000000,0.000000,0.000000,0.878329,0.958534,0.281663,0.088523,0.973749,764.000000,729.000000,35.000000,11.000000,0.000000,0.000000,0.000000,0.000000,0.000000;
#CREDIT:;
#DISPLAYBPM:141.000000;
#NOTES:
// measure 0
0000
0000
0000
0000
,  // measure 1
0000
0000
0000
0000
,  // measure 2
0000
0000
0000
0000
,  // measure 3
0000
0000
0000
0000
,  // measure 4
0000
0000
0000
0000
,  // measure 5
0000
0000
0000
0000
,  // measure 6
0000
0000
0000
0000
,  // measure 7
0000
0000
0000
0000
,  // measure 8
0000
0000
0000
0000
,  // measure 9
1100
0000
0110
0000
0011
0000
0100
0000
0001
0000
1000
0010
1000
0000
0001
0000
,  // measure 10
0011
0000
0100
0000
1010
0000
0100
0000
0011
0000
1000
0001
1000
0000
0100
0000
,  // measure 11
0010
0000
0001
0100
0001
0000
1000
0100
1000
0000
0001
0100
0001
0000
0010
0000
,  // measure 12
0100
0000
1000
0000
0010
0100
0010
0000
1000
0000
0001
0100
0001
0000
1000
0000
,  // measure 13
0020
0000
1000
0000
0100
0000
1030
0000
0001
0000
0010
0100
0010
0000
0001
0000
,  // measure 14
2000
0000
0010
0000
0100
0000
3010
0000
0001
0000
1000
0100
1000
0000
0010
0000
,  // measure 15
0110
0000
0001
1000
0001
0000
0010
0000
1001
0000
0100
0010
0100
0000
0001
0000
,  // measure 16
1000
0000
0010
1000
0010
0100
0001
1000
0100
0000
1000
0010
0100
0001
1000
0001
,  // measure 17
0010
0000
0200
0000
2300
0000
3002
0000
0203
0000
0301
0010
0001
1000
0010
0100
,  // measure 18
0001
1000
0001
0000
1000
0001
1000
0000
0001
0100
0010
1000
0100
0010
0100
1000
,  // measure 19
0001
0100
0010
0100
0001
0010
0100
0010
0001
0000
1000
0000
0010
1000
0001
1000
,  // measure 20
0100
1000
0010
1000
0001
1000
0010
0001
0100
0010
0100
0001
1000
0001
0100
0010
,  // measure 21
1000
0000
0100
0000
0010
0000
0001
0100
0001
1000
0100
0000
0010
0000
0001
1000
,  // measure 22
0001
0000
0100
0010
0100
0000
0001
0000
1000
0000
0100
1000
0001
0000
0010
0000
,  // measure 23
0100
0000
1000
0000
0010
0000
1000
0000
0001
0000
0001
0010
0100
0000
1000
0000
,  // measure 24
1010
0000
1000
0001
0010
0100
0010
0001
1000
0010
0100
0010
1000
0001
0100
0000
,  // measure 25
1001
0000
0010
0100
0001
0000
1000
0000
0100
0000
1000
0010
1000
0000
0001
0000
,  // measure 26
0100
0000
0001
0010
0001
0000
1000
0010
1000
0000
0100
0010
0001
0000
1000
0000
,  // measure 27
0001
0000
0100
0010
0100
0000
0010
1000
0001
0000
1000
0100
0010
0000
0001
0000
,  // measure 28
0100
0000
0001
1000
0001
0000
0010
0000
0100
0000
1000
0010
1000
0000
0001
0000
,  // measure 29
0011
0000
0100
1000
0010
0000
1000
0001
1000
0000
0100
0010
0001
0000
0110
0000
,  // measure 30
1001
0000
0100
0001
1000
0000
0100
0000
0010
0000
0011
0000
0101
0000
1000
0000
,  // measure 31
0010
0000
1000
0001
0010
0000
0100
0010
0100
0000
1000
0001
1000
0000
0011
0000
,  // measure 32
0100
0001
0010
0001
1000
0010
1000
0100
1000
0001
0100
0010
1000
0000
0001
0000
,  // measure 33
0011
0000
0100
0001
0010
0000
0100
1000
0001
0000
0100
0010
1000
0000
0001
0000
,  // measure 34
1000
0000
0010
0100
0001
0000
0010
0100
1000
0001
1000
0010
0100
0000
0001
0010
,  // measure 35
0001
0000
0100
0001
0100
0000
0001
1000
0001
0000
0010
0100
1000
0000
0010
0100
,  // measure 36
0001
0000
1000
0000
0001
0000
0010
0000
0100
1000
0010
1000
0010
0100
0001
0100
,  // measure 37
0010
1000
1100
0001
0010
0100
1100
0010
,  // measure 38
0100
0001
0011
1000
0001
0100
1010
0001
,  // measure 39
0100
0010
1001
1000
0100
0010
1001
0001
,  // measure 40
0010
0100
0110
0001
1000
0010
0101
1000
,  // measure 41
1001
0000
0000
0000
0001
0000
0010
0000
0100
0000
1000
0001
1000
0010
0100
0001
,  // measure 42
1000
0000
0010
0100
0001
0000
0010
0100
1000
0000
0001
1000
0010
0000
0100
0000
,  // measure 43
0110
1000
0001
0010
1100
0010
0100
0001
,  // measure 44
1000
0010
0100
0010
1000
0100
0010
0100
1000
0000
0001
0010
0001
0100
0001
1000
,  // measure 45
0001
0000
0010
0001
1000
0000
0001
1000
0010
0000
0100
0001
0010
0000
1000
0000
,  // measure 46
1000
0000
0100
0010
0001
0000
0100
0001
1000
0000
0010
1000
0010
0000
0100
0001
,  // measure 47
1000
0000
0001
0000
0010
0000
0001
0000
0110
0000
1000
0001
0010
0000
0100
0000
,  // measure 48
2100
0000
0010
0000
3100
0000
1000
0001
0010
0000
0001
0100
0010
0000
1000
0001
,  // measure 49
1000
0000
0010
1000
0001
0000
0010
0100
1000
0000
0001
0100
0001
0000
0010
0000
,  // measure 50
2000
0000
0001
0000
3010
0000
0100
0000
1000
0010
0100
0001
0010
0000
0100
1000
,  // measure 51
0001
0000
0010
0000
0001
0000
0100
0000
1000
0000
0010
1000
0100
0000
0001
0000
,  // measure 52
1000
0010
0100
0010
1000
0000
0001
0000
0010
0001
0010
0100
1000
0001
0100
0010
,  // measure 53
1000
0000
0001
0010
0100
1000
0010
0100
0001
0000
1000
0010
0100
0010
1000
0000
,  // measure 54
0001
0000
0010
0100
0010
0001
0100
0010
1000
0000
0100
1000
0001
0100
0010
0000
,  // measure 55
1010
0000
0001
1000
0100
0010
0001
0000
0011
0000
0100
0001
1000
0010
0100
0000
,  // measure 56
0001
0010
0100
0010
0100
1000
0010
1000
0001
0000
0110
0000
1000
0001
0100
0010
,  // measure 57
1000
0000
0100
0010
0001
0000
0100
0010
0100
0000
0001
1000
0001
0000
0100
0000
,  // measure 58
0001
0010
0001
0100
0010
1000
0001
1000
0100
0000
0010
0100
0010
0001
1000
0100
,  // measure 59
0010
0001
0100
0001
1000
0100
0010
0100
1000
0000
0001
0100
0010
0100
0001
1000
,  // measure 60
0100
0010
0100
1000
0001
0000
0100
0010
0100
0001
1000
0001
0010
0100
1000
0001
,  // measure 61
0200
0000
0000
0000
0300
0000
0000
0000
1010
0000
0100
0001
1000
0000
0000
0000
,  // measure 62
0001
0010
1000
0100
0010
1000
0100
0001
1000
0001
0010
0001
1000
0100
0010
0100
,  // measure 63
1000
0010
0001
0100
0010
0001
0100
0001
1000
0100
0001
0010
0100
1000
0010
1000
,  // measure 64
0100
0001
1000
0001
0010
0001
0010
0001
0010
0100
1000
0100
1000
0100
1000
0010
,  // measure 65
0100
0010
1000
0100
1000
0100
0001
0010
0001
0100
0001
0010
1000
0010
1000
0001
,  // measure 66
0100
0000
0010
1000
0001
1000
0000
0100
0010
0001
0100
0001
1000
0010
1000
0100
,  // measure 67
0000
0000
0010
0001
1000
0010
0000
0100
0001
0010
0001
1000
0010
0100
0010
1000
,  // measure 68
0001
0100
0010
1000
0100
0010
1000
0001
0100
0001
0100
0001
0010
1000
0010
1000
,  // measure 69
0010
0001
1000
0001
0100
0001
0010
0100
1000
0100
0010
1000
0010
1000
0100
0001
,  // measure 70
0010
0000
0000
0000
0000
0000
0001
1000
0001
0100
0010
1000
0100
0010
0001
1000
,  // measure 71
0000
0220
0000
0000
0000
0000
0000
0300
,  // measure 72
0000
0100
0000
0130
0000
0000
0000
0000
0000
0000
0000
0000
0000
0000
0000
0000
;
