#VERSION:0.83;
#TITLE:Yakankou;
#SUBTITLE:;
#ARTIST:Des-ROW GUMI;
#TITLETRANSLIT:;
#SUBTITLETRANSLIT:;
#ARTISTTRANSLIT:;
#GENRE:;
#ORIGIN:;
#CREDIT:;
#BANNER:Yakankou-bn.png;
#BACKGROUND:Yakankou-bg.png;
#PREVIEWVID:;
#JACKET:Yakankou-jacket.png;
#CDIMAGE:;
#DISCIMAGE:;
#LYRICSPATH:;
#CDTITLE:;
#MUSIC:Yakankou.ogg;
#OFFSET:1.756000;
#SAMPLESTART:19.316999;
#SAMPLELENGTH:20.000000;
#SELECTABLE:YES;
#DISPLAYBPM:103.000000:205.000000;
#BPMS:0.000=102.500,
148.000=205.000;
#STOPS:;
#DELAYS:;
#WARPS:;
#TIMESIGNATURES:0.000=4=4;
#TICKCOUNTS:0.000=4;
#COMBOS:0.000=1;
#SPEEDS:0.000=1.000=0.000=0;
#SCROLLS:0.000=1.000;
#FAKES:;
#LABELS:0.000=Song Start;
#BGCHANGES:;
#KEYSOUNDS:;
#ATTACKS:
;

//---------------dance-single - ----------------
#NOTEDATA:;
#CHARTNAME:;
#STEPSTYPE:dance-single;
#DESCRIPTION:;
#CHARTSTYLE:;
#DIFFICULTY:Hard;
#METER:12;
#RADARVALUES:0.590263,0.665264,0.312731,0.018953,0.450143,436.000000,403.000000,33.000000,2.000000,0.000000,0.000000,0.000000,0.000000,0.000000,0.590263,0.665264,0.312731,0.018953,0.450143,436.000000,403.000000,33.000000,2.000000,0.000000,0.000000,0.000000,0.000000,0.000000;
#CREDIT:;
#DISPLAYBPM:103.000000:205.000000;
#NOTES:
0000
0000
0000
0000
,
0000
0000
0000
0000
,
0000
0000
0000
0000
,
0000
0000
0000
0010
1000
0000
1000
0000
0000
0000
0000
0010
0001
0000
0001
0000
,
0000
0000
0000
0100
1000
0000
1000
0000
0000
0000
0000
0100
0001
0000
0001
0000
,
0100
0000
0000
0010
1000
0000
1000
0000
0100
0000
0000
0010
0001
0000
0001
0000
,
0010
0000
0000
0100
1000
0000
1000
0000
0010
0000
0000
0100
0001
0000
0001
0000
,
1000
0000
0000
0001
0010
0000
0010
0000
0001
0000
0000
1000
0010
0000
0010
0000
,
1000
0000
0000
0001
0100
0000
0100
0000
0001
0000
0000
1000
0100
0000
0100
0000
,
0010
0000
0100
0000
0010
0000
0100
0000
1000
0000
0001
0100
0000
0001
0100
0000
,
0010
0000
1000
0001
1000
0000
0100
0000
0010
0000
0001
0100
0001
0000
0000
0000
,
0010
0000
0100
1000
0100
0000
0000
0000
0010
0000
0001
0100
0000
0001
0100
0000
,
0010
0000
1000
0000
0001
0000
1000
0000
0100
0000
0010
0001
0010
0000
0000
0000
,
0100
1000
0100
0000
1000
0001
1000
0000
0001
0010
0001
0000
0010
0100
0010
0000
,
0100
0000
0100
0000
0100
0000
0100
0000
1000
0001
1000
0000
0000
0000
0000
0000
,
0001
0010
0001
0000
1000
0100
1000
0000
0001
0100
0001
0000
1000
0010
1000
0000
,
0100
0010
0100
0000
0000
0000
1000
0001
1000
0000
0000
0000
0000
0000
0000
0000
,
0011
0000
0001
0100
0000
0100
0000
0000
1010
0000
1000
0100
0000
0100
0000
0000
,
1001
0000
0010
0100
0000
0100
0000
0100
0010
0000
0110
0000
0110
0000
0000
0000
,
1000
0010
0000
1000
0010
0000
0100
0001
0000
0100
0001
0000
0100
0010
0100
0010
,
0100
0000
0001
0000
0100
0010
0100
0010
0100
0000
0000
0000
0000
0000
0000
0000
,
0101
0000
0010
1000
0000
1000
0000
0000
1100
0000
0010
0001
0000
0001
0000
0000
,
1001
0000
0100
0010
0000
0010
0000
0010
0100
0000
0110
0000
0110
0000
0000
0000
,
1000
0100
0000
1000
0100
0000
0010
0001
0000
0010
0001
0000
1000
0001
1000
0000
,
0010
0100
0000
0010
0100
0000
0010
0100
0000
0000
0001
0000
0100
0000
1000
0000
,
1001
0000
0010
1000
1100
0100
0101
0000
,
0010
0000
0001
1000
0001
0000
0100
0000
0101
0000
0010
0000
1010
0000
0000
0000
,
0001
0000
0001
0000
0001
0100
0010
0000
1010
0000
1000
0000
1100
0000
0000
1000
,
0001
0000
0001
0000
1000
0000
1000
0010
0100
0000
0110
0000
0110
0000
0000
0000
,
0001
0100
0010
0000
1000
0100
0010
0000
0001
1000
0010
0000
1000
0001
0100
0000
,
0001
0010
0000
0001
0010
0100
1000
0001
0100
0000
1001
0000
1001
0000
0000
0000
,
0010
1000
0010
0000
0100
0001
0100
0000
0001
0010
0001
0000
1000
0100
1000
0000
,
0001
0000
0010
0100
1000
0000
0010
0100
0001
0000
0000
0000
0000
0000
0110
0000
,
1001
0000
1000
0100
0000
0010
0000
0001
1000
0000
0001
0100
0000
0010
0000
0000
,
1010
0000
1000
0001
0000
1000
0000
0100
0010
0000
0001
0100
0000
0010
0000
0000
,
0101
0000
0001
1000
0000
0010
0000
1000
0100
0000
0010
0001
0000
0100
0000
0000
,
0110
0000
1001
0000
0110
0000
1000
0001
0100
0000
0101
0000
1100
0000
0000
0000
,
0001
0100
0001
0100
1000
0100
1000
0100
,
0001
0100
1000
0100
0001
0100
0000
0000
,
0001
0010
0001
0010
1000
0010
1000
0010
,
0001
0010
1000
0010
0001
0000
0000
0000
,
1000
0100
1000
0100
0001
0100
0001
0100
,
1000
0100
0001
0100
1000
0100
0000
0000
,
0000
0000
0010
0001
0000
0001
0100
0000
,
0010
1000
0100
0000
1100
0000
0011
0000
,
1000
0010
1000
0010
0001
0010
0001
0010
,
1000
0010
0001
0010
1000
0010
0000
0000
,
1000
0100
1000
0100
0001
0100
0001
0100
,
1000
0100
0001
0100
1000
0000
0000
0000
,
0001
0010
0001
0010
1000
0010
1000
0010
,
0001
0010
1000
0010
0001
0010
0000
0000
,
0100
1000
0100
1000
0100
0001
0100
0001
,
0100
0010
0100
0010
0100
0010
0100
0010
,
2002
0000
0000
0000
,
3003
0000
0000
0000
;

//---------------dance-single - ----------------
#NOTEDATA:;
#CHARTNAME:;
#STEPSTYPE:dance-single;
#DESCRIPTION:;
#CHARTSTYLE:;
#DIFFICULTY:Medium;
#METER:10;
#RADARVALUES:0.414267,0.511742,0.189534,0.018953,0.132674,306.000000,286.000000,20.000000,2.000000,0.000000,0.000000,0.000000,0.000000,0.000000,0.414267,0.511742,0.189534,0.018953,0.132674,306.000000,286.000000,20.000000,2.000000,0.000000,0.000000,0.000000,0.000000,0.000000;
#CREDIT:;
#DISPLAYBPM:103.000000:205.000000;
#NOTES:
0000
0000
0000
0000
,
0000
0000
0000
0000
,
0000
0000
0000
0000
,
0000
0010
0000
0010
0000
0100
0000
0100
,
0000
1000
0000
0001
0000
1000
0000
0001
,
0000
1000
0100
0010
0000
0001
0000
0001
,
0000
0100
0010
1000
0000
0001
0000
0001
,
0000
1000
0100
1000
0000
0001
0100
0001
,
0000
0001
0010
0001
0000
1000
0010
1000
,
0010
0100
0010
0100
0010
1000
0001
0000
,
1000
0100
1000
0100
0010
0001
0100
0000
,
0100
0010
1000
0000
0100
0010
0001
0000
,
1000
0001
1000
0001
0010
0001
0100
0000
,
0001
0001
0010
0010
0100
0100
1000
1000
,
0010
0100
0010
0100
0010
0010
0000
0000
,
1000
1000
0100
0100
0010
0010
0001
0001
,
0100
0010
0000
1000
0001
0000
0000
0000
,
0011
0000
0000
0001
0000
0100
0000
0000
1010
0000
0000
1000
0000
0100
0000
0000
,
1001
0000
0000
0010
0000
0100
0000
0010
0100
0000
0000
0000
0000
0000
0000
0000
,
0001
0100
0001
0100
0010
1000
0010
1000
,
0100
0010
0100
1000
0001
0000
0000
0000
,
0101
0000
0000
0010
0000
1000
0000
0000
1100
0000
0000
0010
0000
0001
0000
0000
,
1001
0000
0000
0100
0000
0010
0000
0100
0010
0000
0000
0000
0000
0000
0000
0000
,
1000
0010
1000
0010
0100
0001
0100
0001
,
0010
0000
0000
0100
0000
0000
0010
0000
0000
0000
0001
0000
0100
0000
1000
0000
,
1001
0000
0010
1000
0010
0100
0001
0000
,
0010
0001
0010
0100
1000
0001
0100
0000
,
0010
0000
1000
0000
0010
0000
1000
0000
0001
0000
1000
0000
0100
0000
0000
0010
,
0001
0100
0001
0100
0010
1000
1000
0000
,
1100
0001
0100
0010
0100
0001
1000
0100
,
0010
0000
0010
0001
1000
0000
0000
0000
,
0100
0100
0010
0010
0100
0000
1000
0001
,
0100
0010
0100
0001
0100
0000
0000
0110
,
1001
0000
0000
0010
0000
1000
0000
0000
0100
0000
0000
0010
0000
0001
0000
0000
,
1000
0000
0000
0001
0000
0010
0000
0000
0001
0000
0000
0100
0000
0010
0000
0000
,
1000
0000
0000
0100
0000
0100
0000
0000
0001
0000
0000
0010
0000
0010
0000
0000
,
0011
1100
0011
1100
0001
1001
0110
0000
,
1000
0010
1000
0001
,
1000
0100
1000
0100
1000
0100
0000
0000
,
0010
0001
0100
0001
,
1000
0001
0100
0001
0010
0000
0000
0000
,
0001
0100
0001
1000
,
0001
0010
0001
0010
0001
0010
0000
0000
,
0000
0000
0101
0000
0000
1010
0000
0000
,
1100
0001
0001
0001
,
1000
0100
1000
0001
,
1000
0010
1000
0010
1000
0010
0000
0000
,
0100
1000
0010
1000
,
0001
1000
0010
1000
0100
0000
0000
0000
,
0001
0010
0001
1000
,
0001
0100
0001
0100
0001
0100
0000
0000
,
0010
0010
0100
0100
,
0001
1000
0001
1000
0001
1000
0001
0000
,
2002
0000
0000
0000
,
3003
0000
0000
0000
;

//---------------dance-single - ----------------
#NOTEDATA:;
#CHARTNAME:;
#STEPSTYPE:dance-single;
#DESCRIPTION:;
#CHARTSTYLE:;
#DIFFICULTY:Easy;
#METER:7;
#RADARVALUES:0.282947,0.383806,0.199011,0.018953,0.000000,209.000000,188.000000,21.000000,2.000000,0.000000,0.000000,0.000000,0.000000,0.000000,0.282947,0.383806,0.199011,0.018953,0.000000,209.000000,188.000000,21.000000,2.000000,0.000000,0.000000,0.000000,0.000000,0.000000;
#CREDIT:;
#DISPLAYBPM:103.000000:205.000000;
#NOTES:
0000
0000
0000
0000
,
0000
0000
0000
0000
,
0000
0000
0000
0000
,
0000
0010
0000
1000
,
0000
0001
0000
0100
,
0000
0000
0001
0001
0000
0000
0010
0010
,
0000
0000
0100
0100
0000
0000
1000
1000
,
0000
0000
0010
0010
0000
0000
0100
0100
,
0000
0000
0001
0001
0000
0000
1000
1000
,
0001
0010
0001
0100
,
0010
0000
1000
0000
0100
0010
0001
0000
,
1001
0000
0110
0000
,
1000
0000
0010
0000
1000
0001
0100
0000
,
0001
0010
0001
0100
,
0010
0000
1000
0000
0100
0100
0000
0000
,
0010
0001
0100
0010
,
1000
0001
0000
1000
0001
0000
0000
0000
,
0011
0100
1010
0100
,
1001
0100
0110
0000
,
1000
1000
0001
0001
,
0010
0001
0100
0000
,
0101
0010
1100
0010
,
1001
0100
0110
0000
,
0100
0010
0001
0100
,
0010
1000
0001
0000
,
1001
0000
0100
0000
0010
1000
0100
0000
,
0010
0000
0001
0000
0100
0001
0010
0000
,
0100
1000
0001
0000
0100
0001
1000
0000
,
1100
0110
0011
0000
,
0001
0100
0001
0000
1000
0100
1000
0000
,
0010
0010
0010
0000
,
0100
0001
1000
0100
,
1000
0000
0010
0100
0001
0000
0000
0000
,
0011
1000
1100
0001
,
0101
0010
1010
0100
,
0110
1000
1001
0001
,
0100
0000
0100
0010
1000
0001
0001
0000
,
0010
0001
0010
0001
,
0100
0100
0100
0000
,
0001
1000
0001
1000
,
0010
0010
0010
0000
,
1000
0100
1000
0100
,
0010
0010
0010
0000
,
0000
0000
0001
0000
0000
1000
0000
0000
,
0001
0000
0000
0000
,
0100
0010
0100
0010
,
1000
1000
1000
0000
,
0100
1000
0100
1000
,
0001
0001
0001
0000
,
0010
0001
0010
0100
,
0010
0001
0001
0000
,
0010
0010
0100
0100
,
1000
0001
1000
0001
,
2002
0000
0000
0000
,
3003
0000
0000
0000
;

//---------------dance-single - ----------------
#NOTEDATA:;
#CHARTNAME:;
#STEPSTYPE:dance-single;
#DESCRIPTION:;
#CHARTSTYLE:;
#DIFFICULTY:Beginner;
#METER:4;
#RADARVALUES:0.140797,0.200906,0.056860,0.000000,0.000000,104.000000,98.000000,6.000000,0.000000,0.000000,0.000000,0.000000,0.000000,0.000000,0.140797,0.200906,0.056860,0.000000,0.000000,104.000000,98.000000,6.000000,0.000000,0.000000,0.000000,0.000000,0.000000,0.000000;
#CREDIT:;
#DISPLAYBPM:103.000000:205.000000;
#NOTES:
0000
0000
0000
0000
,
0000
0000
0000
0000
,
0000
0000
0000
0000
,
0000
0000
0000
0000
,
0000
0000
0000
0000
,
0010
0000
0000
0000
,
0001
0000
0000
0000
,
1000
0000
0000
0000
,
0100
0000
0000
0000
,
1000
0000
0001
0000
,
1000
0000
0010
0000
,
0100
0000
0100
0000
,
0001
0000
1000
0000
,
0001
0000
0010
0000
,
0001
0001
0001
0000
,
0100
0000
0010
0000
,
1000
0000
0001
0000
,
1000
0000
1000
0000
,
0001
0000
0001
0000
,
0010
0000
0100
0000
,
1000
1000
1000
0000
,
0010
0000
0010
0000
,
0100
0000
0100
0000
,
0001
0000
1000
0000
,
0001
0001
0001
0000
,
1001
0000
0100
0000
,
0010
0010
0010
0000
,
1000
1000
1000
0000
,
0001
0000
0100
0000
,
0001
0001
0001
0001
,
0001
0000
1000
0000
,
0010
0010
0010
0010
,
0010
0000
0100
0000
,
0110
0000
0000
0000
,
1001
0000
0000
0000
,
0110
0000
0000
0000
,
0100
0100
0100
0000
,
0001
0000
0001
0000
,
0001
0000
0001
0000
,
1000
0000
1000
0000
,
1000
0000
1000
0000
,
0010
0000
0010
0000
,
0100
0000
0100
0000
,
0010
0000
0000
0000
,
0110
0000
0000
0000
,
1000
0000
1000
0000
,
1000
0000
1000
0000
,
0001
0000
0001
0000
,
0001
0000
0001
0000
,
0100
0000
0100
0000
,
0010
0000
0010
0000
,
0100
0000
0010
0000
,
0100
0000
0010
0000
,
1001
0000
0000
0000
;

//---------------dance-single - ----------------
#NOTEDATA:;
#CHARTNAME:;
#STEPSTYPE:dance-single;
#DESCRIPTION:;
#CHARTSTYLE:;
#DIFFICULTY:Challenge;
#METER:15;
#RADARVALUES:0.817704,0.946722,0.511742,0.018953,0.810258,604.000000,550.000000,54.000000,2.000000,0.000000,0.000000,0.000000,0.000000,0.000000,0.817704,0.946722,0.511742,0.018953,0.810258,604.000000,550.000000,54.000000,2.000000,0.000000,0.000000,0.000000,0.000000,0.000000;
#CREDIT:;
#DISPLAYBPM:103.000000:205.000000;
#NOTES:
// measure 0
0000
0000
0000
0000
,  // measure 1
0000
0000
0000
0000
,  // measure 2
0000
0000
0000
0000
,  // measure 3
0010
0000
1000
0100
1000
0000
1000
0000
0010
0000
0001
0100
0001
0000
0001
0000
,  // measure 4
0100
0000
0001
0010
0001
0000
0001
0000
0100
0000
1000
0010
1000
0000
1000
0000
,  // measure 5
0001
0000
1000
0010
0100
0000
0100
0000
0010
0000
1000
0001
0100
0000
0100
0000
,  // measure 6
0010
0000
0100
0001
1000
0000
1000
0000
0100
0000
1000
0001
0010
0000
0010
0000
,  // measure 7
0100
0000
0010
0001
0100
0000
0100
0000
0010
0000
1000
0001
0100
0000
0100
0000
,  // measure 8
0001
0000
1000
0001
0010
0000
0010
0000
0100
0000
1000
0001
0100
0000
0100
0000
,  // measure 9
0010
0000
0110
0000
0010
0000
0110
0000
1000
0000
0001
0010
0000
0001
0010
0100
,  // measure 10
1000
0000
0001
0010
0001
0100
0010
1000
0100
0000
1000
0001
0100
0000
0010
0000
,  // measure 11
1010
0000
0001
0100
0010
0000
1000
0000
0101
0000
0010
1000
0000
0100
1000
0001
,  // measure 12
0010
0000
1001
0000
0010
0000
1001
0000
0100
0000
0001
0010
1000
0000
0100
0000
,  // measure 13
1000
0010
0100
0010
0001
0010
0100
0010
1000
0010
0100
0010
0001
0010
0100
0010
,  // measure 14
1000
0000
1000
0100
0001
0100
0010
0100
1000
1000
1000
0010
0100
0000
0001
0000
,  // measure 15
0001
0010
0100
0010
1000
0010
0100
0010
0001
0010
0100
0010
1000
0010
0100
0010
,  // measure 16
0001
0100
1000
0100
0001
0000
0001
0010
1000
0000
1100
0000
0101
0000
1100
0000
,  // measure 17
0011
0000
0100
0010
0100
0001
0010
0100
1000
0010
1000
0001
1000
0010
0100
0001
,  // measure 18
0010
0000
0100
1000
0010
1000
0100
0010
0001
0000
0110
0000
0110
0000
0000
0000
,  // measure 19
1000
1000
0000
0001
0001
0000
0100
0100
0000
0010
0010
0000
1000
0010
0100
0001
,  // measure 20
0010
0100
0010
0001
0010
0100
0010
0100
1000
0001
0000
1000
0001
0000
1001
0000
,  // measure 21
0101
0000
0010
1000
0010
0100
0010
1000
0100
0010
0001
0100
0001
0010
0100
1000
,  // measure 22
0010
0000
0100
0010
0100
0001
0010
0100
1000
0000
0110
0000
0110
0000
0000
0000
,  // measure 23
0001
0001
0000
1000
1000
0000
0010
0010
0000
0100
0100
0000
0001
0010
0100
1000
,  // measure 24
0010
0000
0100
0000
0001
0000
1000
0000
0100
0000
0010
0000
0001
0000
1000
0010
1000
0000
0001
0010
0001
0000
1000
0100
1000
0000
0001
0000
0100
0000
0010
0000
,  // measure 25
1001
0000
0100
0010
1010
0000
0101
0000
0011
0000
0010
0100
1100
0000
0000
0001
,  // measure 26
0001
0000
0100
0010
1000
0000
0001
0000
0011
0000
0110
0000
1100
0000
0000
0000
,  // measure 27
0001
0000
0000
0000
0001
0000
0000
0000
1000
0000
0100
0000
0010
0000
0001
0000
0100
0000
0000
0000
0100
0000
0010
0000
1000
0000
0000
0000
0000
0000
0001
0100
,  // measure 28
0001
1000
0100
0000
1000
0010
0001
0100
1000
0000
1100
0000
0101
0000
0000
0000
,  // measure 29
0110
1000
0001
0000
0100
0010
0100
0001
0010
0100
1000
0000
0001
1000
0010
0100
,  // measure 30
0001
0000
0001
0000
0000
0000
1000
0100
1000
0000
0001
0100
0001
0000
0010
0000
0100
0000
0000
0000
1000
0000
0001
0000
0110
0000
0000
0000
0000
0000
0000
0000
,  // measure 31
0001
0100
1000
0000
0010
1000
0100
0000
0010
0001
0100
0000
0001
0010
0100
1000
,  // measure 32
0001
0000
0000
0000
0100
0000
0010
1000
0010
0000
0100
0000
0001
0000
0010
0000
1000
0000
0100
0000
0001
0000
0100
0000
0010
0000
0100
0000
1000
0000
0001
0000
,  // measure 33
0011
0000
0000
0000
1010
0000
0001
0100
0001
0000
0010
0000
0100
0000
1000
0000
0010
0000
0001
0000
0010
0000
1000
0000
0100
0000
0010
0000
0001
0000
0000
0000
,  // measure 34
1100
0000
0101
0010
1000
0001
1000
0100
0010
0001
0100
0001
1000
0100
0010
0000
,  // measure 35
0001
0000
0100
0000
0001
1000
0001
0000
0010
0000
0100
0000
1000
0000
0010
0000
0001
0000
0010
0000
1000
0000
0001
0000
1000
0000
0100
0000
0010
0000
0001
0000
,  // measure 36
0100
0000
0010
0000
0100
0000
1000
0000
0100
0000
0001
0000
0010
0000
0100
1000
0001
0000
0100
0000
0010
0000
1000
0001
0010
0000
0100
0000
1000
0000
0001
0000
,  // measure 37
0100
0100
0010
0010
1000
1000
0001
0001
,  // measure 38
0011
0001
0101
0001
1001
0001
0100
0000
,  // measure 39
0010
0010
1000
1000
0001
0001
0100
0100
,  // measure 40
0110
0010
1010
1000
1100
0001
0100
0000
,  // measure 41
0001
0001
0010
0010
0100
0100
1000
1000
,  // measure 42
1100
1000
1010
1000
1001
1000
0010
0000
,  // measure 43
0100
0001
0011
0010
0100
1100
1000
0001
,  // measure 44
1001
0000
0001
0100
0010
0000
1000
0000
0010
0000
1000
0000
0100
0000
0000
0000
,  // measure 45
1000
1000
0010
0010
0100
0100
0001
0001
,  // measure 46
0011
0010
0110
0100
1100
1000
0001
0000
,  // measure 47
1000
1000
0001
0001
0100
0100
0010
0010
,  // measure 48
1010
1000
1001
0001
0101
0010
1000
0000
,  // measure 49
0100
0100
0010
0010
0001
0001
1000
1000
,  // measure 50
1010
0010
0110
0100
0101
0001
1000
0000
,  // measure 51
0001
0000
0010
0100
1000
0000
0001
0000
1000
0000
0010
0000
0100
0000
0001
0000
,  // measure 52
0010
0000
0100
0000
1000
0010
1000
0000
0001
0000
0100
0000
0010
1000
0001
0000
,  // measure 53
2002
0000
0000
0000
,  // measure 54
3003
0000
0000
0000
;
