#TITLE:Yakankou sappou;
#SUBTITLE:;
#ARTIST:Otakki Suzuki;
#TITLETRANSLIT:;
#SUBTITLETRANSLIT:;
#ARTISTTRANSLIT:;
#GENRE:;
#CREDIT:;
#BANNER:Yakankou sappou-bn.png;
#BACKGROUND:Yakankou sappou-bg.png;
#LYRICSPATH:;
#CDTITLE:;
#MUSIC:Yakankou sappou.ogg;
#OFFSET:1.900000;
#SAMPLESTART:48.075001;
#SAMPLELENGTH:20.000000;
#LASTBEATHINT:1.784000;
#SELECTABLE:YES;
#DISPLAYBPM:120.000000;
#BPMS:0.000000=120.000000
;
#STOPS:
;
#BGCHANGES:;
#KEYSOUNDS:;
#ATTACKS:;

//---------------dance-single - ----------------
#NOTES:
     dance-single:
     :
     Hard:
     11:
     0.473470,0.658924,0.342539,0.175898,0.425859,358.000000,321.000000,37.000000,19.000000,0.000000,0.000000,0.473470,0.658924,0.342539,0.175898,0.425859,358.000000,321.000000,37.000000,19.000000,0.000000,0.000000:
0000
0000
0000
0000
,
0000
0000
0000
0000
,
0000
0000
0000
0000
,
0000
0000
0000
0000
,
0000
0000
0000
0000
,
1000
0002
0000
0000
0000
0000
0010
0000
0000
0000
0203
0000
0000
0000
0000
0000
,
0000
1000
1000
0000
0001
0301
0000
0000
,
0220
0000
0300
0001
0000
1030
0000
0000
,
1010
0000
1010
0000
1010
0000
1010
0000
1000
0001
1000
0001
1000
0000
0000
0000
,
0001
0000
1000
0000
0000
0100
0000
0000
1000
0000
0000
0010
0000
0000
0100
0000
,
0010
0000
1000
0000
0000
0001
0000
0000
1000
0000
0000
0100
0000
0000
0010
0000
,
0001
0000
0100
0000
0000
0010
0000
0000
1000
0000
0000
0100
0000
0000
1000
0000
,
0001
0000
1000
0000
0000
0100
0000
0000
0010
0000
0000
0001
0000
0000
0100
0000
,
0010
0000
1000
0000
0000
0001
0000
0000
1001
0000
0000
0100
0000
0000
0010
0000
,
0100
0000
0001
0000
0000
0010
0000
0000
0001
0000
0000
1000
0000
0000
0100
0000
,
0010
0000
0001
0000
0000
0100
0000
0000
1001
0000
0000
1000
0000
0000
0010
0000
,
1000
0000
0001
0000
0000
0010
0000
0000
0100
0000
0000
1000
0000
0000
0001
0000
,
0200
0000
0010
0000
0000
1000
0000
0000
0010
0000
0000
1000
0000
0000
0001
0000
,
0301
0000
0100
0000
0000
0010
0000
0000
0100
0000
0000
0001
0000
0000
1000
0000
,
0002
0000
0010
0000
0000
0100
0000
0000
1000
0000
0000
0100
0000
0000
1000
0000
,
1003
0000
0001
0000
0000
0010
0000
0000
0001
0000
0000
0100
0000
0000
0010
0000
,
2000
0000
0100
0000
0000
0001
0000
0000
0100
0000
0000
0010
0000
0000
0001
0000
,
3001
0000
1000
0000
0000
0100
0000
0000
0010
0000
0000
0100
0000
0000
1000
0000
,
0002
0000
0010
0000
0000
1000
0000
0000
0100
0000
0000
1000
0000
0000
0013
0000
,
0011
0000
0011
0000
0011
0000
0011
0000
0001
1000
0001
1000
0001
1000
0001
1000
,
0001
0000
0100
0000
0010
0000
1000
0000
0100
0010
0100
0000
0000
0000
1000
0001
,
1000
0010
0101
0000
1000
0010
0101
0000
,
0001
0000
0010
0000
0001
0000
1000
0000
0010
0100
0010
0000
0000
0000
0100
0001
,
0100
0010
1010
0000
0100
0010
1010
0000
,
0001
0000
1000
0100
0000
0100
0000
0010
0000
0000
0001
0000
1001
0000
0000
0000
,
0100
0020
0000
0000
0000
0000
1030
0001
0000
0000
0100
0000
0110
0000
0000
0000
,
0010
0000
1000
0001
0000
0001
0000
0100
0000
0000
0010
0000
0110
0000
0000
0000
,
2000
0001
0000
0000
0000
0000
3010
1000
0000
0010
0100
0000
0110
0000
0000
0000
,
0001
0000
0010
0000
0100
0000
1000
0000
0010
0100
0010
0000
0000
0000
1000
0001
,
1000
0100
0011
0000
1000
0100
0011
0000
,
0100
0000
0001
0000
0010
0000
0001
0000
1000
0010
1000
0000
0000
0000
0001
0100
,
0001
1000
1100
0000
0001
1000
1100
0000
,
0010
0000
0001
0100
0000
0100
0000
0010
0000
0000
1000
0000
0110
0000
0000
0000
,
0100
0002
0000
0000
0000
0000
1003
0001
0000
1000
0010
0000
0110
0000
0000
0000
,
0100
0000
0001
0010
0000
0010
0000
0100
0000
0000
1000
0000
1100
0000
0000
0000
,
0002
1000
0000
0000
0000
0000
0013
0000
0001
0100
0001
0100
0001
0100
0001
0100
,
0002
0000
0010
0000
0000
1000
0000
0000
0100
0000
0000
0010
0000
0000
1003
0000
,
1001
0000
1001
0000
0000
1010
0000
0000
0101
0000
0000
0011
0000
0000
1100
0000
,
1000
0000
0001
0000
0000
1000
0000
0000
0020
0000
0000
0130
0000
0000
0001
0000
,
0011
0000
0100
0000
0000
1000
0000
0000
0010
0000
1000
0001
0000
0100
0000
0000
,
0110
0000
1000
0000
0000
0001
0000
0000
2000
0000
0000
3100
0000
0000
0010
0000
,
0011
0000
0100
0000
0000
1000
0000
0000
0010
0000
1000
0001
0000
0100
0000
0000
,
0001
0000
1000
0000
0010
0000
1000
0000
0100
0010
0100
0000
0000
0000
0000
0000
,
1000
0000
0010
0000
1000
0000
0001
0000
0100
0010
0100
0000
0000
0000
0000
0000
,
0001
0000
0010
0000
0100
0000
1000
0000
0010
0100
0010
0000
0000
0000
0000
0000
,
0100
0000
0001
0000
1000
0000
0001
0000
0010
0100
0010
0000
0000
0000
0000
0000
,
0001
0000
0100
0000
0000
0010
0000
0000
1000
0000
0000
0001
0000
0000
1000
0000
,
0100
0000
0010
0000
0000
0001
0000
0000
0100
0000
0000
0010
0000
0000
1000
0000
,
0202
0000
0000
0303
,
2200
0000
0000
3300
;

//---------------dance-single - ----------------
#NOTES:
     dance-single:
     :
     Medium:
     8:
     0.298895,0.354805,0.148125,0.166640,0.000000,226.000000,210.000000,16.000000,18.000000,0.000000,0.000000,0.298895,0.354805,0.148125,0.166640,0.000000,226.000000,210.000000,16.000000,18.000000,0.000000,0.000000:
0000
0000
0000
0000
,
0000
0000
0000
0000
,
0000
0000
0000
0000
,
0000
0000
0000
0000
,
0000
0000
0000
0000
,
1000
0000
0000
0010
0000
0100
0000
0000
,
0001
0000
0000
1000
0000
0100
0000
0000
,
1000
0000
0000
0001
0000
0010
0000
0000
,
0001
1000
0001
1000
0001
1000
0100
0000
,
0010
0000
0000
0001
0000
1000
0010
0000
,
0100
0000
0000
0001
0000
0010
0100
0000
,
1000
0000
0010
0100
0001
0000
1000
0000
,
0100
0000
0010
0001
0000
1000
0001
0000
,
0100
0000
0000
0010
1000
0001
0100
0000
,
0001
0000
0000
0010
0000
0001
1000
0000
,
0010
1000
0000
0100
1000
0001
0000
0000
,
0100
0010
0000
1000
0000
0001
0010
0000
,
0012
0000
0000
1000
0000
0100
0000
0000
,
1003
0000
0000
0001
0000
0100
0000
0000
,
2010
0000
0000
0100
0000
0010
0000
0000
,
3100
0000
0000
1000
0000
0001
0000
0000
,
0201
0000
0000
0010
0000
1000
0000
0000
,
0301
0000
0000
1000
0000
0001
0000
0000
,
1200
0000
0000
0001
0000
1000
0000
0000
,
1300
0001
1000
0001
1000
0001
0100
0000
,
0010
1000
0010
0000
0100
0100
0000
0000
,
0001
1000
0001
0000
0010
0100
1000
0000
,
0001
0100
0001
0000
1000
1000
0000
0000
,
0010
1000
0001
0000
0010
0100
0010
0000
,
0110
0000
0001
1000
0000
0010
0100
0000
,
0102
0000
0000
1000
0000
0010
0003
0000
,
1001
0000
0100
0010
0000
1000
0001
0000
,
1200
0000
0000
0010
0000
0001
0300
0000
,
0100
1000
0001
1000
0010
0010
0000
0000
,
0100
0001
0010
0000
0001
1000
0100
0000
,
0010
0001
1000
0001
0100
0100
0000
0000
,
0001
1000
0100
0000
1000
0001
0010
0000
,
0110
0000
0010
0001
0000
1000
0100
0000
,
1020
0000
0000
0001
0000
1000
0030
0000
,
1001
0000
0100
0001
0000
1000
0010
0000
,
0102
0000
0000
1000
1003
0001
1000
0001
,
0200
0000
0020
0330
,
1000
0001
0000
0010
0000
0001
0000
0100
,
0010
2000
0002
3003
,
1001
0000
0000
0000
0001
1000
0100
0000
,
0010
0001
0200
0000
0020
0000
0330
0000
,
0110
0000
0000
0000
0001
1000
0001
0000
,
0010
0100
0000
1000
0000
0001
0000
0000
,
0100
0010
0000
0100
0000
0001
0000
0000
,
0010
0001
0000
0010
0000
0100
0000
0000
,
1000
0010
0000
1000
0000
0100
0000
0000
,
1000
0001
0000
1000
0010
0000
0000
0000
,
0100
0001
0000
0100
0010
0000
0000
0000
,
0202
0000
0000
0303
,
2200
0000
0000
3300
;

//---------------dance-single - ----------------
#NOTES:
     dance-single:
     :
     Easy:
     5:
     0.171931,0.278776,0.148125,0.120351,0.000000,130.000000,114.000000,16.000000,13.000000,0.000000,0.000000,0.171931,0.278776,0.148125,0.120351,0.000000,130.000000,114.000000,16.000000,13.000000,0.000000,0.000000:
0000
0000
0000
0000
,
0000
0000
0000
0000
,
0000
0000
0000
0000
,
0000
0000
0000
0000
,
0000
0000
0000
0000
,
2000
0000
3001
0000
,
0020
0000
0130
0000
,
2000
0000
3010
0000
,
0100
0001
0100
1001
,
0100
0000
0010
0000
,
0100
0000
0001
0000
,
0010
0000
0100
0000
,
1000
0000
0001
0000
,
1000
0000
1001
0000
,
0010
0000
0100
0000
,
0001
0000
1001
0000
,
1000
0000
0010
0000
,
0200
0000
0000
0000
,
0301
0000
1000
0000
,
0020
0000
0000
0000
,
0130
0000
0001
0000
,
2000
0000
0000
0000
,
3100
0000
0010
0000
,
0002
0000
0000
0000
,
0013
0001
0100
1001
,
0010
1000
0100
0000
,
1000
0110
0001
0110
,
1000
0100
0010
0000
,
0001
1001
1000
1001
,
0010
0100
0000
0110
,
0002
0000
0000
0003
,
1000
0001
0000
1001
,
0200
0000
0000
0300
,
0010
1000
0100
0000
,
0010
1001
0100
1001
,
0010
1000
0001
0000
,
0100
0110
0010
0110
,
1000
0001
0000
0110
,
2000
0000
0000
3000
,
0100
0010
0000
1001
,
0200
0000
0000
0300
,
0001
0000
1000
0000
,
0001
0000
0010
0000
,
0100
0000
0010
0000
,
0100
0000
1000
0000
,
0010
0000
1000
0000
,
0001
0000
0010
0000
,
0001
0100
1000
0000
,
0010
1000
0100
0000
,
1000
0001
0010
0000
,
0001
0100
0010
0000
,
0100
0000
0010
0000
,
0100
0000
0010
0000
,
0002
0000
0000
0003
,
2000
0000
0000
3000
;

//---------------dance-single - ----------------
#NOTES:
     dance-single:
     :
     Beginner:
     2:
     0.096546,0.151365,0.055547,0.092578,0.000000,73.000000,67.000000,6.000000,10.000000,0.000000,0.000000,0.096546,0.151365,0.055547,0.092578,0.000000,73.000000,67.000000,6.000000,10.000000,0.000000,0.000000:
0000
0000
0000
0000
,
0000
0000
0000
0000
,
0000
0000
0000
0000
,
0000
0000
0000
0000
,
0000
0000
0000
0000
,
1000
0000
0000
0000
,
0001
0000
0000
0000
,
0100
0000
0000
0000
,
0010
0010
0010
0000
,
1000
0000
0000
0000
,
0001
0000
0001
0000
,
0001
0000
0000
0000
,
0100
0000
0010
0000
,
0100
0000
0000
0000
,
0001
0000
0001
0000
,
1000
0000
0000
0000
,
0100
0000
1000
0000
,
0002
0000
0000
0000
,
0003
0000
0000
0000
,
2000
0000
0000
0000
,
3000
0000
0000
0000
,
0020
0000
0000
0000
,
0030
0000
0000
0000
,
0200
0000
0300
0000
,
0001
0001
0001
0000
,
1000
0000
0001
0000
,
0010
0000
0010
0000
,
0001
0000
1000
0000
,
0100
0000
0100
0000
,
1001
0000
0000
0000
,
0200
0000
0300
0000
,
0110
0000
0000
0000
,
0020
0000
0030
0000
,
0100
0000
0010
0000
,
1000
0000
1000
0000
,
0100
0000
0010
0000
,
0001
0000
0001
0000
,
1001
0000
0000
0000
,
0002
0000
0003
0000
,
0110
0000
0000
0000
,
2000
0000
3000
0000
,
1001
0000
0000
0000
,
0100
0000
0010
0000
,
0100
0000
0000
0000
,
0110
0000
1000
0000
,
0001
0000
0010
0000
,
0100
0000
1000
0000
,
0010
0000
0000
0000
,
0100
0000
0000
0000
,
0001
0000
0000
0000
,
1000
0000
0000
0000
,
0100
0000
0000
0000
,
0010
0000
0000
0000
,
0002
0000
0003
0000
,
2000
0000
3000
0000
;

//---------------dance-single - ----------------
#NOTES:
     dance-single:
     :
     Challenge:
     15:
     0.618950,0.734954,0.407343,0.129609,0.708222,468.000000,424.000000,44.000000,14.000000,0.000000,0.000000,0.618950,0.734954,0.407343,0.129609,0.708222,468.000000,424.000000,44.000000,14.000000,0.000000,0.000000:
// measure 0
0000
0000
0000
0000
,  // measure 1
0000
0000
0000
0000
,  // measure 2
0000
0000
0000
0000
,  // measure 3
0000
0000
0000
0000
,  // measure 4
0000
0000
0000
0000
,  // measure 5
1000
0000
0100
0010
0100
0010
0001
0100
0010
1000
0001
0000
0000
0000
0000
0000
,  // measure 6
0010
0000
0001
1000
0001
0100
0010
1000
0100
0010
0001
0000
0000
0000
0000
0000
,  // measure 7
2002
0000
0000
0000
3000
0000
0100
0010
0000
0000
0103
0000
0000
0000
0000
0000
,  // measure 8
0101
0000
1100
0000
0101
0000
1100
0000
0001
0100
1000
0010
0001
0000
0000
0000
,  // measure 9
0100
0000
0010
0000
0100
0001
0000
0001
0010
0000
0100
1000
0000
1000
0001
0000
,  // measure 10
0100
0000
0010
0000
1000
0100
0000
0100
0010
0000
0001
1000
0000
1000
0001
0000
,  // measure 11
0100
0000
0001
0000
0010
0001
0000
0001
1000
0000
0100
1000
0000
1000
0010
0000
,  // measure 12
0100
0000
0001
0000
0010
0100
0000
0100
1000
0000
0001
1000
0000
1000
0010
0000
,  // measure 13
1000
0001
1000
0000
0100
0010
0000
0010
0001
0000
0100
0010
0000
0010
1000
0000
,  // measure 14
0001
0010
0001
0000
0100
0010
0000
0010
1000
0000
0100
1000
0000
1000
0001
0000
,  // measure 15
0010
0100
0010
0000
0001
1000
0000
1000
0100
0000
0010
0001
0000
0001
0010
0000
,  // measure 16
0001
0100
0001
0000
1000
0001
0000
0001
0010
0000
0100
1000
0000
1000
0010
0000
,  // measure 17
0102
0000
1000
0000
0000
0010
0000
0000
1000
0000
0000
0100
0000
0000
1000
0000
,  // measure 18
0013
0000
0001
0000
0000
0100
0010
1000
0001
0000
0000
0010
0000
0000
0100
0000
,  // measure 19
2100
0000
0010
0000
0000
0001
0000
0000
0100
0000
0000
0010
0000
0000
0100
0000
,  // measure 20
3001
0000
1000
0000
0000
0001
0010
0100
1000
0000
0000
0010
0000
0000
0100
0000
,  // measure 21
1020
0000
0001
0000
0000
0100
0000
0000
1000
0000
0000
0001
0000
0000
0100
0000
,  // measure 22
1030
0000
0010
0000
0000
1000
0001
0010
0100
0000
0000
0010
0000
0000
0001
0000
,  // measure 23
0012
0000
0100
0000
0000
0010
0000
0000
0100
0000
0000
1000
0000
0000
0103
0000
,  // measure 24
0101
0000
1100
0000
0101
0000
1100
0000
0001
0010
1000
0100
0001
0010
1000
0100
,  // measure 25
0001
0000
0010
0001
0100
0010
1000
0100
1000
0001
0100
0000
0000
0000
0010
0100
,  // measure 26
0010
1000
0101
0000
0001
0010
1100
0000
,  // measure 27
0100
0000
0010
0001
0100
0010
1000
0001
0010
0001
0100
0000
0000
0000
0010
1000
,  // measure 28
0001
0100
1001
0000
1000
0010
0101
0000
,  // measure 29
0110
0000
0001
1000
0000
1000
0100
0010
0000
0010
0001
0000
1001
0000
0000
0000
,  // measure 30
0200
0010
0000
0000
1000
0000
0001
0001
0000
1300
0100
0000
0110
0000
0000
0000
,  // measure 31
1001
0000
0001
0010
0000
0010
0100
1000
0000
1000
0001
0000
0011
0000
0000
0000
,  // measure 32
2000
0100
0000
0000
0001
0000
0010
0010
0000
3001
1000
0000
1010
0000
0000
0001
,  // measure 33
0100
0000
0010
1000
0001
0010
0100
0010
0100
1000
0001
0000
0100
0000
0010
1000
,  // measure 34
0001
0010
0101
0000
1000
0100
0011
0000
,  // measure 35
0100
0000
0001
0010
0001
1000
0100
0010
0100
1000
0001
0000
0100
0000
0010
0100
,  // measure 36
0001
1000
0011
0000
0100
0010
1001
0000
,  // measure 37
1100
0000
0010
0001
0000
0100
0010
1000
0000
0001
1000
0000
0101
0000
0000
0000
,  // measure 38
0020
0001
0000
0000
1000
0000
0100
0100
0000
1030
0010
0000
0110
0000
0000
0000
,  // measure 39
1001
0000
0001
0010
0000
0001
0100
0010
0000
0010
1000
0000
1100
0000
0000
0000
,  // measure 40
2000
0001
0000
0000
0010
0000
0001
0000
3001
0100
0001
0100
0010
1000
0010
1000
,  // measure 41
0100
0000
1000
0000
0001
0100
0010
0000
1000
0000
0000
0100
0000
0000
0010
0000
,  // measure 42
0011
0000
1100
0000
0000
0101
0000
0000
1001
0000
0000
0110
0000
0000
1010
0000
,  // measure 43
0001
0000
1000
0000
0100
0010
0001
0000
1000
0000
0000
0001
0000
0000
0100
0000
,  // measure 44
1001
0000
0010
0000
0000
1000
0000
0000
0101
0000
1000
0100
0000
0010
0001
0000
,  // measure 45
0100
0000
0001
0000
1000
0100
0010
0000
0001
0000
0000
0100
0000
0000
1000
0000
,  // measure 46
1100
0000
0010
0000
0000
0001
0000
0000
0101
0000
0010
1000
0000
0001
0100
0000
,  // measure 47
0001
0000
0010
0100
1000
0010
1000
0001
0010
0100
1000
0000
0000
0000
0000
0000
,  // measure 48
0100
0000
0010
0001
0100
0001
1000
0010
0100
0001
0010
0000
0000
0000
0000
0000
,  // measure 49
0001
0000
1000
0001
0010
0100
1000
0010
0100
0010
1000
0000
0000
0000
0000
0000
,  // measure 50
0100
0000
0010
0001
1000
0001
0010
0001
0100
0010
1000
0000
0000
0000
0000
0000
,  // measure 51
0100
0000
0010
0000
0000
0001
0000
0000
0100
0000
0000
0010
0000
0000
1000
0000
,  // measure 52
0001
0000
1000
0000
0000
0010
0000
0000
0100
0000
0000
0001
0000
0000
1000
0000
,  // measure 53
0202
0000
0000
0303
,  // measure 54
2200
0000
0000
3300
;
