#VERSION:0.83;
#TITLE:YOU MAKE ME;
#SUBTITLE:;
#ARTIST:MONDAY MICHIRU;
#TITLETRANSLIT:;
#SUBTITLETRANSLIT:;
#ARTISTTRANSLIT:;
#GENRE:;
#ORIGIN:;
#CREDIT:;
#BANNER:YOU MAKE ME-bn.png;
#BACKGROUND:YOU MAKE ME-bg.png;
#PREVIEWVID:;
#JACKET:YOU MAKE ME-jacket.png;
#CDIMAGE:;
#DISCIMAGE:;
#LYRICSPATH:;
#CDTITLE:;
#MUSIC:YOU MAKE ME.ogg;
#OFFSET:0.000000;
#SAMPLESTART:24.018999;
#SAMPLELENGTH:20.000000;
#SELECTABLE:YES;
#DISPLAYBPM:110.000000;
#BPMS:0.000=109.881;
#STOPS:;
#DELAYS:;
#WARPS:;
#TIMESIGNATURES:0.000=4=4;
#TICKCOUNTS:0.000=4;
#COMBOS:0.000=1;
#SPEEDS:0.000=1.000=0.000=0;
#SCROLLS:0.000=1.000;
#FAKES:;
#LABELS:0.000=Song Start;
#BGCHANGES:15.000=YOU MAKE ME.mp4=1.000=1=0=0=StretchNoLoop==CrossFade==,
99999=-nosongbg-=1.000=0=0=0 // don't automatically add -songbackground-
;
#KEYSOUNDS:;
#ATTACKS:
;

//---------------dance-single - ----------------
#NOTEDATA:;
#CHARTNAME:;
#STEPSTYPE:dance-single;
#DESCRIPTION:;
#CHARTSTYLE:;
#DIFFICULTY:Easy;
#METER:5;
#RADARVALUES:0.188042,0.256105,0.076307,0.000000,0.000000,138.000000,130.000000,8.000000,0.000000,0.000000,0.000000,0.000000,0.000000,0.000000,0.188042,0.256105,0.076307,0.000000,0.000000,138.000000,130.000000,8.000000,0.000000,0.000000,0.000000,0.000000,0.000000,0.000000;
#CREDIT:;
#DISPLAYBPM:110.000000;
#NOTES:
0000
0000
0000
0000
,
0000
0000
0000
0000
,
0000
0000
0000
0000
,
0000
0000
0000
0000
,
0000
0000
0000
0000
,
0000
0000
0000
0000
,
0000
0000
0000
0000
,
0000
0001
0000
0001
0000
0001
0000
0001
,
0000
0010
0000
0010
0000
0010
0000
0010
,
0000
1000
0000
1000
0000
1000
0000
1000
,
1000
0010
1000
0100
,
1001
0000
0000
0000
,
0000
0001
0000
0001
,
0000
1000
0000
1000
,
0000
0010
0010
0100
,
1001
0000
0010
1000
,
0000
0001
0000
0001
,
0000
1000
0000
1000
,
0000
0010
1000
0100
,
0010
0010
0010
1001
,
0000
0001
0100
1000
,
0001
1000
0010
0010
,
0000
0010
0100
1000
,
0001
1000
0010
0010
,
0000
1000
0100
0001
,
0000
0010
0100
0010
,
0000
0001
1000
1000
,
0010
0100
0001
0001
,
0001
0001
0001
0000
1000
1000
1000
0000
,
1001
0100
0010
0100
,
0010
0010
0100
0001
,
0010
0001
0100
0001
,
0001
0100
1000
1000
,
1000
0100
1000
0001
,
0000
0010
0000
1000
0000
0100
0000
0001
,
0000
0010
0000
1000
0000
0100
0000
0001
,
0000
0000
0000
0000
,
0010
0001
0010
0001
,
0100
1000
0100
1000
,
0010
1000
1000
0100
,
1001
0000
0001
0100
,
0010
0001
0100
1000
,
0001
1000
1000
1000
,
1001
0001
0100
1000
,
0100
1001
0100
1001
;

//---------------dance-single - ----------------
#NOTEDATA:;
#CHARTNAME:;
#STEPSTYPE:dance-single;
#DESCRIPTION:;
#CHARTSTYLE:;
#DIFFICULTY:Medium;
#METER:7;
#RADARVALUES:0.243909,0.298789,0.114460,0.000000,0.000000,179.000000,167.000000,12.000000,0.000000,0.000000,0.000000,0.000000,0.000000,0.000000,0.243909,0.298789,0.114460,0.000000,0.000000,179.000000,167.000000,12.000000,0.000000,0.000000,0.000000,0.000000,0.000000,0.000000;
#CREDIT:;
#DISPLAYBPM:110.000000;
#NOTES:
0000
0000
0000
0000
,
0000
0000
0000
0000
,
0000
0000
0000
0000
,
0000
0000
0000
0000
,
0000
0000
0000
0000
,
0000
0000
0000
0000
,
0000
0000
0000
0000
,
0000
0010
0000
0010
0000
0001
0000
0001
,
0000
0100
0000
0100
0000
1000
0000
1000
,
0000
0001
0000
0001
0000
1000
0000
1000
,
1000
0010
1000
0100
,
1001
0000
0000
0000
,
1000
0001
0001
0100
,
0001
0010
0010
1000
,
0100
1000
0001
0100
,
1001
0000
0100
0001
,
0100
1000
0001
1000
,
0100
0001
1000
0001
,
0001
0010
1000
0100
,
0010
1001
0100
1001
,
0010
0000
0100
0000
0001
0001
0100
0000
,
0100
0000
0010
0000
1000
1000
0010
0000
,
1000
0000
0100
0000
0001
0001
0100
0000
,
0001
0000
0100
0000
1000
1000
0100
0000
,
0010
0000
0100
0000
1000
0001
0100
0000
,
0100
0000
0010
0000
0001
1000
0100
0000
,
0010
0010
0100
0100
,
0001
0000
0001
0000
1000
0001
0100
0000
,
0001
0001
0001
0000
1000
1000
1000
0000
,
1001
0000
0010
0000
1000
0100
0001
0000
,
1000
1000
1000
0000
0001
0001
0001
0000
,
0110
0000
0010
0000
0001
0100
1000
0000
,
1000
1000
0001
0000
0001
0001
1000
0000
,
1001
0000
0010
0000
1000
0100
0001
0100
,
0000
0010
0000
1000
0000
0100
0000
0001
,
0000
0010
0000
1000
0000
0100
0000
0001
,
0000
0000
0000
0000
,
0001
1000
0001
0000
0010
0100
0010
0000
,
0001
0001
1000
1001
,
1000
0100
1000
0000
0001
0100
0001
0000
,
1001
0100
0001
1000
,
0010
1000
0010
0000
0001
0100
0001
0000
,
0100
0100
0001
1000
,
0010
0001
0100
1000
,
1001
0110
0100
1001
;

//---------------dance-single - ----------------
#NOTEDATA:;
#CHARTNAME:;
#STEPSTYPE:dance-single;
#DESCRIPTION:;
#CHARTSTYLE:;
#DIFFICULTY:Hard;
#METER:9;
#RADARVALUES:0.272524,0.341473,0.209844,0.000000,0.028615,200.000000,178.000000,22.000000,0.000000,0.000000,0.000000,0.000000,0.000000,0.000000,0.272524,0.341473,0.209844,0.000000,0.028615,200.000000,178.000000,22.000000,0.000000,0.000000,0.000000,0.000000,0.000000,0.000000;
#CREDIT:;
#DISPLAYBPM:110.000000;
#NOTES:
0000
0000
0000
0000
,
0000
0000
0000
0000
,
0000
0000
0000
0000
,
0000
0000
0000
0000
,
0000
0000
0000
0000
,
0000
0000
0000
0000
,
0000
0000
0000
0000
,
0000
0010
0000
0010
0000
0001
0000
0001
,
0000
0100
0000
0100
0000
1000
0000
1000
,
0000
0010
0000
0001
0000
0100
0000
1000
,
1000
0010
1000
1100
,
1001
0000
0000
0000
,
1000
0001
0001
0000
0001
1000
1000
0000
,
0001
0110
1000
1001
,
0010
1000
0010
0000
0001
0100
0001
0000
,
1000
1000
0001
0110
,
0001
0100
1000
0000
1000
0010
0001
0000
,
0001
0001
1000
0100
,
0001
0001
1000
1100
,
0010
1001
0110
1001
,
0010
0001
0100
0000
0001
0100
1000
0000
,
0010
1000
0100
0000
1000
0100
0001
0000
,
1000
1000
0001
0000
0001
0001
1000
0000
,
1000
0100
0001
0000
0001
0100
1000
0000
,
0010
1000
0100
0000
1000
0100
0001
0000
,
0010
0001
0100
0000
0001
0100
1000
0000
,
1000
0100
0001
0000
0001
0100
1000
0000
,
0010
1000
0100
0010
0001
0000
0100
0000
,
0000
0000
0000
0000
0000
0000
0000
0000
0100
0000
0000
0000
0000
0000
0000
0000
0000
0000
0000
0000
0000
1000
0000
0000
0000
0000
0000
0000
0000
0000
0000
0000
0110
0000
0000
0000
0000
0000
0000
0000
0000
0000
0000
0000
0000
0000
0000
0000
0000
0000
0000
0000
0000
0000
0000
0000
0000
0000
0000
0000
0000
0000
0000
0000
,
0000
0000
0000
0000
0000
0000
0000
0000
0010
0000
0000
0000
0000
0000
0000
0000
0000
0000
0000
0000
0000
1000
0000
0000
0000
0000
0000
0000
0000
0000
0000
0000
0101
0000
0000
0000
0000
0000
0000
0000
0000
0000
0000
0000
0000
0000
0000
0000
0000
0000
0000
0000
0000
0000
0000
0000
0000
0000
0000
0000
0000
0000
0000
0000
,
0000
0000
0000
0000
0000
0000
0000
0000
0100
0000
0000
0000
0000
0000
0000
0000
0000
0000
0000
0000
0000
0001
0000
0000
0000
0000
0000
0000
0000
0000
0000
0000
0110
0000
0000
0000
0000
0000
0000
0000
0000
0000
0000
0000
0000
0000
0000
0000
0000
0000
0000
0000
0000
0000
0000
0000
0000
0000
0000
0000
0000
0000
0000
0000
,
0000
0000
0000
0000
0000
0000
0000
0000
1000
0000
0000
0000
0000
0000
0000
0000
0000
0000
0000
0000
0000
0100
0000
0000
0000
0000
0000
0000
0000
0000
0000
0000
0011
0000
0000
0000
0000
0000
0000
0000
0000
0000
0000
0000
0000
0000
0000
0000
0000
0000
0000
0000
0000
0000
0000
0000
0000
0000
0000
0000
0000
0000
0000
0000
,
0000
0000
0000
0000
0000
0000
0000
0000
1000
0000
0000
0000
0000
0000
0000
0000
0000
0000
0000
0000
0000
0001
0000
0000
0000
0000
0000
0000
0000
0000
0000
0000
0110
0000
0000
0000
0000
0000
0000
0000
0000
0000
0000
0000
0000
0000
0000
0000
0000
0000
0000
0000
0000
0000
0000
0000
0000
0000
0000
0000
0000
0000
0000
0000
,
0000
0000
0000
0000
0000
0000
0000
0000
0010
0000
0000
0000
0000
0000
0000
0000
0000
0000
0000
0000
0000
0001
0000
0000
0000
0000
0000
0000
0000
0000
0000
0000
1100
0000
0000
0000
0000
0000
0000
0000
0000
0000
0000
0000
0000
0000
0000
0000
0000
0000
0000
0000
0000
0000
0000
0000
0000
0000
0000
0000
0000
0000
0000
0000
,
1000
0100
1000
0001
1000
0010
1000
0001
,
1000
0100
1000
0001
1000
0010
1000
0100
,
0000
0000
0000
0000
,
0010
1000
0010
0000
0001
0100
0001
0000
,
0010
0001
0010
0000
1000
0100
1000
0000
,
0001
1000
0010
0000
0001
1000
0100
0000
,
1001
0000
0001
1000
,
0100
0001
0100
0000
1000
0010
1000
0000
,
0100
1000
0100
0000
0001
0010
0001
0000
,
0010
0101
0010
1100
,
1010
0110
0101
1001
;

//---------------dance-double - ----------------
#NOTEDATA:;
#CHARTNAME:;
#STEPSTYPE:dance-double;
#DESCRIPTION:;
#CHARTSTYLE:;
#DIFFICULTY:Easy;
#METER:6;
#RADARVALUES:0.188042,0.277447,0.085845,0.000000,0.000000,138.000000,129.000000,9.000000,0.000000,0.000000,0.000000,0.000000,0.000000,0.000000,0.188042,0.277447,0.085845,0.000000,0.000000,138.000000,129.000000,9.000000,0.000000,0.000000,0.000000,0.000000,0.000000,0.000000;
#CREDIT:;
#DISPLAYBPM:110.000000;
#NOTES:
00000000
00000000
00000000
00000000
,
00000000
00000000
00000000
00000000
,
00000000
00000000
00000000
00000000
,
00000000
00000000
00000000
00000000
,
00000000
00000000
00000000
00000000
,
00000000
00000000
00000000
00000000
,
00000000
00000000
00000000
00000000
,
00000000
10000000
00000000
10000000
00000000
10000000
00000000
10000000
,
00000000
00010000
00000000
00010000
00000000
00010000
00000000
00010000
,
00000000
00001000
00000000
00001000
00000000
00001000
00000000
00001000
,
00000100
00000001
00000010
00001000
,
00011000
00000000
00000000
00000000
,
00000000
00010000
00000000
00100000
,
00000000
10000000
00000000
10000000
,
00000000
00010000
01000000
10000000
,
10010000
00000000
00100000
00001000
,
00000000
00000010
00000000
00000010
,
00000000
00001000
00000000
00001000
,
00000000
00000001
00000100
00000100
,
00011000
01000000
10010000
01000000
,
00000000
10000000
01000000
00010000
,
00001000
00010000
00000100
00000100
,
00000000
00001000
01000000
10000000
,
00010000
10000000
10000000
10000000
,
00000000
00100000
01000000
00001000
,
00001000
00010000
00100000
10000000
,
00000000
00010000
01000000
00010000
,
00001000
00010000
00000100
00000001
,
00000001
00000001
00000001
00000000
00001000
00001000
00001000
00000000
,
00011000
01000000
00100000
10010000
,
00010000
01000000
00001000
01000000
,
00000000
10000000
01000000
00010000
,
00010000
01000000
10000000
01000000
,
00001000
00001000
00010000
01000000
,
00000000
10000000
00000000
00010000
00000000
01000000
00000000
00001000
,
00000000
00000010
00000000
00000001
00000000
00000100
00000000
00001000
,
00000000
00000000
00000000
00000000
,
00011000
01000000
00100000
00010000
,
10000000
00010000
00010000
00010000
,
10000000
00010000
00001000
00000100
,
00000010
00000000
00000010
00000010
,
00000000
00001000
00001000
00000001
,
00001000
00010000
01000000
10000000
,
01000000
00001000
01000000
10000000
,
01000000
10010000
01000000
10010000
;

//---------------dance-double - ----------------
#NOTEDATA:;
#CHARTNAME:;
#STEPSTYPE:dance-double;
#DESCRIPTION:;
#CHARTSTYLE:;
#DIFFICULTY:Medium;
#METER:8;
#RADARVALUES:0.252085,0.320131,0.181229,0.000000,0.028615,185.000000,166.000000,19.000000,0.000000,0.000000,0.000000,0.000000,0.000000,0.000000,0.252085,0.320131,0.181229,0.000000,0.028615,185.000000,166.000000,19.000000,0.000000,0.000000,0.000000,0.000000,0.000000,0.000000;
#CREDIT:;
#DISPLAYBPM:110.000000;
#NOTES:
00000000
00000000
00000000
00000000
,
00000000
00000000
00000000
00000000
,
00000000
00000000
00000000
00000000
,
00000000
00000000
00000000
00000000
,
00000000
00000000
00000000
00000000
,
00000000
00000000
00000000
00000000
,
00000000
00000000
00000000
00000000
,
00000000
10000000
00000000
10000000
00000000
01000000
00000000
01000000
,
00000000
00001000
00000000
00001000
00000000
00000010
00000000
00000010
,
00000000
00000001
00000000
00000001
00000000
00000100
00000000
00000100
,
00010000
00100000
10000000
01010000
,
00011000
00000000
00000000
00000000
,
00000010
00001000
00010000
00000000
00100000
00000000
01000000
00000000
,
00010000
00001000
00000010
00000000
00000001
00000000
00000100
00000000
,
00000100
00000001
00000100
00000000
00001000
00010000
00001000
00000000
,
00100000
11000000
00010000
00001100
,
00000001
00000100
00001000
00000000
00000100
00000000
00010000
00000000
,
10000000
00000000
10000000
00000000
00010000
00100000
00001000
00000000
,
00000010
00000110
00001000
00011000
,
00010000
11000000
01100000
10010000
,
10000000
01000000
00000000
00010000
00001000
00000010
00000001
00000000
,
00000100
00001000
00010000
00000000
00100000
10000000
01000000
00000000
,
00100000
00010000
00100000
00000000
10000000
01000000
10000000
00000000
,
00010000
00000000
00010000
00000000
00000010
00000001
00000100
00000000
,
00000001
00000000
00000001
00000000
00001000
00001000
00001000
00000000
,
00010000
00000000
00010000
00000000
10000000
10000000
10000000
00000000
,
01000000
00000000
01000000
00000000
10000000
01000000
00010000
00001000
,
00000100
00000000
00000100
00000000
00000001
00000010
00001000
00000000
,
00000000
00000000
00000000
00000000
00000000
00000000
00000000
00000000
00000010
00000000
00000000
00000000
00000000
00000000
00000000
00000000
00000000
00000000
00000000
00000000
00000000
00001000
00000000
00000000
00000000
00000000
00000000
00000000
00000000
00000000
00000000
00000000
00011000
00000000
00000000
00000000
00000000
00000000
00000000
00000000
00000000
00000000
00000000
00000000
00000000
00000000
00000000
00000000
00000000
00000000
00000000
00000000
00000000
00000000
00000000
00000000
00000000
00000000
00000000
00000000
00000000
00000000
00000000
00000000
,
00000000
00000000
00000000
00000000
00000000
00000000
00000000
00000000
00100000
00000000
00000000
00000000
00000000
00000000
00000000
00000000
00000000
00000000
00000000
00000000
00000000
10000000
00000000
00000000
00000000
00000000
00000000
00000000
00000000
00000000
00000000
00000000
01010000
00000000
00000000
00000000
00000000
00000000
00000000
00000000
00000000
00000000
00000000
00000000
00000000
00000000
00000000
00000000
00000000
00000000
00000000
00000000
00000000
00000000
00000000
00000000
00000000
00000000
00000000
00000000
00000000
00000000
00000000
00000000
,
00000000
00000000
00000000
00000000
00000000
00000000
00000000
00000000
00010000
00000000
00000000
00000000
00000000
00000000
00000000
00000000
00000000
00000000
00000000
00000000
00000000
00001000
00000000
00000000
00000000
00000000
00000000
00000000
00000000
00000000
00000000
00000000
00000110
00000000
00000000
00000000
00000000
00000000
00000000
00000000
00000000
00000000
00000000
00000000
00000000
00000000
00000000
00000000
00000000
00000000
00000000
00000000
00000000
00000000
00000000
00000000
00000000
00000000
00000000
00000000
00000000
00000000
00000000
00000000
,
00000000
00000000
00000000
00000000
00000000
00000000
00000000
00000000
00000010
00000000
00000000
00000000
00000000
00000000
00000000
00000000
00000000
00000000
00000000
00000000
00000000
00010000
00000000
00000000
00000000
00000000
00000000
00000000
00000000
00000000
00000000
00000000
00110000
00000000
00000000
00000000
00000000
00000000
00000000
00000000
00000000
00000000
00000000
00000000
00000000
00000000
00000000
00000000
00000000
00000000
00000000
00000000
00000000
00000000
00000000
00000000
00000000
00000000
00000000
00000000
00000000
00000000
00000000
00000000
,
00000000
00000000
00000000
00000000
00000000
00000000
00000000
00000000
01000000
00000000
00000000
00000000
00000000
00000000
00000000
00000000
00000000
00000000
00000000
00000000
00000000
00001000
00000000
00000000
00000000
00000000
00000000
00000000
00000000
00000000
00000000
00000000
00000110
00000000
00000000
00000000
00000000
00000000
00000000
00000000
00000000
00000000
00000000
00000000
00000000
00000000
00000000
00000000
00000000
00000000
00000000
00000000
00000000
00000000
00000000
00000000
00000000
00000000
00000000
00000000
00000000
00000000
00000000
00000000
,
00000000
00000000
00000000
00000000
00000000
00000000
00000000
00000000
00000100
00000000
00000000
00000000
00000000
00000000
00000000
00000000
00000000
00000000
00000000
00000000
00000000
00010000
00000000
00000000
00000000
00000000
00000000
00000000
00000000
00000000
00000000
00000000
01010000
00000000
00000000
00000000
00000000
00000000
00000000
00000000
00000000
00000000
00000000
00000000
00000000
00000000
00000000
00000000
00000000
00000000
00000000
00000000
00000000
00000000
00000000
00000000
00000000
00000000
00000000
00000000
00000000
00000000
00000000
00000000
,
00100000
10000000
00000000
10000000
00000000
01000000
00000000
01000000
,
00000000
00010000
00000000
00001000
00000000
00000010
00000000
00000001
,
00000000
00000000
00000000
00000000
,
00000010
00000001
00000010
00000000
00001000
00000100
00001000
00000000
,
00010000
00100000
00010000
00000000
10000000
01000000
10000000
00000000
,
00010000
10000000
00010000
00000000
10000000
00000000
10000000
00000000
,
10010000
00000000
01000000
10000000
,
01000000
10000000
01000000
00000000
00010000
00100000
00010000
00000000
,
00001000
00000100
00001000
00000000
00000001
00000010
00000001
00000000
,
00000001
00000001
00001000
00011000
,
00100000
11000000
00001000
00001100
;

//---------------dance-single - ----------------
#NOTEDATA:;
#CHARTNAME:;
#STEPSTYPE:dance-single;
#DESCRIPTION:;
#CHARTSTYLE:;
#DIFFICULTY:Beginner;
#METER:3;
#RADARVALUES:0.129449,0.150229,0.000000,0.000000,0.000000,95.000000,95.000000,0.000000,0.000000,0.000000,0.000000,0.000000,0.000000,0.000000,0.129449,0.150229,0.000000,0.000000,0.000000,95.000000,95.000000,0.000000,0.000000,0.000000,0.000000,0.000000,0.000000,0.000000;
#CREDIT:;
#DISPLAYBPM:110.000000;
#NOTES:
0000
0000
0000
0000
,
0000
0000
0000
0000
,
0000
0000
0000
0000
,
0000
0000
0000
0000
,
0000
0000
0000
0000
,
0000
0000
0000
0000
,
0000
0000
0000
0000
,
1000
0000
0001
0000
,
1000
0000
0000
0000
,
0010
0000
0100
0000
,
0001
0001
0001
0001
,
0001
0000
0000
0000
,
0000
0010
0010
0010
,
0010
0000
0100
0100
,
0000
1000
1000
1000
,
1000
0000
0001
0001
,
0000
1000
1000
1000
,
1000
0000
0100
0100
,
0000
0010
0010
0010
,
0010
0000
0001
0001
,
0000
0000
1000
1000
,
0000
0000
0001
0001
,
0000
0100
0100
0000
,
0010
0000
1000
1000
,
1000
0000
0001
0001
,
0000
0000
0010
0010
,
0000
0100
0100
0000
,
1000
0000
0001
0000
,
0100
0000
0010
0000
,
0100
0000
0001
0000
,
1000
0000
0010
0000
,
1000
0000
0100
0100
,
0100
0000
0010
0000
,
0001
0000
0100
0000
,
0001
0000
1000
0000
,
0001
0000
0100
0000
,
0010
0000
0000
0000
,
0000
0100
0100
0100
,
0100
0000
0001
0001
,
0000
0010
0010
0010
,
0010
0000
0100
0100
,
0000
1000
1000
1000
,
1000
0000
0001
0001
,
0000
0100
0100
0100
,
0100
0000
0010
0010
,
0010
0000
0000
0000
;

//---------------dance-single - ----------------
#NOTEDATA:;
#CHARTNAME:;
#STEPSTYPE:dance-single;
#DESCRIPTION:;
#CHARTSTYLE:;
#DIFFICULTY:Challenge;
#METER:13;
#RADARVALUES:0.423775,0.472148,0.152614,0.095383,0.391072,311.000000,295.000000,16.000000,10.000000,0.000000,0.000000,0.000000,0.000000,0.000000,0.423775,0.472148,0.152614,0.095383,0.391072,311.000000,295.000000,16.000000,10.000000,0.000000,0.000000,0.000000,0.000000,0.000000;
#CREDIT:;
#DISPLAYBPM:110.000000;
#NOTES:
0000
0000
0000
0000
,
0000
0000
0000
0000
,
0000
0000
0000
0000
,
0000
0000
0000
0000
,
0000
0000
0000
0000
,
0000
0000
0000
0000
,
0000
0000
0000
0000
,
1000
0100
1000
0100
0001
0100
0001
0100
,
1000
0010
1000
0010
0001
0010
0001
0010
,
1000
0100
0010
0001
1000
0010
0100
0001
,
0011
0110
1100
0101
,
1001
0100
0010
0100
0001
1000
0100
0010
,
0000
0000
0001
0000
0000
0001
1000
0000
0000
0010
0000
0000
0200
0000
0000
0000
0000
0000
0302
0000
0000
0000
0000
1003
,
0100
0010
0001
0100
0010
1000
0001
0010
,
0000
0000
0100
0000
0000
0100
1000
0000
0000
0010
0000
0000
0001
0000
0000
0010
0000
0000
1000
0000
0000
0100
0000
0010
,
0001
0100
0001
1000
0100
0010
0001
0010
,
0000
0000
0001
0000
0000
1000
0010
0000
0000
0100
0000
0000
0002
0000
0000
0000
0000
0000
2003
0000
0000
0000
0000
3100
,
0010
0001
0100
0010
1000
0100
1000
0010
,
0000
0000
0100
0000
0000
0001
0010
0000
0000
1000
0000
0000
0010
0000
0000
0001
0000
0000
0100
0000
0000
0010
0000
1000
,
0001
0000
0000
0000
0000
0000
0110
0000
0000
1000
0000
0000
0010
0000
0000
0100
0000
0001
0000
0000
0100
0001
0000
0100
,
0010
0000
0000
0000
0000
0000
1000
0000
0000
0100
0000
0010
0000
0000
0001
0000
0000
1000
0000
0000
0000
0001
0000
0000
,
0100
0000
0000
0000
0000
0000
0001
0000
0000
1000
0000
0010
0000
0000
0100
0000
0000
0010
0000
0000
0000
1000
0000
0000
,
0100
0000
0000
0000
0000
0000
0010
0000
0000
0001
0000
0100
0000
0000
0001
0000
0000
1000
0000
0000
0100
0000
0000
0010
,
0001
0000
0100
0001
0011
0100
1100
0000
,
0001
0000
0000
0000
0000
0000
1000
0000
0000
0010
0000
0100
0000
0000
0010
0000
0000
1000
0000
0000
0000
0001
0000
0000
,
0000
0000
0010
0000
0000
0001
0000
0000
1000
0000
0000
0001
0000
0000
0000
0100
0000
0000
0100
0000
0000
0010
0000
0000
,
1000
0000
0000
0000
0000
0000
0100
0000
0000
1000
0000
0001
0000
0000
0100
0000
0000
0010
0000
0000
1000
0000
0000
0001
,
0010
0000
0100
1000
0010
0001
1000
0001
,
0100
0000
0000
0010
0000
0000
0000
0000
0010
0000
0000
1000
0001
0000
0100
0000
0000
0100
0000
0000
0001
1000
0000
0001
,
1000
0000
0000
0100
0000
0000
0000
0000
0010
0000
0000
0010
0001
0000
0000
0001
0000
1000
0000
0000
1000
0010
0000
0100
,
0000
0000
0000
0001
0000
0000
0000
0000
1000
0000
0000
0001
0010
0000
0100
0000
0000
1000
0000
0000
0000
0010
0000
0000
,
0000
0000
0000
0100
0000
0000
0000
0000
0001
0000
0000
1000
0100
0000
0100
0010
0000
0000
0002
0000
0000
2003
0000
0000
,
3010
0000
0000
1000
0000
0000
0000
0000
1000
0000
0000
0100
1000
0000
0001
0000
0000
0001
0000
0000
0100
0010
0000
0100
,
0010
0000
0000
1000
0000
0000
0000
0000
0001
0000
0000
0001
0010
0000
0000
0010
0000
0100
0000
0000
0100
1000
0000
0001
,
0100
0110
0000
1010
0000
0101
0000
0011
,
0000
1001
0000
1010
0000
0101
0000
0011
,
0000
1000
0100
1000
0001
0010
0100
0010
,
0000
0000
0001
0000
0000
0001
1000
0000
0000
0010
0000
0000
0200
0000
0000
0000
0000
0000
0302
0000
0000
0000
0000
1003
,
0100
0010
0001
0100
1000
0001
1000
0010
,
0000
0000
0100
0000
0000
0100
0001
0000
0000
0010
0000
0000
1000
0000
0000
0010
0000
0000
0001
0000
0000
0100
0000
0010
,
1000
0001
1000
0100
0010
0001
0100
0010
,
0000
0000
1000
0000
0000
1000
0100
0000
0000
0010
0000
0000
0002
0000
0000
0000
0000
0000
2003
0000
0000
0000
0000
3010
,
1000
0100
1000
0010
0001
0100
0001
0010
,
0000
0000
0100
0000
0000
1000
0010
0000
0000
0001
0000
0000
0010
0000
0000
1000
0000
0000
0100
0000
0000
1000
0000
0001
,
0100
0000
0000
0000
0000
0000
0010
0000
0000
1000
0000
0000
0100
0000
0000
0010
0000
0001
0000
0000
0010
0001
0000
0001
,
1000
0000
0000
0000
;

//---------------dance-double - ----------------
#NOTEDATA:;
#CHARTNAME:;
#STEPSTYPE:dance-double;
#DESCRIPTION:;
#CHARTSTYLE:;
#DIFFICULTY:Hard;
#METER:12;
#RADARVALUES:0.386984,0.429226,0.171690,0.171690,0.348150,284.000000,266.000000,18.000000,18.000000,0.000000,0.000000,0.000000,0.000000,0.000000,0.386984,0.429226,0.171690,0.171690,0.348150,284.000000,266.000000,18.000000,18.000000,0.000000,0.000000,0.000000,0.000000,0.000000;
#CREDIT:;
#DISPLAYBPM:110.000000;
#NOTES:
00000000
00000000
00000000
00000000
,
00000000
00000000
00000000
00000000
,
00000000
00000000
00000000
00000000
,
00000000
00000000
00000000
00000000
,
00000000
00000000
00000000
00000000
,
00000000
00000000
00000000
00000000
,
00000000
00000000
00000000
00000000
,
10000000
01000000
10000000
01000000
00010000
01000000
00010000
01000000
,
10000000
00100000
10000000
00100000
00010000
00100000
00010000
00100000
,
10000000
01000000
00100000
00010000
00001000
00000100
00000010
00000001
,
00000101
00001010
00010100
01001000
,
00011000
00010000
00001000
01000000
00001000
00010000
00000100
00000010
,
00000000
00000000
00000001
00000000
00000000
00000001
00001000
00000000
00000000
00000010
00000000
00000000
00020000
00000000
00000000
00000000
00000000
00000000
00032000
00000000
00000000
00000000
00000000
01003000
,
00000000
00100000
10000000
01000000
10000000
00010000
01000000
00100000
,
00000000
00000000
01000000
00000000
00000000
00000000
00002000
00000000
00000000
00000000
00000000
00000000
00023000
00000000
00000000
00000000
00000000
00000000
00030020
00000000
00000000
00000000
00000000
00000130
,
00000001
00000010
00000001
00001000
00000100
00010000
00001000
00100000
,
00000000
00000000
01000000
00000000
00000000
01000000
10000000
00000000
00000000
00010000
00000000
00000000
02000000
00000000
00000000
00000000
00000000
00000000
03002000
00000000
00000000
00000000
00000000
00013000
,
00000000
00000100
00010000
00001000
00000100
00000001
00000100
00000010
,
00000000
00000000
00001000
00000000
00000000
00001000
00000002
00000000
00000000
00000000
00000000
00000000
00000023
00000000
00000000
00000000
00000000
00000000
00000130
00000000
00000000
00001000
00000000
00000001
,
00000100
00000000
00000000
00000000
00000000
00000000
00001001
00000000
00000000
00000100
00000000
00000000
00000010
00000000
00000000
00010000
00000000
00001000
00000000
00000000
00010000
00001000
00000000
00000000
,
00011000
00000000
00000000
00000000
00000000
00000000
01000000
00000000
00000000
10000000
00000000
00100000
00000000
00000000
01000000
00000000
00000000
00010000
00000000
00000000
00000000
00100000
00000000
00000000
,
01000000
00000000
00000000
00000000
00000000
00000000
00100000
00000000
00000000
00001000
00000000
01000000
00000000
00000000
00001000
00000000
00000000
00010000
00000000
00000000
00000000
00000100
00000000
00000000
,
00000010
00000000
00000000
00000000
00000000
00000000
00000001
00000000
00000000
00001000
00000000
00000010
00000000
00000000
00010000
00000000
00000000
00000100
00000000
00000000
00001000
00000000
00000000
00000010
,
00000000
00000000
00000100
00000001
00001000
00000100
00020000
00000000
,
00031000
00000000
00000000
00000000
00000000
00000000
00100000
00000000
00000000
00010000
00000000
10000000
00000000
00000000
01000000
00000000
00000000
00100000
00000000
00000000
00000000
00001000
00000000
00000000
,
00000000
00000000
01000000
00000000
00000000
01000000
00000000
00000000
00100000
00000000
00000000
10000000
00000000
00000000
00000000
00010000
00000000
00000000
00010000
00000000
00000000
00000100
00000000
00000000
,
00000001
00000000
00000000
00000000
00000000
00000000
00000010
00000000
00000000
00000100
00000000
00001000
00000000
00000000
00000010
00000000
00000000
00000100
00000000
00000000
00000001
00000000
00000000
00001000
,
00000000
00000000
00001100
00000100
00010000
00001000
01000000
00100000
,
10000000
00000000
00000000
01000000
00000000
00000000
00000000
00000000
01000000
00000000
00000000
10000000
00010000
00000000
10000000
00000000
00000000
01000000
00000000
00000000
00000000
00000000
00000000
00000000
,
00100000
00000000
00000000
00001000
00000000
00000000
00000000
00000000
00010000
00000000
00000000
00010000
00000010
00000000
00000000
00000100
00000000
00000001
00000000
00000000
00001000
00000100
00000000
00000010
,
00000000
00000000
00000000
00000001
00000000
00000000
00000000
00000000
00000001
00000000
00000000
00000010
00000001
00000000
00000100
00000000
00000000
00000100
00000000
00000000
00000000
00000000
00000000
00000000
,
00000000
00000000
00000000
00000010
00000000
00000000
00000000
00000000
00010000
00000000
00000000
00001000
00010000
00000000
00001000
01000000
00000000
00000000
00100000
00000000
00000000
00100000
00000000
00000000
,
00000000
00000000
00000000
10000000
00000000
00000000
00000000
00000000
01000000
00000000
00000000
01000000
10000000
00000000
00010000
00000000
00000000
00010000
00000000
00000000
00000000
00000000
00000000
00000000
,
00000000
00000000
00000000
01000000
00000000
00000000
00000000
00000000
00001000
00000000
00000000
00010000
00000010
00000000
00000000
00001000
00000000
00000001
00000000
00000000
00001000
00000100
00000000
00000010
,
00000001
00000011
00000000
00001100
00000000
00001010
00000000
00010100
,
00000000
00101000
00000000
10010000
00000000
11000000
00000000
00110000
,
00000000
01000000
00001000
00010000
00001000
00000100
00000001
00000010
,
00000000
00000000
00000100
00000000
00000000
00000100
00010000
00000000
00000000
00001000
00000000
00000000
00200000
00000000
00000000
00000000
00000000
00000000
02300000
00000000
00000000
00000000
00000000
13000000
,
00000000
01000000
00010000
01000000
10000000
00010000
01000000
00100000
,
00000000
00000000
01000000
00000000
00000000
00000000
00002000
00000000
00000000
00000000
00000000
00000000
00023000
00000000
00000000
00000000
00000000
00000000
00030200
00000000
00000000
00000000
00000000
00001300
,
00000001
00000100
00000010
00001000
00000100
00010000
00001000
00100000
,
00000000
00000000
00010000
00000000
00000000
00010000
10000000
00000000
00000000
00100000
00000000
00000000
20000000
00000000
00000000
00000000
00000000
00000000
32000000
00000000
00000000
00000000
00000000
03100000
,
00000000
00001000
01000000
00001000
00010000
00000100
00001000
00000010
,
00000000
00000000
00000100
00000000
00000000
00000001
00001000
00000000
00000000
00001000
00000000
00000000
00000200
00000000
00000000
00000000
00000000
00000000
00010300
00000000
00000000
00001000
00000000
00000000
,
01001000
00000000
00000000
00000000
00000000
00000000
01000000
00000000
00000000
00100000
00000000
00000000
10000000
00000000
00000000
00010000
00000000
01000000
00000000
00000000
00010000
01000000
00000000
00000000
,
01100000
00000000
00000000
00000000
;

//---------------dance-double - ----------------
#NOTEDATA:;
#CHARTNAME:;
#STEPSTYPE:dance-double;
#DESCRIPTION:;
#CHARTSTYLE:;
#DIFFICULTY:Challenge;
#METER:14;
#RADARVALUES:0.506895,0.600916,0.228920,0.000000,0.543686,372.000000,348.000000,24.000000,0.000000,0.000000,0.000000,0.000000,0.000000,0.000000,0.506895,0.600916,0.228920,0.000000,0.543686,372.000000,348.000000,24.000000,0.000000,0.000000,0.000000,0.000000,0.000000,0.000000;
#CREDIT:;
#DISPLAYBPM:110.000000;
#NOTES:
// measure 0
00000000
00000000
00000000
00000000
,  // measure 1
00000000
00000000
00000000
00000000
,  // measure 2
00000000
00000000
00000000
00000000
,  // measure 3
00000000
00000000
00000000
00000000
,  // measure 4
00000000
00000000
00000000
00000000
,  // measure 5
00000000
00000000
00000000
00000000
,  // measure 6
00000000
00000000
00000000
00000000
,  // measure 7
10000000
01000000
10000000
01000000
00010000
01000000
00010000
01000000
,  // measure 8
10000000
00100000
10000000
00100000
00010000
00100000
00010000
00100000
,  // measure 9
10000000
01000000
00100000
00010000
00001000
00000100
00000010
00000001
,  // measure 10
00001010
00010100
10100000
01001000
,  // measure 11
00011000
00001000
00010000
00000001
00000010
00000100
00010000
00000010
,  // measure 12
00000000
00000000
00000100
00000000
00000000
00000100
00000001
00000000
00000000
00001000
00000000
00000000
00000010
00000000
00000000
00010000
00000000
00000000
00001000
00000000
00000000
01000000
00000000
01000000
,  // measure 13
00100000
00000000
00000000
10000000
00000000
00000000
01000000
00000000
00100000
00010000
00000000
00010000
00000000
00000000
10000000
00000000
00000000
00010000
01000000
00000000
00010000
00100000
00000000
00000000
,  // measure 14
00001000
00000000
00000000
00010000
00000000
00000000
00000010
00000000
00000000
00000100
00000000
00000000
00000001
00000000
00000000
00000010
00000000
00000000
00000100
00000000
00000000
00010000
00000000
00001000
,  // measure 15
01000000
00100000
10000000
01000000
10000000
00010000
01000000
00100000
,  // measure 16
00000000
00000000
10000000
00000000
00000000
10000000
00010000
00000000
00000000
00100000
00000000
00000000
00001000
00000000
00000000
00010000
00000000
00000000
00000010
00000000
00000000
00000100
00000000
00000100
,  // measure 17
00000001
00000000
00000000
00000010
00000000
00000000
00000001
00000000
00001000
00000010
00000000
00000010
00000000
00000000
00010000
00000000
00000000
00001000
01000000
00000000
01000000
00100000
00000000
00000000
,  // measure 18
00000000
00000000
10000000
00000000
00000000
10000000
01000000
00000000
00100000
00001000
00000000
00000000
00010000
00000000
00000000
00000010
00000000
00000000
00000100
00000000
00000000
00000001
00000000
00001000
,  // measure 19
00000010
00000000
00000000
00000000
00000000
00000000
00001001
00000000
00000000
00000100
00000000
00000010
00000100
00000000
00000001
00001000
00000000
00000100
00000000
00000000
00000100
00010000
00000000
00001000
,  // measure 20
01000000
00000000
00000000
00000000
00000000
00000000
00100000
00000000
00000000
10000000
00000000
00010000
00000000
00000000
00100000
00000000
00000000
01000000
00000000
00000000
00000000
11000000
00000000
00000000
,  // measure 21
00010000
00000000
00000000
00000000
00000000
00000000
01000000
00000000
00000000
00010000
00000000
00100000
00000000
00000000
00001000
00000000
00000000
00010000
00000000
00000000
00000000
00010010
00000000
00000000
,  // measure 22
00000100
00000000
00000000
00000000
00000000
00000000
00000001
00000000
00000000
00000010
00000000
00000001
00000000
00000000
00001000
00000000
00000000
00000100
00000000
00000000
00010000
00000000
00000000
00000010
,  // measure 23
00000100
00000000
00000000
00000001
00000000
00000000
00000100
00000000
00000000
00010000
00000000
00000000
00000100
00000000
00000000
00000010
00000000
00000000
00000100
00000000
00000000
00000001
00000000
00001000
,  // measure 24
00000100
00000000
00000000
00000000
00000000
00000000
00001100
00000000
00000000
00001000
00000000
00000010
00000000
00000000
00010000
00000000
00000000
01000000
00000000
00000000
00000000
01100000
00000000
00000000
,  // measure 25
00000000
00000000
10000000
00000000
00000000
10000000
00000000
00000000
00010000
00000000
00000000
01000000
00100000
00000000
00000000
01000000
00000000
01000000
00001000
00000000
00000000
00011000
00000000
00000000
,  // measure 26
00000010
00000000
00000000
00000000
00000000
00000000
00000101
00000000
00000000
00001000
00000000
00000100
00000000
00000000
00010000
00000000
00000000
00001000
00000000
00000000
00100000
00000000
00000000
01000000
,  // measure 27
10000000
00000000
00100000
01000000
00001000
00010000
00000100
00000010
,  // measure 28
00000001
00000000
00000000
00000100
00000000
00000000
00000000
00000000
00000010
00000000
00000000
00000010
00001000
00000000
00000100
00000000
00000000
00010000
00000000
00000000
00001000
01000000
00000000
00100000
,  // measure 29
10000000
00000000
00000000
01000000
00000000
00000000
00000000
00000000
10000000
00000000
00000000
00100000
01000000
00000000
00010000
00100000
00000000
00001000
00000000
00000000
00010000
00000010
00000000
00000100
,  // measure 30
00000001
00000000
00000000
00000010
00000000
00000000
00000000
00000000
00000100
00000000
00000000
00000100
00010000
00000000
00000010
00000000
00000000
00001000
00000100
00000000
00000000
00000100
00000000
00000000
,  // measure 31
00010000
00000000
00000000
00001000
00000000
00000000
01000000
00000000
00100000
00000000
00000000
00100000
10000000
00000000
10000000
01000000
00000000
00000000
10010000
00000000
00000000
01001000
00000000
00000000
,  // measure 32
00100000
00000000
00000000
01000000
00000000
00000000
00000000
00000000
00010000
00000000
00000000
00100000
00010000
00000000
10000000
00000000
00000000
10000000
00000000
00000000
00100000
01000000
00000000
01000000
,  // measure 33
00010000
00000000
00000000
00001000
00000000
00000000
00000000
00000000
00000100
00000000
00000000
00000100
00000001
00000000
00000010
00000001
00000000
00001000
00000000
00000000
00000010
00010000
00000000
00001000
,  // measure 34
00100000
10010000
01000000
01001000
00001000
00011000
00010000
00010010
,  // measure 35
00000010
00000000
00000000
00000110
00000000
00000000
00000010
00000000
00000000
00001010
00000000
00000000
00001000
00000000
00000000
00001100
00000000
00000000
00000100
00000000
00000000
00010100
00000000
00000100
,  // measure 36
00010000
00000000
00000000
00001000
00000000
00010000
00000000
00000000
00010000
10000000
00000000
10000000
01000000
00000000
01000000
00100000
00000000
00100000
00001000
00000000
00001000
00100000
00000000
01000000
,  // measure 37
10000000
00000000
00100000
00000000
00000000
01000000
00001000
00000000
00000000
00010000
00000000
00000000
00000010
00000000
00000000
00010000
00000000
00000000
00000100
00000000
00000000
00001000
00000000
00001000
,  // measure 38
00000001
00000000
00000000
00000010
00000000
00000000
00000001
00000000
00001000
00000100
00000000
00010000
00000000
00000000
00000010
00000000
00000000
00000010
00000100
00000000
00000100
00000010
00000000
00000000
,  // measure 39
00001000
00000000
00000000
00000001
00000000
00000000
00000010
00000000
00000000
00000100
00000000
00000000
00010000
00000000
00000000
00001000
00000000
00000000
01000000
00000000
00000000
00100000
00000000
10000000
,  // measure 40
01000000
00100000
00001000
01000000
00010000
00100000
00001000
00000010
,  // measure 41
00000100
00000000
00000010
00000000
00000000
00000010
00000001
00000000
00000000
00001000
00000000
00000000
00000010
00000000
00000000
00010000
00000000
00000000
00000100
00000000
00000000
00001000
00000000
00000010
,  // measure 42
00010000
00000000
00000000
00001000
00000000
00000000
01000000
00000000
01000000
00100000
00000000
10000000
00000000
00000000
00010000
00000000
00000000
10000000
01000000
00000000
10000000
00100000
00000000
00000000
,  // measure 43
01000000
00000000
00001000
00000000
00000000
00010000
00000100
00000000
00000000
00000010
00000000
00000000
00000001
00000000
00000000
00000100
00000000
00000000
00000010
00000000
00000000
00010000
00000000
00000000
,  // measure 44
00010100
00000000
00000000
00000000
00000000
00000000
00000011
00000000
00000000
00001000
00000000
00000010
00010000
00000000
00001000
01000000
00000000
00100000
00000000
00000000
00100000
10000000
00000000
00010000
,  // measure 45
01000000
00000000
00000000
00000000
;
