#TITLE:YOU ARE MY DREAM;
#ARTIST:BAMBEE;
#BANNER:YOU ARE MY DREAM-bn.png;
#BACKGROUND:YOU ARE MY DREAM-bg.png;
#JACKET:YOU ARE MY DREAM-jacket.png;
#MUSIC:YOU ARE MY DREAM.ogg;
#OFFSET:1.573;
#SAMPLESTART:16.25;
#SAMPLELENGTH:20;
#LASTBEATHINT:1.271;
#DISPLAYBPM:135;
#BPMS:0=135;
#BGCHANGES:;

//---------------dance-single - ----------------
#NOTES:
     dance-single:
     :
     Beginner:
     3:
     :
0000
0000
0000
0000
,
0000
0000
0000
0000
,
0000
0000
0000
0000
,
0000
0000
0000
0000
,
0000
0000
0000
0000
,
0000
0000
0000
0000
,
0001
0000
1000
0000
,
1000
0000
0000
0000
,
0000
0000
0010
0000
,
0100
0000
0000
0000
,
0001
0000
0010
0000
,
1000
0000
0000
0000
,
0100
0000
1000
0000
,
0001
0000
1000
0000
,
0010
0000
0100
0000
,
0001
0000
0000
0000
,
0010
0000
0001
0000
,
0100
0000
0000
0000
,
0000
0000
0010
0000
,
0010
0000
1000
0000
,
1000
0000
0001
0000
,
1000
0000
0100
0000
,
0010
0000
0001
0000
,
0001
0000
1000
0000
,
1000
0000
0001
0000
,
0100
0000
0000
0000
,
0010
0000
0100
0000
,
0010
0000
1000
0000
,
0100
0000
0010
0000
,
0100
0000
1000
0000
,
0001
0000
0001
0000
,
1000
0000
0001
0000
,
0100
0000
0010
0000
,
1000
0000
0000
0000
,
0001
0000
0010
0000
,
0010
0000
0010
0000
,
0001
0000
0100
0000
,
0010
0000
1000
0000
,
0100
0000
1000
0000
,
0001
0000
0100
0000
,
0100
0000
0010
0000
,
0100
0000
0001
0000
,
1000
0000
1000
0000
,
1000
0000
0001
0000
,
0100
0000
0010
0000
,
0100
0000
0001
0000
,
0010
0000
0001
0000
,
0100
0000
0010
0000
,
1000
0000
0100
0000
,
1000
0000
0001
0000
,
0010
0000
0001
0000
,
0001
0000
0000
0000
,
1000
0000
0001
0000
,
1000
0000
0010
0000
,
0100
0000
0100
0000
,
0010
0000
0000
0000
,
1000
0000
0001
0000
,
1000
0000
0000
0000
,
0110
0000
0000
0000
,
0000
0000
0000
0000
,
1001
0000
0000
0000
;

//---------------dance-single - ----------------
#NOTES:
     dance-single:
     :
     Easy:
     6:
     :
0000
0000
0000
0000
,
0000
0000
0000
0000
,
0000
0000
0000
0000
,
0000
0000
0000
0000
,
0000
0000
0000
0000
,
0000
0000
0000
0000
,
0001
0000
1000
0100
,
1000
0000
0001
0000
,
0100
0000
0010
1000
,
0002
0000
0000
0003
,
1001
0000
0010
1000
,
0001
0010
0001
0100
,
0010
0000
1000
0100
,
1000
0010
0100
0001
,
0010
0000
0100
0010
,
0001
0100
0001
1000
,
0010
0000
1000
0001
,
2000
0000
0000
3000
,
1001
0000
0010
0100
,
0001
0000
0010
0100
,
1000
0010
1000
0001
,
0100
0000
0010
0100
,
0010
1000
1000
0100
,
0001
0000
0010
0001
,
0100
0000
0001
1000
,
0020
0000
0000
0030
,
0110
0100
0001
1000
,
0010
0000
1000
0100
,
0010
0000
0001
1000
,
0001
0000
0010
0001
,
0100
0000
0010
0100
,
0010
0000
1000
0100
,
0001
0000
0010
0001
,
0200
0000
0000
0300
,
0110
1000
0100
0001
,
0010
0001
0010
0100
,
1000
0010
1000
0001
,
1000
0100
0010
0001
,
0100
0001
0010
0100
,
1000
0010
1000
0001
,
1000
0100
0010
0001
,
0100
0010
0100
0001
,
1001
0000
0010
1000
,
0001
0010
0001
0100
,
2000
3000
0010
0100
,
0010
1000
0100
0010
,
0001
0000
1000
0001
,
1000
0010
1000
0100
,
0002
0003
0010
0001
,
1000
0010
1000
0100
,
0010
0000
0001
0100
,
1000
0000
0010
1000
,
0100
0000
1000
0010
,
0001
0100
0010
1000
,
0100
0000
0010
0001
,
0100
0000
0001
0010
,
1000
0000
0100
1000
,
0002
0000
0000
0003
,
0020
0000
0000
0000
,
0000
0000
0000
0030
,
0110
0000
0000
0000
;

//---------------dance-single - ----------------
#NOTES:
     dance-single:
     :
     Medium:
     9:
     :
0000
0000
0000
0000
,
0000
0000
0000
0000
,
0000
0000
0000
0000
,
0000
0000
0000
0000
,
0000
0000
0000
0000
,
0000
0000
0000
0000
,
0001
0000
0000
0000
1000
0010
0100
0001
,
0000
1000
0000
0001
0000
1000
0100
0010
,
0001
0000
0000
0100
0010
0100
0001
2000
,
0002
0000
0000
0000
3003
0010
0001
1000
,
0001
0000
0100
0000
0010
1000
0100
0010
,
0000
0011
0000
1100
0000
0001
0100
0010
,
1000
0000
0000
0001
1000
0010
0100
0002
,
0000
0000
0013
0001
0000
1000
0001
0200
,
0000
0310
0000
0000
1000
0100
1000
0001
,
0000
0101
0000
1010
0000
0100
0010
1000
,
0001
0000
0000
0010
0100
1000
0001
0200
,
0020
0000
0000
0000
0330
1000
0001
1000
,
0100
0000
0010
0001
0010
0001
0010
0100
,
0000
0000
0000
1000
0010
0100
0010
1000
,
0000
0000
0001
0100
0010
0100
0010
1000
,
0000
0000
0000
0001
0010
0100
1000
0002
,
0000
1003
0010
0100
0010
1000
0100
0010
,
0001
1000
0000
0000
0010
1000
0100
1000
,
0000
0000
0000
0001
1000
0010
1000
0002
,
0000
0203
0000
0000
0300
0010
1000
0001
,
0010
0000
0100
1000
0010
1000
0001
1000
,
0200
0000
0300
0010
0100
0010
0001
1000
,
0000
0000
0000
0010
2000
0000
3001
1000
,
0000
0000
0000
0010
0200
0000
0301
2000
,
0000
3001
0000
0010
0002
0000
0103
0010
,
2000
0000
3000
0001
1000
0010
1000
0100
,
0000
0110
0000
0001
2000
0000
3010
0200
,
0000
0002
0000
0300
0000
1003
0001
1000
,
0001
0000
1000
0010
0001
0000
1000
0100
,
0010
0000
0001
0100
0001
0010
0100
1000
,
0001
0000
1000
0100
1000
0000
0010
0100
,
0001
0000
0010
0001
0010
0100
1000
0001
,
0100
0000
0010
0000
1000
0001
1000
0100
,
0010
0000
0100
0000
1000
0010
0100
0001
,
1000
0100
1000
0000
0001
0100
0001
0000
,
0010
0001
0010
0100
1000
0001
1000
0100
,
0010
0000
0001
0000
1000
0010
0100
0001
,
0000
1010
1001
1100
,
0011
0000
0000
0100
0001
1000
0010
0200
,
0000
0000
0301
1000
0000
0010
1000
0001
,
0000
0101
0000
0000
1000
0100
1000
0001
,
0000
0011
1001
0101
,
1010
0000
0000
0100
1000
0001
1000
0020
,
0000
0000
0130
0001
0000
1000
0001
2000
,
0000
3020
0000
0030
1000
0001
1000
0100
,
0000
0011
0101
1100
,
1010
0000
0000
0100
0001
0010
0100
2000
,
0000
0000
3010
1000
0000
0100
1000
0002
,
0000
0103
0000
0000
0001
1000
0001
0100
,
0000
0110
1001
1100
,
0011
0000
0000
1000
0010
0100
0001
1000
,
0020
0000
0100
0000
1030
0000
0001
1000
,
0000
0020
0000
0000
0000
0000
0000
0000
,
0000
0000
0000
0000
0000
0000
0030
1000
,
0001
0000
0000
0000
;

//---------------dance-single - ----------------
#NOTES:
     dance-single:
     :
     Hard:
     12:
     :
0000
0000
0000
0000
,
0000
0000
0000
0000
,
0000
0000
0000
0000
,
0000
0000
0000
0000
,
0000
0000
0000
0000
,
0000
0000
0000
0000
,
0001
0010
0100
0010
0001
1000
0010
0100
,
0001
0010
0100
1000
0000
1000
0010
0100
,
0010
1000
0100
0010
0001
0100
0001
1000
,
0020
0000
0000
0000
0130
0001
0200
0000
0000
0000
0010
0000
0010
0000
0310
0000
,
1000
0100
0010
0001
0100
0010
1000
0001
,
0000
0011
0000
1100
0000
0001
0100
1000
,
0010
1000
0001
1000
0100
0010
0001
0100
,
0020
0000
1030
0001
0000
0100
0001
1000
,
0000
1100
0010
0001
0100
0010
1000
0001
,
0000
0101
0000
1010
0000
1000
0100
0010
,
0001
0100
0010
1000
0100
0010
0001
1000
,
0002
0000
0000
0000
0013
0100
0020
0000
0000
0000
0001
0000
0001
0000
0031
0000
,
1001
0000
1000
0010
0100
1000
0100
0001
,
0000
0010
0000
0001
0100
0010
1000
0001
,
0000
1000
0010
1000
0100
0010
0001
1000
,
0000
0100
0000
1000
0010
0100
0001
0020
,
0000
0130
1000
0010
1000
0100
0010
0001
,
0100
0001
0000
1000
0001
1000
0010
0100
,
0001
0010
0000
0001
0100
0010
1000
0001
,
1000
0100
0010
0001
0000
0100
0010
0100
,
1001
0000
0010
1000
0100
0010
0001
1000
,
0100
1000
0001
0100
0010
1000
0001
1000
,
0010
0100
0000
0001
1000
0001
0010
0200
,
0000
1300
0000
0001
0001
0010
0001
0100
,
1000
0010
0100
0001
2000
0000
3010
0100
,
0001
0010
0000
0001
1000
0001
0100
0010
,
1000
0100
0010
0001
0100
1000
0100
0001
,
1000
0000
0010
0000
0100
0001
0100
0000
0000
0000
0010
0000
0010
0000
0010
0000
,
1000
0000
0001
0000
0100
0000
0001
0000
0010
0000
0100
0000
1000
0000
0010
0100
,
0010
0000
1000
0000
0100
0000
0010
0000
0001
0000
0100
0000
0001
0000
1000
0010
,
1000
0000
0100
0000
0001
0000
0100
0000
1000
0000
0010
0000
0100
0000
0001
0010
,
0001
0000
1000
0000
0001
0000
0100
0000
1000
0000
0100
0000
0010
0000
0100
0001
,
0100
0000
0010
0000
1000
0000
0001
0000
0010
0000
1000
0000
0010
0000
0001
0100
,
0001
0000
1000
0000
0010
0000
1000
0000
0100
0000
0010
0000
0001
0000
1000
0100
,
1000
0000
0010
0000
0100
0000
1000
0000
0100
0000
0010
0000
0100
0000
0001
0010
,
0001
1000
0010
0100
0001
1000
0010
0100
,
0001
0010
0100
1000
0010
1000
0001
0100
,
0000
0110
0000
1001
1000
0010
0001
0100
,
0010
1000
0100
0010
0001
0100
0001
1000
,
0020
0000
0130
0001
0010
0100
1000
0001
,
0100
0010
0100
0001
1000
0010
1000
0001
,
0000
0011
0000
1100
0001
1000
0001
0100
,
0010
1000
0100
0010
0001
0100
0001
1000
,
0200
0000
0000
0000
1300
0001
1000
0000
0010
0000
0100
0000
0001
0000
1000
0000
,
0100
0010
0001
0100
0001
0010
0100
1000
,
0002
0000
0023
0000
0130
1000
0001
1000
,
0001
0100
0010
1000
0100
0010
0001
1000
,
0002
0000
0000
0000
0013
0000
0100
0000
0000
0000
1000
0000
0010
0000
1000
0001
,
1000
0100
0010
0001
0100
0001
0010
0100
,
2000
0000
3002
0000
0013
0100
1000
0001
,
1000
0010
0100
0001
0010
0100
1000
0001
,
0101
0000
0000
0000
1000
0010
1000
0010
1000
0000
0000
0000
0001
0000
1000
0000
,
0000
0020
0000
0000
0000
0000
0000
0000
,
0000
0000
0000
0000
0000
0000
0000
0000
0000
0000
0000
0000
0000
0000
0130
0001
,
1000
0000
0000
0000
;
