#TITLE:Xepher;
#SUBTITLE:(Light and Darkness Dragon REMIX);
#ARTIST:DeadballP;
#TITLETRANSLIT:;
#SUBTITLETRANSLIT:;
#ARTISTTRANSLIT:;
#GENRE:;
#CREDIT:;
#BANNER:Xepher (Light and Darkness Dragon REMIX)-bn.png;
#BACKGROUND:Xepher (Light and Darkness Dragon REMIX)-bg.png;
#LYRICSPATH:;
#CDTITLE:;
#MUSIC:Xepher (Light and Darkness Dragon REMIX).ogg;
#OFFSET:0.000000;
#SAMPLESTART:9.667000;
#SAMPLELENGTH:20.000000;
#SELECTABLE:YES;
#DISPLAYBPM:180.000000;
#BPMS:0.000000=180.000000
;
#STOPS:22.000000=2.000000,
59.750000=1.333000,
303.500000=1.333000
;
#BGCHANGES:;
#KEYSOUNDS:;
#ATTACKS:;

//---------------dance-single - ----------------
#NOTES:
     dance-single:
     :
     Hard:
     17:
     0.936304,1.074499,0.270088,0.522170,1.084853,728.000000,698.000000,30.000000,58.000000,0.000000,0.000000,0.936304,1.074499,0.270088,0.522170,1.084853,728.000000,698.000000,30.000000,58.000000,0.000000,0.000000:
0000
0000
0000
0000
,
0000
0000
0000
0000
,
2200
3300
0202
0303
,
2200
3300
0022
0000
,
0000
0000
0000
0030
,
1003
0000
0000
0000
0001
0000
0000
0000
0202
0000
0300
0000
1003
0100
0010
0001
,
0200
0000
0000
0000
0000
0000
0000
0000
0000
0000
0000
0000
0300
0000
0001
1000
,
0002
0000
0000
0013
,
2200
0300
0002
0003
,
0200
0300
0020
3030
,
2002
3000
0200
0303
,
2010
0000
0010
0000
0010
0000
3010
1000
,
0202
0000
0000
0000
0000
0000
0000
0000
0000
0000
0000
0000
0303
0000
0001
1000
,
0002
0000
0000
0000
,
0000
0000
0000
0000
0000
0000
0000
0000
0000
0000
0000
0000
0003
0000
0000
0110
,
1000
0000
0000
1000
0000
0000
1000
0001
1000
0000
0100
0010
0100
0000
1000
0000
,
0001
0000
0100
0001
0010
0000
0100
1000
0010
1000
0001
0000
0100
0000
0010
1000
,
0001
0000
1000
0100
0010
0000
0001
0100
0010
1000
0001
0000
0010
0000
0100
1000
,
0001
0000
0010
0001
0100
0000
0001
1000
0100
1000
0010
0000
0100
0000
0001
1000
,
0100
0000
0010
0001
0100
0000
0001
1000
0010
0100
0001
0000
1000
0000
0010
1000
,
0100
0000
0010
0001
0100
0000
0001
1000
0010
1000
0100
0000
0010
0000
0001
1000
,
0001
0000
0010
0100
1000
0000
0010
1000
0001
0010
0100
0000
0010
0000
0001
1000
,
0010
0000
0100
0001
1000
0000
0001
0010
0100
0010
0001
0000
1000
0000
0010
0100
,
0001
0000
0011
0000
0011
0000
0011
0000
1000
0001
0000
1000
0001
0100
0010
1000
,
0001
0010
0001
0000
1000
0010
1000
0010
0100
0001
1000
0001
0010
0000
1100
0000
,
0000
0000
0001
0000
1000
0000
0010
0100
0000
0100
0001
0000
1000
0010
1000
0001
,
0100
0001
0010
0001
0100
0001
0010
0001
0100
0001
0010
0001
0100
0000
1010
0000
,
0000
0000
0001
0000
0010
0000
0001
0100
0010
1000
0100
0000
1000
0001
1000
0001
,
0100
0001
1000
0001
0010
0001
1000
0001
0100
0001
1000
0001
0010
0000
0101
0000
,
0000
0000
1000
0000
0001
0000
0010
0100
0000
0100
1000
0000
0001
0100
0001
0010
,
0100
1000
0010
1000
0010
1000
0100
1000
0100
1000
0010
1000
0010
1000
0100
0000
,
0000
0000
0110
0000
0110
0000
0110
0000
0001
0010
0100
1000
0001
0010
0100
1000
,
0000
0000
1000
0000
0000
0001
0000
0000
0000
1001
0000
0100
0000
0010
0000
0000
,
1000
0001
0010
0000
0001
0010
0100
0000
1000
0010
0100
0000
0001
1000
0001
0000
,
0100
0001
0010
0001
0010
0000
0100
0000
1000
0010
1000
0001
1000
0000
0100
0000
,
0010
0000
0001
0100
0001
0000
1000
0010
1000
0000
0100
0010
0001
0000
1000
0001
,
0100
0000
0010
0000
1000
0000
0001
0010
0001
1000
0100
0000
1000
0010
0100
0001
,
1000
0000
0001
0010
0001
0000
0010
0100
1000
0000
0010
1000
0001
0000
1000
0100
,
0010
0001
0010
0001
1000
0000
0010
0000
0100
0001
1000
0100
1000
0000
0001
0000
,
0010
0001
0100
0001
1000
0000
0010
0000
0100
0001
0010
0001
0100
0000
0010
1000
,
0001
0000
0010
0100
1000
0000
0001
1000
0001
0000
0010
0001
0010
0100
1000
0001
,
0200
0000
0000
0000
0310
0000
1000
0100
1000
0000
0001
0000
0100
0000
0001
0010
,
0002
0000
0000
0000
1003
0010
1000
0010
0100
0001
0100
0001
0010
0100
1000
0001
,
0200
0000
0000
0000
0310
1000
0010
0000
0100
0000
0001
0010
0100
0000
1000
0001
,
1000
0000
0010
0100
0001
0000
0000
0000
1001
0000
0100
0010
1000
0000
0000
0000
,
0102
0000
0000
0000
0013
0001
0100
0010
1000
0000
0001
0000
1000
0010
0100
0001
,
2000
0000
0000
0000
3100
0010
0100
0010
0001
1000
0001
1000
0010
1000
0001
0100
,
0020
0000
0000
0000
1030
0000
0100
0010
0002
0000
0000
0000
1003
0001
0100
0010
,
0200
0000
0000
0000
0301
0010
0100
0010
0001
0100
0010
0100
0001
0010
0100
1000
,
0002
0000
0000
0000
1003
0000
0010
1000
0200
0000
0000
0000
0310
0000
0001
1000
,
0020
0000
0000
0000
1030
0100
0010
0100
1000
0010
0100
0010
0100
0001
1000
0000
,
1010
0002
0023
0230
,
2300
3020
2030
3002
,
0103
0000
0001
0010
0000
0010
0100
0000
1000
0010
0000
1000
0001
0000
0100
0010
,
1000
0000
0001
0100
0001
0000
0010
0000
0100
1000
0010
0000
1000
0001
0100
0010
,
1000
0000
0001
0010
0001
0000
1000
0100
1000
0000
0010
0100
0001
0000
0010
0100
,
0010
0000
0100
1000
0001
0000
1000
0010
1000
0000
0001
1000
0100
0000
0010
0001
,
0100
0000
0010
1000
0010
0100
0001
0000
0010
0000
0100
0010
0001
1000
0001
0000
,
0011
0000
0000
0000
0100
1000
0100
1000
0001
0000
0100
0000
0010
1000
0010
0100
,
0001
0000
0010
0001
1000
0000
0001
1000
0010
0000
1000
0100
0010
0000
0100
1000
,
0001
0000
0010
0001
0100
0000
0001
1000
0010
0000
1000
0100
0010
0001
0100
0000
,
2001
0000
0000
0000
3010
0000
1000
0100
0020
0000
0000
0000
0031
1000
0001
0000
,
0201
0000
0000
0000
0310
1000
0100
1000
0002
0000
0000
0000
0013
0000
0100
0000
,
2100
0000
0000
0000
3001
0000
1000
0010
1000
0000
0100
0000
0010
0000
0001
1000
,
0001
0000
0000
0000
0110
0000
1000
0010
1000
0000
0010
0100
0001
1000
0100
0000
,
0020
0000
0000
0000
0031
0000
0100
0001
1000
0000
0010
0000
1000
0100
0010
0001
,
0200
0000
0000
0000
0301
0010
0001
1000
0100
0000
0010
0000
0001
0000
1000
0010
,
2000
0000
0000
0000
3001
0000
0010
0100
2000
0000
0000
0000
3010
1000
0100
0010
,
0002
0000
0000
0000
1003
0001
0100
0010
1000
0001
0100
0010
1000
0001
0100
0010
,
2000
0000
0000
0000
3100
0000
0010
0001
0200
0000
0000
0000
0301
0000
0010
0001
,
2000
0000
0000
0000
3001
0100
0010
1000
0100
0000
0010
0001
0100
0000
0010
1000
,
0002
0000
0000
0000
,
0020
0030
2000
3003
,
0100
0000
0001
0010
0100
0000
1000
0001
1000
0001
0100
0000
0010
1000
0010
0100
,
0001
0000
0010
0001
0100
0000
0001
1000
0100
1000
0010
0000
0100
0001
1000
0000
,
0001
0010
1000
0010
0001
0000
1000
0100
0001
0100
1000
0000
1010
0000
0101
0000
,
1000
0010
0001
0010
0001
0010
0100
0010
0001
0100
0001
1000
0100
1000
0100
1000
,
0010
0000
0000
0000
;

//---------------dance-single - ----------------
#NOTES:
     dance-single:
     :
     Medium:
     13:
     0.627633,0.693225,0.342111,0.567184,0.180059,488.000000,450.000000,38.000000,63.000000,0.000000,0.000000,0.627633,0.693225,0.342111,0.567184,0.180059,488.000000,450.000000,38.000000,63.000000,0.000000,0.000000:
0000
0000
0000
0000
,
0000
0000
0000
0000
,
2200
3300
0202
0303
,
2200
3300
0022
0000
,
0000
0000
0000
0030
,
1003
0000
0000
0000
0001
0000
0000
0000
0202
0000
0300
0000
1003
0001
1000
0001
,
2000
0000
0000
0000
0000
0000
0000
0000
0000
0000
0000
0000
3000
0000
0001
0100
,
0002
0000
0000
0013
,
2200
0300
0002
0003
,
0200
0300
0020
3030
,
2002
3000
0200
0303
,
2020
0000
0030
0000
0010
0000
3010
1000
,
0002
0000
0000
0000
0000
0000
0000
0000
0000
0000
0000
0000
0003
0000
0100
0010
,
0200
0000
0000
0000
,
0000
0000
0000
0000
0000
0000
0000
0000
0000
0000
0000
0000
0000
0000
0000
0310
,
1000
0000
0000
1000
0000
0000
1000
0001
1000
0000
0100
0000
0100
0000
0000
0000
,
2000
0000
0000
0000
3002
0000
0000
0000
0013
0001
0010
0000
0100
0000
1000
0000
,
0020
0000
0000
0000
0230
0000
0000
0000
0301
0100
0001
0000
1000
0000
0010
0000
,
0200
0000
0000
0000
0302
0000
0000
0000
1003
0001
1000
0000
0100
0000
0010
0000
,
0002
0000
0000
0000
2003
0000
0000
0000
3010
1000
0010
0000
0100
0000
0001
0000
,
2000
0000
0000
0000
3200
0000
0000
0000
1300
0001
1000
0000
0010
0000
0100
0000
,
0002
0000
0000
0000
0023
0000
0000
0000
0031
0100
0001
0000
1000
0000
0010
0000
,
0200
0000
0000
0000
0320
0000
0000
0000
1030
0010
1000
0000
0001
0000
0100
0000
,
0000
0000
0001
0000
0001
0000
0001
0000
1000
0001
0000
1000
0001
0000
0100
0000
,
0020
0000
0000
2030
0000
0000
3002
0000
0000
2003
0000
0000
3100
0000
1001
0000
,
0000
0000
0010
0000
0001
0000
0000
0100
0000
0010
0000
0000
1000
0000
0001
0000
,
0020
0000
0000
0230
0000
0000
0320
0000
0000
0032
0000
0000
1003
0000
0101
0000
,
0000
0000
0010
0000
1000
0000
0000
0000
0001
0100
0001
0000
0010
0000
0100
0000
,
2000
0000
0000
3002
0000
0000
0023
0000
0000
0230
0000
0000
0310
0000
0011
0000
,
0000
0000
1000
0000
0001
0000
0000
0010
0000
0000
0001
0000
0100
0000
1000
0000
,
0020
0000
0000
2030
0000
0000
3200
0000
0000
0320
0000
0000
0031
1000
0001
0000
,
0000
0000
0100
0000
0100
0000
0100
0000
0100
0000
0100
0000
0100
0010
0100
0010
,
0000
0000
1000
0000
0000
0001
0000
0000
0000
1001
0000
0000
0000
0000
0000
0000
,
0010
1000
0010
0100
0001
0010
0001
1000
,
0100
0010
0001
0000
1000
0001
0100
0000
,
0010
1000
0001
1000
0100
0010
0001
0000
,
1000
0100
0010
0000
0001
0100
1000
0000
,
0010
1000
0010
0100
0001
0010
0001
1000
,
0001
0010
0100
0010
0001
1000
0100
0010
,
0001
0100
1000
0000
0001
0010
0100
0000
,
1000
0001
0010
0001
1000
0010
0100
0001
,
0011
0000
0100
0010
1000
0001
1000
0100
,
1100
0000
0001
0100
0010
1000
0001
0100
,
0101
0000
0010
1000
0001
1000
0100
0010
,
0001
0100
1001
0000
1000
0010
1001
0000
,
0110
0000
1000
0001
0010
0001
0100
0010
,
1000
0000
0001
1000
0100
1000
0001
0000
,
0011
1000
0100
0000
1010
0001
0100
0000
,
0010
0000
1000
0001
0010
0100
0010
0001
,
1001
0000
0010
1000
0101
0000
0010
0001
,
1100
0000
0001
0010
0001
1000
0010
0100
,
0210
0001
0010
1000
,
0010
0301
0100
1000
,
1001
0000
0010
1000
0001
1000
0100
0010
,
0001
0100
0001
0010
0001
0100
0010
1000
,
0100
0010
0001
0100
0001
0010
0001
1000
,
0100
0010
0100
0001
0100
1000
0010
0100
,
0001
0010
0001
0100
0001
0010
0001
0100
,
0010
1000
0100
0010
0001
0100
0010
1000
,
0100
0001
0100
1000
0010
0100
0001
1000
,
0100
0000
0010
0000
0001
0000
1000
0000
0010
0000
1000
0000
0001
0100
0001
0000
,
0012
0000
0000
0000
1003
0000
0001
0100
0001
0000
0010
0000
0100
0000
0000
0000
,
1200
0000
0000
0000
0310
0000
0001
1000
0001
0000
0100
0000
0010
0000
1000
0000
,
2010
0000
0000
0000
3001
0000
0100
0010
0100
0000
0010
0000
1000
0000
0001
0000
,
0010
0100
1001
0000
0100
0010
1001
0000
,
0201
0000
0000
0000
0310
0000
1000
0100
1000
0000
0001
0000
1000
0000
0000
0000
,
2100
0000
0000
0000
3010
0000
1000
0001
1000
0000
0100
0000
0010
0000
0000
0000
,
0011
0000
1000
0001
1010
0000
0100
0001
,
0010
0000
0001
0100
1000
0001
1000
0100
,
0110
0000
0001
1000
0110
0000
1000
0001
,
1010
0000
0000
0000
0100
0000
0001
0000
0010
0000
0001
0000
0100
0000
1000
0001
,
2000
0000
0000
0000
,
0020
0030
0020
3030
,
0100
0001
0010
0001
0010
0100
1000
0000
,
0001
0010
0001
0100
1000
0010
0001
0000
,
0100
0010
0100
0001
1000
0100
0010
0011
,
1000
0001
1000
0100
0010
0001
0100
0001
,
0010
0000
0000
0000
;

//---------------dance-single - ----------------
#NOTES:
     dance-single:
     :
     Easy:
     9:
     0.442430,0.554580,0.342111,0.495161,0.004501,344.000000,306.000000,38.000000,55.000000,0.000000,0.000000,0.442430,0.554580,0.342111,0.495161,0.004501,344.000000,306.000000,38.000000,55.000000,0.000000,0.000000:
0000
0000
0000
0000
,
0000
0000
0000
0000
,
2000
3000
0002
0003
,
2000
3000
0020
0000
,
0000
0000
0000
0030
,
1000
0001
0101
1000
,
2200
0000
0000
3300
,
0022
0000
0033
0010
,
2100
0000
0001
0000
,
0100
0000
3010
0000
,
1002
0000
0103
0000
,
2020
0000
3030
0010
,
0202
0000
0000
0303
,
0220
0000
0000
0000
,
0000
0000
0000
0000
0000
0000
0000
0330
,
1000
0000
1000
0000
1000
0001
1000
0000
,
0001
0000
0010
0000
0001
0100
0010
0000
,
1000
0000
0100
0000
0010
0001
0010
0000
,
0100
0000
0010
0000
0001
1000
0010
0000
,
0100
0000
0010
0000
1000
0001
1000
0000
,
0001
0000
0010
0000
0001
1000
0001
1000
,
0100
0000
0010
0000
0001
0100
0001
0100
,
0010
0000
0100
0000
0010
1000
0010
0000
,
0000
1000
0001
1000
0001
0000
1001
0000
,
0010
0000
1000
0000
0010
0100
0001
0100
,
0000
0000
0110
0000
1000
0001
0100
0000
,
0001
0000
0010
0000
0001
1000
0100
0010
,
0000
0000
0011
0000
1000
0002
0000
0000
,
0013
0000
0001
0000
1000
0010
0100
0001
,
0000
0000
1010
0000
1000
0001
0100
0000
,
0001
0000
0010
0000
0100
0010
0001
1000
,
0000
0001
0100
0001
0100
0001
0100
0001
,
0000
0000
1000
0000
0000
0000
0000
0000
0000
1001
0000
0000
0000
0000
0000
0000
,
0101
0000
1000
0000
0010
0100
0010
0100
,
0001
0000
0010
0000
0001
0000
1000
0100
,
1000
0010
1000
0001
,
0010
0000
0100
0000
0010
0001
1000
0001
,
0100
0000
0010
1000
0010
0000
0100
0000
,
0001
0010
0001
0000
1000
0000
0010
0000
,
0100
0001
0100
0000
0010
0000
1000
0000
,
1100
0000
0001
0000
0100
0010
1000
0000
,
2020
3030
0001
0100
,
0020
0000
1030
0000
,
0220
0000
0330
0000
1000
0000
0001
0100
,
0002
0013
2000
3100
,
0022
0033
0100
1000
,
2200
3300
0001
1000
,
2002
3003
0220
0000
,
0330
0000
1000
0010
0100
0001
0010
0100
,
2000
3000
0002
0003
,
0200
0000
0310
1000
0010
0100
0001
0000
,
1010
0001
1000
0001
,
1000
0100
0010
0001
,
1001
0000
0010
1000
0001
0000
0010
0000
,
0001
0100
0010
0100
0001
0100
0010
0000
,
0101
0000
1000
0001
1000
0000
0100
0010
,
0001
0000
1000
0001
1000
0010
0100
0001
,
1000
0000
0001
0000
0010
0001
0010
0100
,
1000
0000
0001
0100
0001
0000
1000
0100
,
1000
0000
0010
1000
0001
0000
0001
0000
,
0011
0000
0100
0010
0001
1000
0001
0100
,
0020
0000
1000
0130
,
0201
0000
0310
0000
,
2020
0030
0001
3010
,
1100
0011
0101
1100
,
0202
0303
0010
1000
,
0220
0330
1000
0001
,
0022
0033
2200
0000
,
3300
0000
0001
1000
0001
0010
0100
1000
,
0002
0003
0020
0030
,
0200
0000
1300
0001
1000
0000
0010
0100
,
0002
0000
0000
0000
,
1000
0000
1003
0000
,
1001
0000
0010
1000
0010
0100
0001
0000
,
0011
0000
0100
1000
0001
1000
0010
0000
,
0101
0000
1000
0100
0010
0001
1000
0001
,
2000
3020
0230
0302
,
0013
0000
0000
0000
;

//---------------dance-single - ----------------
#NOTES:
     dance-single:
     :
     Beginner:
     4:
     0.186489,0.277290,0.126041,0.072023,0.000000,145.000000,131.000000,14.000000,8.000000,0.000000,0.000000,0.186489,0.277290,0.126041,0.072023,0.000000,145.000000,131.000000,14.000000,8.000000,0.000000,0.000000:
// measure 0
0000
0000
0000
0000
,  // measure 1
0000
0000
0000
0000
,  // measure 2
1000
0000
0001
0000
,  // measure 3
1000
0000
0010
0000
,  // measure 4
0000
0000
0000
0000
,  // measure 5
1000
0000
0001
0000
,  // measure 6
1001
0000
0000
0000
,  // measure 7
0110
0000
0000
0000
,  // measure 8
1001
0000
0000
0000
,  // measure 9
0000
0000
0000
0000
,  // measure 10
0110
0000
0000
0000
,  // measure 11
1001
0000
0000
0000
,  // measure 12
0110
0000
0000
0000
,  // measure 13
1001
0000
0000
0000
,  // measure 14
0000
0000
0000
0000
,  // measure 15
1000
1000
1000
0000
,  // measure 16
0001
0001
0001
0001
,  // measure 17
0000
0000
0000
0000
,  // measure 18
0100
0100
0100
0100
,  // measure 19
0000
0000
0000
0000
,  // measure 20
0010
0010
0010
0010
,  // measure 21
0000
0000
0000
0000
,  // measure 22
1000
1000
1000
1000
,  // measure 23
0000
0001
0001
0000
,  // measure 24
0020
0000
0000
0000
,  // measure 25
0030
0000
0001
0000
,  // measure 26
0200
0000
0000
0000
,  // measure 27
0300
0000
0010
0000
,  // measure 28
2000
0000
0000
0000
,  // measure 29
3000
0000
1000
0000
,  // measure 30
0002
0000
0000
0003
,  // measure 31
0000
0100
0100
0100
,  // measure 32
0000
0000
0000
0000
,  // measure 33
0110
0000
0000
0000
,  // measure 34
1000
0000
0001
0000
,  // measure 35
0010
0000
0001
0000
,  // measure 36
0100
0000
0010
0000
,  // measure 37
1000
0000
0100
0100
,  // measure 38
0100
0000
1000
0000
,  // measure 39
0001
0001
0001
0000
,  // measure 40
0100
0000
0010
0000
,  // measure 41
1001
0000
0000
0001
,  // measure 42
0001
0000
1000
0000
,  // measure 43
0100
0000
0010
0000
,  // measure 44
0001
0001
0001
0001
,  // measure 45
0001
0000
0100
0000
,  // measure 46
0001
0000
1000
0000
,  // measure 47
0010
0000
0020
0000
,  // measure 48
0000
0000
0030
0000
,  // measure 49
1000
0000
1000
0000
,  // measure 50
0002
0000
0003
0000
,  // measure 51
0110
0000
0000
0000
,  // measure 52
0000
0000
0000
0000
,  // measure 53
1000
0000
0000
0000
,  // measure 54
0001
0000
0000
0000
,  // measure 55
0100
0000
0000
0000
,  // measure 56
0010
0000
1000
0001
,  // measure 57
1000
0000
0100
0000
,  // measure 58
1000
0000
0001
0000
,  // measure 59
0100
0000
0010
0100
,  // measure 60
0001
0000
1000
0001
,  // measure 61
0010
0000
0100
1000
,  // measure 62
0001
0000
0100
0000
,  // measure 63
0001
0000
0010
0000
,  // measure 64
0001
1000
0001
1000
,  // measure 65
0100
0000
0100
0010
,  // measure 66
0001
0000
1000
0000
,  // measure 67
0001
0000
0200
0000
,  // measure 68
0000
0000
0300
0000
,  // measure 69
0010
0000
0010
0000
,  // measure 70
2000
0000
3000
0000
,  // measure 71
1001
0000
0000
0000
,  // measure 72
0010
0000
0010
0000
,  // measure 73
0110
0000
0000
1000
,  // measure 74
1001
0000
0000
0010
,  // measure 75
0110
0000
0000
0000
,  // measure 76
1000
1000
1000
1000
,  // measure 77
0010
0000
0000
0000
;
