#TITLE:Working for the Weekend;
#ARTIST:Loverboy;
#BANNER:Working for the Weekend-bn.png;
#BACKGROUND:Working for the Weekend-bg.png;
#JACKET:Working for the Weekend-jacket.png;
#MUSIC:Working for the Weekend.ogg;
#SAMPLESTART:65.2;
#SAMPLELENGTH:20;
#DISPLAYBPM:145:149;
#BPMS:0=146,4=147,16=148,32=147.3,36=148.35,60=147.5,68=148.25,72=147.875,80=146.935,92=147.4,100=145,112=146.85,160=146.3,176=148.1,180=146.7,184=147.54,188=147.25,192=149,212=147.819,220=149.3,232=148.625,240=147.92;
#BGCHANGES:;

//---------------dance-single - ----------------
#NOTES:
     dance-single:
     :
     Beginner:
     3:
     :
0000
0000
0000
0000
,
0000
0000
0000
0000
,
0000
0000
0000
0000
,
0000
0000
0000
0000
,
0000
0000
0000
0000
,
0010
0000
0010
0000
,
0010
0000
0000
0000
,
1000
0000
1000
0000
,
1000
0000
0000
0000
,
0000
1001
0000
0000
,
0100
0000
0000
0000
,
0001
0000
1000
0000
,
0002
0000
0000
0003
,
0000
1001
0000
0000
,
0010
0000
0000
0000
,
1000
0000
1000
0000
,
0001
0000
0001
0000
,
0000
0110
0000
0000
,
0001
0000
0000
0000
,
0010
0000
0001
0000
,
2000
0000
0000
3000
,
0000
0110
0000
0000
,
0100
0000
0001
0000
,
0001
0000
1000
0000
,
0001
0000
1000
0000
,
0010
0000
0010
0000
,
1000
1000
1000
0000
,
0001
0000
0100
0000
,
0001
0000
0100
0000
,
0010
0000
1000
0000
,
0001
0001
0001
0000
,
0010
0000
0100
0000
,
0010
0000
0001
0000
,
1000
0000
0001
0000
,
0100
0100
0100
0000
,
0010
0000
0100
0000
,
0001
0000
1000
0000
,
0001
0000
0010
0000
,
0001
0001
0001
0000
,
0100
0000
0010
0000
,
0110
0000
0000
0000
,
0001
0000
0001
0000
,
0001
0000
0000
0000
,
1000
0000
1000
0000
,
1000
0000
0000
0000
,
0010
0000
0010
0000
,
0010
0000
0000
0000
,
2000
0000
0000
0000
,
0000
0000
3000
0000
,
0002
0000
0000
0000
,
0000
0000
0003
0000
,
0200
0000
0000
0000
,
0000
0000
0300
0000
,
0020
0000
0000
0000
,
0000
0000
0030
0000
,
0100
0100
0100
0000
,
0001
0000
1000
0000
,
0010
0010
0010
0000
,
1000
0000
0100
0000
,
1000
1000
1000
0000
,
0001
0000
1000
0000
,
0020
0000
0000
0000
,
0000
0000
0000
0000
,
0000
0000
0000
0000
,
0000
0000
0000
0000
0000
0000
0030
0000
0000
0000
0000
0000
0000
0000
0000
0000
0000
0000
0000
2002
0000
0000
0000
0000
,
0000
0000
3003
0000
;

//---------------dance-single - ----------------
#NOTES:
     dance-single:
     :
     Easy:
     7:
     :
0000
0000
0000
0000
,
0000
0000
0000
0000
,
0000
0000
0000
0000
,
0000
0000
0000
0000
,
0000
0000
0000
0000
,
0010
1000
0100
0001
,
0100
1000
0100
0001
,
0010
0100
1000
0010
,
0001
0100
0010
1000
,
0001
0101
1000
0100
,
1000
0001
0100
0010
,
1000
0100
1000
0010
,
0100
0001
0010
0100
,
1000
1010
0001
1000
,
0010
0000
0100
0000
0000
0001
0000
1000
,
0010
1000
0100
0001
,
0010
1000
0100
0001
,
0010
0011
0100
0001
,
0010
1000
0100
0001
,
1000
0001
1000
0010
,
1000
0100
0001
0010
,
0100
1100
0010
0100
,
0010
0000
1000
0000
0100
0010
0000
0001
,
0000
1000
0010
0100
,
0001
0010
0001
1000
,
1001
0000
0010
0000
1000
0000
0000
0100
,
0000
1000
0000
0001
0000
1000
0000
0010
,
0000
0000
0101
0000
0000
1100
0000
0000
,
0101
0000
0000
1100
0000
0000
0101
0000
,
0000
0000
0010
0000
1000
0000
0000
0001
,
0000
0010
0000
0001
0000
0100
0000
1000
,
0000
0000
1010
0000
0000
0011
0000
0000
,
1010
0000
0000
0011
0000
0000
1010
0000
,
0000
0000
0100
0000
0010
0000
0000
0001
,
0000
0100
0000
0001
0000
1000
0000
0010
,
0000
0000
0110
0000
0000
1001
0000
0000
,
0110
0000
0000
1001
0000
0000
0110
0000
,
0000
0000
1000
0000
0100
0000
0000
1000
,
0000
0010
0000
0001
0000
0100
0000
0010
,
0000
1000
0100
0001
,
1001
0010
0100
0010
,
1000
0100
1000
0001
,
0100
0010
0100
0001
,
0010
0100
1000
0010
,
1000
0001
1000
0100
,
1000
0010
0100
0010
,
1000
0100
0001
0010
,
2000
0000
3002
0000
,
0013
0001
0100
1000
,
0020
0000
0230
0000
,
0301
0010
0001
1000
,
0200
0000
0320
0000
,
0130
1000
0010
0001
,
2000
0000
3002
0000
,
0013
0100
0010
1001
,
0100
0010
0100
0001
,
0010
0100
2000
3000
,
0001
0010
0001
0100
,
1000
0010
0002
0003
,
0100
0001
0010
0100
,
1000
0010
0001
0100
,
2020
0000
0000
0000
,
0000
0000
0000
0000
,
0000
0000
0000
0000
,
0000
0000
0000
0000
0000
0000
0000
0000
0000
0000
0000
0000
3030
0000
0000
0000
0000
0000
0000
2002
0000
0000
0000
0000
,
0000
0000
3003
0000
;

//---------------dance-single - ----------------
#NOTES:
     dance-single:
     :
     Medium:
     10:
     :
0000
0000
0000
0000
,
0000
0000
0000
0000
,
0000
0000
0000
0000
,
0000
0000
0000
0000
,
0000
0000
0000
0000
,
0010
1000
0000
0100
1000
0000
0001
0100
,
0000
0001
0010
0100
1000
0100
0010
0001
,
0000
0100
0000
0010
1000
0000
0001
1000
,
0000
0001
0010
0100
1000
0100
0010
0001
,
0000
0000
2200
0000
3300
0001
1000
0010
,
0000
0100
0002
0000
0013
0100
1000
0001
,
0100
0020
0000
0000
1030
0000
0001
1000
,
0000
0100
0010
0000
0001
1000
0001
1000
,
0010
0000
0202
0000
0303
1000
0010
0100
,
0000
0001
2000
0000
0000
0010
0000
3100
,
1000
0010
0100
0000
0001
0010
0000
0001
,
1000
0000
0010
1000
0000
0100
0010
0000
,
0001
0000
0022
0000
0033
0100
0001
1000
,
0000
0010
2000
0000
3001
1000
0001
0000
,
0100
0010
1000
0000
0001
0000
1000
0010
,
0000
0100
0002
0000
0013
0100
0010
0100
,
1000
0000
2020
0000
3030
0001
1000
0010
,
0000
0100
0000
0010
1000
0100
0000
0001
,
0010
0001
0100
0000
0010
1000
0000
0001
,
1000
0000
0100
0010
0000
0001
1000
0000
,
0110
0000
1000
0010
1000
0100
0000
1100
,
0000
0011
0000
0101
0000
1010
0000
1001
,
0000
0001
0100
0000
0010
1000
0000
0100
,
0010
0000
0001
1000
0000
0001
0100
0000
,
1001
0000
0010
1000
0001
0010
0000
0011
,
0000
1100
0000
0101
0000
1010
0000
1100
,
0000
0001
0010
0000
0001
0100
0000
0010
,
1000
0000
0100
0010
0000
0100
1000
0000
,
1001
0000
0001
0010
0001
0100
0000
0110
,
0000
1010
0000
0101
0000
0011
0000
1001
,
0000
0100
0001
0000
0010
0100
0000
1000
,
0010
0000
1000
0001
0000
1000
0100
0000
,
0110
0000
0001
0010
0001
0100
0000
0110
,
0000
1010
0000
1100
0000
0011
0000
0101
,
0000
1000
0010
0200
0000
0301
1000
0000
,
0010
1000
0100
1000
0100
1000
0100
1000
,
0000
0001
1000
0000
0010
1000
0000
0101
,
0000
0001
0010
0001
0010
0001
0010
0001
,
0000
0100
0010
0000
1000
0001
0000
1010
,
0000
0100
0001
0100
0001
0100
0001
0100
,
0000
0010
1000
0000
0100
0010
0000
0011
,
0000
1000
0010
0000
0100
0010
1000
0001
,
0020
1000
0100
0001
,
1000
0000
0001
0000
0130
1000
0010
0000
,
0002
0000
0010
0000
1003
0100
0001
0000
,
0010
0001
0010
0100
1000
0001
0100
0000
,
0020
0001
0100
1000
,
0100
0000
0001
0000
1030
0001
0010
0000
,
0200
0000
1000
0000
0301
0100
0010
0000
,
0001
1000
0001
1000
0001
1000
0010
0000
,
0100
0000
0100
0000
0100
0020
0000
2030
,
0000
3002
0000
2003
0000
3200
0000
0300
,
0010
0000
0010
0000
0010
0002
0000
2003
,
0000
3002
0000
0203
0000
0000
0300
0000
,
0001
0000
0001
0000
0001
2000
0000
3020
,
0000
2030
0000
3200
0000
0310
0001
2000
,
0000
0000
0000
0000
0000
0000
0000
0000
0000
0002
0000
0000
0000
0000
0000
0000
,
0000
0000
0000
0000
,
0000
0000
0000
0000
,
0000
0000
0000
0000
0000
0000
0000
0000
0000
0000
0000
0000
0000
0000
0000
0000
3003
0000
0000
2002
0000
0000
0000
0000
,
0000
0000
3003
0000
;

//---------------dance-single - ----------------
#NOTES:
     dance-single:
     :
     Hard:
     13:
     :
0000
0000
0000
0000
,
0000
0000
0000
0000
,
0000
0000
0000
0000
,
0000
0000
0000
0000
,
0000
0000
0000
0000
,
0010
1000
0100
0001
0100
0010
0100
0001
,
0100
0010
1000
0010
0100
0010
1000
0010
,
0001
0100
0010
0001
0010
1000
0010
0100
,
1000
0100
0001
0100
0010
1000
0001
0100
,
0010
0000
0102
0000
1003
0010
0100
0001
,
0010
0100
1000
0001
1000
0100
0010
0001
,
0100
0020
1000
0000
0130
0010
0100
0001
,
0010
0100
1000
0010
1000
0100
0010
0001
,
0100
0000
1020
0000
0031
0010
1000
0100
,
0010
0100
0010
0001
0100
0110
0000
1001
,
0010
1000
0100
0001
0100
0010
0100
0001
,
0100
1000
0010
0100
1000
0100
0001
0100
,
0010
0000
2100
0000
3001
1000
0010
0100
,
1000
0100
0001
0100
0010
1000
0001
0100
,
0010
1000
0001
0000
0011
0000
0100
1000
,
0010
0100
0001
0010
0100
0001
0100
1000
,
0001
0000
0021
0000
0130
0010
0001
1000
,
0010
1000
0100
1000
0001
0100
0010
0001
,
0010
1000
0100
0010
1000
0010
0001
0100
,
0010
0100
1000
0100
0001
0010
0001
0100
,
1000
0000
1010
0010
0100
0010
1000
0100
,
0001
0100
0010
0100
0001
0100
1000
0010
,
0100
0001
0012
0000
1003
1020
0000
0130
,
0102
0000
0013
0012
0000
1003
0001
0100
,
0010
0000
1001
0100
0001
0010
0100
0001
,
0100
0010
0100
1000
0010
0100
0001
1000
,
0100
0010
0021
0000
0130
2100
0000
3001
,
0201
0000
0310
0120
0000
1030
0001
0010
,
0100
0000
1100
0001
1000
0010
0100
1000
,
0100
0001
0100
0010
0100
1000
0100
0001
,
0010
0100
0120
0000
0031
0201
0000
0310
,
2010
0000
3001
2001
0000
3100
1000
0001
,
0010
0000
0110
0001
0100
0010
0100
0001
,
1000
0100
0001
0100
0010
0100
0001
0100
,
1000
0010
0100
0010
1000
0001
0100
0010
,
1000
0001
0001
0001
0100
0010
0100
0001
,
0000
0011
1000
0010
1000
0100
0001
0010
,
0000
1000
1000
0100
1000
0010
0100
0001
,
0000
1100
0001
1000
0010
0100
0010
1000
,
0000
0100
0100
0100
0100
0010
0001
1000
,
0000
0101
0010
0100
0001
0010
1000
0001
,
0000
1000
1000
0010
1000
0100
0010
0001
,
0100
0001
0000
0000
0011
0000
0000
0000
1000
0001
0000
0000
1010
0000
0000
0000
,
1000
0100
0000
0000
0010
0001
0000
0000
0100
0010
0000
0000
0110
0000
0000
0000
,
0100
0010
0000
0000
1010
0000
0000
0000
1000
0001
0000
0000
1100
0000
0000
0000
,
0001
0100
0000
0000
0010
1000
0000
0000
0100
0010
0000
0000
0011
0000
0000
0000
,
1000
0001
0000
0000
0110
0000
0000
0000
0010
1000
0000
0000
0101
0000
0000
0000
,
0001
1000
0000
0000
0100
1000
0000
0000
0010
0100
0000
0000
1001
0000
0000
0000
,
0001
0010
0000
0000
1100
0000
0000
0000
0010
1000
0000
0000
1001
0000
0000
0000
,
0001
0001
0100
0100
0010
0010
1000
0001
,
1000
0000
0010
0100
0010
0000
0100
0010
0100
0000
0002
0000
0000
0000
0023
0000
,
0000
0230
0000
2300
0000
3002
0103
0000
,
0001
0000
1000
0100
1000
0000
0100
1000
0100
0000
0020
0000
0000
0000
0032
0000
,
0000
0000
2003
0000
0000
0000
3010
0100
0010
0000
0010
0000
0010
0000
0010
0000
,
1000
0000
0001
0010
0001
0000
0010
0001
0010
0000
0200
0000
0000
0000
2300
0000
,
0000
3020
0000
0230
0000
0301
0010
2000
,
0000
0000
0000
0000
0000
0000
0000
0000
0000
0002
0000
0000
0000
0000
0000
0000
,
0000
0000
0000
0000
,
0000
0000
0000
0000
,
0000
0000
0000
0000
0000
0000
0000
0000
0000
0000
0000
0000
0000
0000
0000
0000
0000
0000
0000
0000
0000
0000
0000
0000
0000
0000
0000
0000
0000
0000
0000
0000
0000
3003
0000
0000
0000
0000
2002
0000
0000
0000
0000
0000
0000
0000
0000
0000
,
0000
0000
3003
0000
;
