#VERSION:0.83;
#TITLE:Work It;
#SUBTITLE:;
#ARTIST:Missy Elliott;
#TITLETRANSLIT:;
#SUBTITLETRANSLIT:;
#ARTISTTRANSLIT:;
#GENRE:;
#ORIGIN:;
#CREDIT:;
#BANNER:Work It-bn.png;
#BACKGROUND:Work It-bg.png;
#PREVIEWVID:;
#JACKET:Work It-jacket.png;
#CDIMAGE:;
#DISCIMAGE:;
#LYRICSPATH:;
#CDTITLE:;
#MUSIC:Work It.ogg;
#OFFSET:0.000000;
#SAMPLESTART:18.549000;
#SAMPLELENGTH:20.000000;
#SELECTABLE:YES;
#DISPLAYBPM:102.000000;
#BPMS:0.000=101.890,
191.500=91.890,
192.000=101.890;
#STOPS:;
#DELAYS:;
#WARPS:;
#TIMESIGNATURES:0.000=4=4;
#TICKCOUNTS:0.000=4;
#COMBOS:0.000=1;
#SPEEDS:0.000=1.000=0.000=0;
#SCROLLS:0.000=1.000;
#FAKES:;
#LABELS:0.000=Song Start;
#BGCHANGES:;
#KEYSOUNDS:;
#ATTACKS:
;

//---------------dance-single - ----------------
#NOTEDATA:;
#CHARTNAME:;
#STEPSTYPE:dance-single;
#DESCRIPTION:;
#CHARTSTYLE:;
#DIFFICULTY:Challenge;
#METER:14;
#RADARVALUES:0.579055,0.573161,0.448596,0.080106,0.604803,506.000000,450.000000,56.000000,10.000000,0.000000,0.000000,0.000000,0.000000,0.000000,0.579055,0.573161,0.448596,0.080106,0.604803,506.000000,450.000000,56.000000,10.000000,0.000000,0.000000,0.000000,0.000000,0.000000;
#CREDIT:;
#DISPLAYBPM:102.000000;
#NOTES:
0000
0000
0000
0000
,
0000
0000
0000
0000
,
0000
0000
0000
0000
,
0000
0000
0000
0000
,
0001
0000
1000
0010
0000
1000
0010
0000
1000
0000
0100
0000
0001
0000
0000
0000
,
0010
0000
0001
1000
0000
0001
1000
0000
0001
0000
0100
0000
0010
0000
0000
0000
,
0100
0000
0001
0010
0000
0001
0010
0000
0001
0000
1000
0000
0100
0000
0000
0000
,
1000
0001
1000
0001
1000
0001
1000
0001
1000
0000
0010
0000
0010
0100
0001
0100
,
0010
0000
0000
0010
0000
0000
1000
0100
1000
0000
0000
1000
0000
0001
0100
0001
,
1000
0000
0100
0000
1000
0010
0100
0010
1000
0000
0000
0001
0000
0000
0101
0000
,
1100
0000
0001
1000
0010
1000
0001
0000
0100
0000
0010
1000
0000
0000
1100
0000
,
0101
0000
1000
0001
1000
0010
0100
0000
0001
0000
0010
0100
1000
0001
1000
0100
,
0010
0000
0000
1001
0000
0000
0001
0100
0001
0000
0000
0001
0000
1000
0100
0000
,
0110
0000
1001
0000
0100
0010
0100
0001
1000
0000
0000
0100
0000
0000
0011
0000
,
1010
0000
0100
0001
0010
0001
1000
0000
0010
0000
1000
0100
0000
0000
1010
0000
,
0011
0000
0100
0001
0010
0100
0010
0000
0001
0000
1000
0100
0000
0000
0000
0000
,
0001
0100
0001
0100
0010
0000
0010
0000
1000
0100
1000
0000
1001
0000
0000
0000
,
0010
1000
0010
0100
0001
0000
1000
0000
0001
1000
0100
0000
0110
0000
0000
0000
,
0001
1000
0001
0100
0010
1000
0010
0000
1000
0001
0100
0000
1100
0000
0000
1000
,
0001
0000
0100
0010
1000
0000
0001
0000
0010
0100
1000
0000
1010
0000
0000
0000
,
1001
0000
0100
0001
0010
0000
0001
1000
0100
1000
0001
0000
0011
0000
0000
0000
,
1000
0100
0010
0100
1000
0010
0100
0010
1000
0001
0100
0000
0101
0000
0000
0000
,
0010
0000
1000
0100
0010
0000
0001
1000
0001
0100
0010
0000
1010
0000
0000
0000
,
0100
0000
0100
0000
0100
1000
0001
1000
0010
0100
0001
0000
0011
0000
0000
0000
,
1000
0100
1000
0001
0011
1100
0011
0000
,
0001
0000
0100
0000
1000
0000
0010
0100
0001
0000
1001
0000
0110
0000
0000
0000
,
0010
1000
0100
0000
0100
0000
0100
0010
0001
0000
0011
0000
1100
0000
0000
0000
,
0001
0100
0001
0100
0001
0100
0001
0000
1001
0000
0110
0000
1001
0000
0000
0000
,
1000
0100
0001
0000
0001
0000
1000
0100
0001
0100
1000
0000
1010
0000
0000
0000
,
0100
0000
0001
0010
0001
1000
0010
0000
0101
0000
1010
0000
1100
0000
0000
0000
,
1001
0000
0110
0000
0000
1000
0010
1000
0100
0010
0001
0000
0100
0000
0000
0000
,
1010
0000
0100
0000
0011
0000
0100
0000
1000
0001
1000
0000
0010
0000
0100
0001
,
1000
0000
0000
1000
0000
0000
0100
0010
0001
0000
0000
0001
0000
0100
0010
1000
,
0001
0000
0100
0000
0001
0010
0001
0100
1000
0000
0000
0001
0000
0000
0011
0000
,
1010
0000
0100
0001
0010
0001
1000
0000
0010
0000
1000
0100
0000
0000
1010
0000
,
0011
0000
1000
0001
0010
0100
1000
0000
0010
0000
0100
0001
1000
0010
1000
0100
,
0010
0000
0000
1001
0000
0000
0100
0001
1000
0000
0000
0010
0000
1000
0100
0000
,
0110
0000
1001
0000
0010
0100
0010
1000
0001
0000
0000
0001
0000
0000
0101
0000
,
1100
0000
0001
0010
0001
0100
1000
0000
0010
0000
0100
0001
0000
0000
1100
0000
,
0101
0000
1000
0001
1000
0010
0100
0000
0001
0000
0100
0010
0000
0000
0000
0000
,
1001
0000
0000
0000
1001
0000
0100
0000
0010
0000
1000
0001
0000
0000
0000
0000
,
0011
0000
0011
0000
1000
0100
0010
0001
0100
0010
0000
1010
0000
0000
0000
0000
,
0001
0000
0100
0000
0001
0010
0001
1000
0010
0000
1000
0100
0000
0000
0000
0000
,
0010
0000
0010
0000
0001
1000
0001
0100
0010
0000
1000
0001
0000
0000
0000
0000
,
0110
0000
0000
0000
0110
0000
0000
0000
0001
1000
0000
0010
0000
0000
0000
0000
,
1000
0100
0010
0100
1000
0000
0001
0000
0100
0010
1000
0001
0000
0000
0000
0000
,
0010
0000
0001
0000
0100
0000
0001
1000
0001
0100
0000
0010
0000
0000
0000
0000
,
1000
0000
1000
0000
1000
0000
0001
0100
0001
0010
0001
1000
0000
0000
0010
0100
,
0002
0000
0000
0023
0000
0000
2030
0000
0000
3200
0000
0000
0301
1000
0001
1000
,
0010
0000
0010
0000
1000
0100
0000
0010
0000
0001
0100
0000
0010
1000
0000
1000
,
0001
0000
0001
0000
0001
0100
0000
0010
0000
1000
0100
0000
1000
0010
0000
0100
,
0002
0010
2003
3002
,
2003
0010
3002
0203
,
0300
0000
0000
0000
;

//---------------dance-single - ----------------
#NOTEDATA:;
#CHARTNAME:;
#STEPSTYPE:dance-single;
#DESCRIPTION:;
#CHARTSTYLE:;
#DIFFICULTY:Hard;
#METER:12;
#RADARVALUES:0.512681,0.509477,0.480638,0.080106,0.368489,448.000000,388.000000,60.000000,10.000000,0.000000,0.000000,0.000000,0.000000,0.000000,0.512681,0.509477,0.480638,0.080106,0.368489,448.000000,388.000000,60.000000,10.000000,0.000000,0.000000,0.000000,0.000000,0.000000;
#CREDIT:;
#DISPLAYBPM:102.000000;
#NOTES:
0000
0000
0000
0000
,
0000
0000
0000
0000
,
0000
0000
0000
0000
,
0000
0000
0000
0000
,
0001
0000
1000
0010
0000
1000
0010
0000
0000
0000
0100
0000
0000
0000
0000
0000
,
0010
0000
1000
0001
0000
1000
0001
0000
0000
0000
0100
0000
0000
0000
0000
0000
,
0001
0000
0010
0100
0000
0010
0100
0000
0000
0000
1000
0000
0000
0000
0000
0000
,
0001
1000
0001
1000
0001
1000
0001
1000
0001
0000
0100
0000
0100
0000
0010
1000
,
0001
0000
0000
0001
0000
0000
0010
0001
0100
0000
0000
0100
0000
0000
0010
1000
,
0010
0000
0100
0000
0001
0000
1000
0100
1000
0000
0000
0001
0000
0000
0101
0000
,
1100
0000
0010
0000
0001
0000
0100
0000
0001
0000
1000
0010
0000
0000
1100
0000
,
0101
0000
0010
0000
1000
0000
0001
0000
1000
0000
0100
0010
0001
0000
1000
0000
,
0010
0000
0000
1001
0000
0000
0100
0001
0100
0000
0000
0010
0000
0000
1000
0000
,
0110
0000
1001
0000
0110
0000
1000
0010
1000
0000
0000
0001
0000
0000
0011
0000
,
1010
0000
0100
0000
0001
0000
0010
0000
0001
0000
1000
0010
0000
0000
1010
0000
,
0011
0000
0100
0000
1000
0000
0010
0000
1000
0000
0001
0100
0000
0000
0000
0000
,
0010
1000
0010
1000
0010
0000
0100
0000
0001
0000
0011
0000
1100
0000
0000
0000
,
0001
1000
0001
1000
0001
0000
0100
0000
0010
0000
1010
0000
0101
0000
0000
0000
,
0010
0100
0010
0100
0010
0000
1000
0000
0001
0000
0110
0000
1001
0000
0000
0000
,
0100
0000
0001
0000
0100
0000
0010
0000
1000
0100
1000
0000
1001
0000
0000
0000
,
0110
0000
0001
1000
0001
0000
0100
0000
0010
1000
0010
0000
0101
0000
0000
0000
,
0001
0010
0001
0010
0100
0000
1000
0000
0010
0100
0010
0000
1010
0000
0000
0000
,
0001
0000
0100
0000
1000
0000
0010
0000
1000
0001
1000
0000
0101
0000
0000
0000
,
0100
0000
0100
0000
0100
0000
0010
0000
1000
0001
1000
0000
1100
0000
0000
0000
,
0010
0001
0100
0001
1000
0101
1100
0000
,
0001
0000
0010
0000
0001
0000
1000
0010
1000
0000
0110
0000
0101
0000
0000
0000
,
0001
0010
0001
0000
0100
0000
0010
1000
0010
0000
1001
0000
0011
0000
0000
0000
,
0100
0000
0100
0000
0100
1000
0001
0000
1001
0000
0110
0000
1001
0000
0000
0000
,
1000
0100
1000
0000
0001
0000
1000
0100
1000
0100
0010
0000
0011
0000
0000
0000
,
0100
0000
0001
0000
0010
0001
1000
0000
1100
0000
0101
0000
1100
0000
0000
0000
,
1001
0000
0110
0000
0000
0000
1000
0000
0010
0100
0010
0000
0101
0000
0000
0000
,
1000
0000
0001
0000
1000
0000
0001
0000
0010
0000
0100
0000
1000
0000
0010
0100
,
0001
0000
0000
0001
0000
0000
0010
0100
1000
0000
0000
1000
0000
0000
0010
0100
,
0001
0000
0100
0000
0001
0000
1000
0010
1000
0000
0000
0001
0000
0000
0011
0000
,
1010
0000
0100
0000
0001
0000
0010
0000
0001
0000
1000
0100
0000
0000
1010
0000
,
0011
0000
0100
0000
0001
0000
0010
0000
0100
0000
1000
0001
1000
0000
0100
0000
,
0010
0000
0000
1001
0000
0000
0100
0010
0100
0000
0000
0001
0000
0000
1000
0000
,
0110
0000
1001
0000
0110
0000
0100
0001
0010
0000
0000
0100
0000
0000
1100
0000
,
0101
0000
0010
0000
1000
0000
0001
0000
0010
0000
0001
0100
0000
0000
0101
0000
,
1100
0000
0001
0000
1000
0000
0010
0000
1000
0000
0001
0100
0000
0000
0000
0000
,
1001
0000
1001
0100
0010
1000
0001
0000
,
0010
0000
0001
0000
0100
0010
0100
0010
1000
0000
0001
0000
0101
0000
0000
0000
,
1010
0000
0100
0000
0001
0010
0001
0010
0001
0000
0100
0000
1000
0000
0000
0000
,
1100
0000
0001
0000
1000
0010
1000
0010
1000
0000
0100
0000
0001
0000
0000
0000
,
0110
0000
0000
0000
0110
0000
0000
0000
0001
1000
0000
0010
0000
0000
0000
0000
,
0100
0001
0100
0000
0010
0000
1000
0000
0001
0000
0010
0100
0000
0000
0000
0000
,
1100
0000
0010
0000
1000
0000
0001
0000
0100
0010
0000
1000
0000
0000
0000
0000
,
0001
0000
0001
0000
0001
0000
0010
0000
0001
0100
0010
1000
0000
0000
0001
1000
,
0002
0000
0000
0023
0000
0000
0230
0000
0000
2300
0000
0000
3010
0100
0010
0100
,
0001
0000
0010
0000
0000
0001
0000
1000
0000
0010
1000
0000
0100
0010
0000
0000
,
0001
0000
0001
0000
0000
0100
0000
0010
0000
1000
0010
0000
1000
0100
0000
0000
,
2000
0010
3002
2003
,
3020
0001
2030
3200
,
0300
0000
0000
0000
;

//---------------dance-single - ----------------
#NOTEDATA:;
#CHARTNAME:;
#STEPSTYPE:dance-single;
#DESCRIPTION:;
#CHARTSTYLE:;
#DIFFICULTY:Medium;
#METER:10;
#RADARVALUES:0.375356,0.403336,0.224298,0.064085,0.068090,328.000000,300.000000,28.000000,8.000000,0.000000,0.000000,0.000000,0.000000,0.000000,0.375356,0.403336,0.224298,0.064085,0.068090,328.000000,300.000000,28.000000,8.000000,0.000000,0.000000,0.000000,0.000000,0.000000;
#CREDIT:;
#DISPLAYBPM:102.000000;
#NOTES:
0000
0000
0000
0000
,
0000
0000
0000
0000
,
0000
0000
0000
0000
,
0000
0000
0000
0000
,
0001
0000
0000
0001
0000
0000
0001
0000
0000
0000
0100
0000
0000
0000
0000
0000
,
0010
0000
0000
0010
0000
0000
0010
0000
0000
0000
1000
0000
0000
0000
0000
0000
,
0100
0000
0000
0100
0000
0000
0100
0000
0000
0000
1000
0000
0000
0000
0000
0000
,
0010
1000
0010
1000
0001
0110
1001
0000
,
0010
0000
0000
0010
0000
0000
0000
0000
1000
0000
0000
1000
0000
0000
0000
0000
,
0001
0000
0100
0000
0001
0000
0010
0000
0001
0000
0000
1000
0000
0000
0010
0000
,
1000
0100
1000
0010
0100
0001
0000
0010
,
0001
1000
0001
0100
0010
1000
0010
0100
,
0010
0000
0000
1001
0000
0000
0000
0000
0100
0000
0000
0100
0000
0000
0000
0000
,
0001
0000
0010
0000
0001
0000
0100
0000
0010
0000
0000
1000
0000
0000
0100
0000
,
1000
0001
1000
0001
0100
0010
0000
1000
,
0001
0010
0001
0100
0001
1000
0000
0000
,
0010
1000
0010
0100
0001
1000
1100
0000
,
0010
0001
0100
0010
1000
0001
0101
0000
,
0001
0010
0001
0100
0010
1000
1010
0000
,
1000
0001
0010
0001
1000
0100
1100
0000
,
1001
0010
1000
0100
0010
0001
0011
0000
,
0100
0001
0100
0010
0100
0001
0101
0000
,
1000
0100
1000
0010
0100
0001
0011
0000
,
0001
0100
0001
1000
0010
0100
0110
0000
,
0001
0010
0001
0000
0001
1000
0001
0000
,
1000
0100
1000
0000
1000
0001
1000
0000
,
0010
0100
0001
0000
0010
0100
1000
0000
,
0001
0100
0001
0000
1001
0110
1001
0000
,
0010
0010
0010
1000
0100
1000
0001
0000
,
0010
0001
0100
0000
0101
1100
0101
0000
,
0010
0100
0000
0010
1000
0100
0001
0000
,
0010
0001
0010
0001
0010
0100
1000
0000
,
0001
0000
0000
0001
0000
0000
0000
0000
1000
0000
0000
1000
0000
0000
0000
0000
,
0001
0000
0100
0000
0001
0000
0010
0000
0100
0000
0000
1000
0000
0000
0010
0000
,
1000
0001
1000
0001
0010
0100
0000
1000
,
0010
0100
0010
1000
0100
0010
0001
1000
,
0010
0000
0000
1001
0000
0000
0000
0000
0100
0000
0000
0100
0000
0000
0000
0000
,
0001
0000
0010
0000
0001
0000
0100
0000
1000
0000
0000
0010
0000
0000
0100
0000
,
0001
0010
0001
0100
0010
1000
0000
0001
,
1000
0010
1000
0100
0010
0001
0000
0000
,
1001
0000
1001
0000
1000
0100
0001
0000
,
0010
0001
0100
0010
1000
0001
1010
0000
,
0010
0010
1000
0100
1000
0001
0100
0000
,
0010
0010
0100
0001
1000
0001
0100
0000
,
0110
0000
0110
0000
0001
1000
0010
0000
,
1000
0100
1000
0000
0001
0100
0010
0000
,
2000
0000
0010
0000
3100
1000
0002
0000
,
0013
0001
0100
0010
1000
0100
1000
0000
,
1001
0000
0000
1001
0000
0000
1001
0000
0000
1001
0000
0000
0010
0000
0100
0000
,
0001
0010
0001
0100
0001
0010
1000
0000
,
1000
0100
1000
0010
1000
0100
0001
0000
,
0200
0000
0320
2030
,
3002
0000
2003
3200
,
0300
0000
0000
0000
;

//---------------dance-single - ----------------
#NOTEDATA:;
#CHARTNAME:;
#STEPSTYPE:dance-single;
#DESCRIPTION:;
#CHARTSTYLE:;
#DIFFICULTY:Easy;
#METER:6;
#RADARVALUES:0.232309,0.274665,0.272362,0.064085,0.000000,203.000000,169.000000,34.000000,8.000000,0.000000,0.000000,0.000000,0.000000,0.000000,0.232309,0.274665,0.272362,0.064085,0.000000,203.000000,169.000000,34.000000,8.000000,0.000000,0.000000,0.000000,0.000000,0.000000;
#CREDIT:;
#DISPLAYBPM:102.000000;
#NOTES:
0000
0000
0000
0000
,
0000
0000
0000
0000
,
0000
0000
0000
0000
,
0000
0000
0000
0000
,
0002
0000
1000
0103
,
2000
0000
0010
3100
,
0020
0000
0001
1030
,
0200
0000
0001
0310
,
1100
0000
0101
0000
,
0100
0100
0010
0000
,
1000
0100
0001
0000
,
0010
0001
0100
1000
,
0010
0000
0100
0000
,
0001
0010
0001
0000
,
0100
0010
0100
0000
,
0001
0010
1000
0000
,
0100
0100
1000
1001
,
0010
0010
0100
0110
,
0001
0010
0001
0011
,
1000
0001
0100
1001
,
0010
0010
1000
1100
,
0001
0010
0100
0110
,
0010
0001
0100
0101
,
1000
0100
1000
1010
,
0100
0001
1000
0101
,
0010
1000
0100
0011
,
1000
0001
0100
1001
,
0010
0100
1001
0110
,
1000
0001
0100
1010
,
0001
0010
0001
1100
,
1001
0000
0010
0100
,
1010
0101
0010
0001
,
0101
0000
1100
0000
,
0001
0100
1000
0000
,
0010
0010
0100
0000
,
0001
0100
0010
1000
,
0010
0000
0100
0000
,
0010
1000
0100
0000
,
0001
1000
1000
0000
,
0001
0100
0010
0000
,
1001
1001
0100
0010
,
1000
0100
0001
0011
,
1001
0100
0010
0100
,
1001
0100
0010
0100
,
0110
0110
0001
1000
,
0010
1000
0100
1100
,
0002
0000
0010
1003
,
0200
0000
0001
1300
,
1001
1001
1001
1001
,
0001
0001
0100
0010
,
1000
1000
0100
0010
,
0002
0000
0010
0103
,
2000
0000
0010
3100
;

//---------------dance-single - ----------------
#NOTEDATA:;
#CHARTNAME:;
#STEPSTYPE:dance-single;
#DESCRIPTION:;
#CHARTSTYLE:;
#DIFFICULTY:Beginner;
#METER:3;
#RADARVALUES:0.116726,0.168223,0.032043,0.048064,0.000000,102.000000,98.000000,4.000000,6.000000,0.000000,0.000000,0.000000,0.000000,0.000000,0.116726,0.168223,0.032043,0.048064,0.000000,102.000000,98.000000,4.000000,6.000000,0.000000,0.000000,0.000000,0.000000,0.000000;
#CREDIT:;
#DISPLAYBPM:102.000000;
#NOTES:
// measure 0
0000
0000
0000
0000
,  // measure 1
0000
0000
0000
0000
,  // measure 2
0000
0000
0000
0000
,  // measure 3
0000
0000
0000
0000
,  // measure 4
0002
0000
0003
0000
,  // measure 5
2000
0000
3000
0000
,  // measure 6
0020
0000
0030
0000
,  // measure 7
0200
0000
0300
0000
,  // measure 8
0001
0000
0001
0000
,  // measure 9
0100
0000
0100
0000
,  // measure 10
0010
0000
0010
0000
,  // measure 11
1000
0000
1000
0000
,  // measure 12
0010
0000
0100
0000
,  // measure 13
0010
0000
0100
0000
,  // measure 14
0001
0000
1000
0000
,  // measure 15
0001
0000
1000
0000
,  // measure 16
0010
0000
1000
0000
,  // measure 17
0100
0000
0010
0000
,  // measure 18
0001
0000
0100
0000
,  // measure 19
0001
0000
0010
0000
,  // measure 20
1000
0000
0100
0000
,  // measure 21
1000
0000
0001
0000
,  // measure 22
0100
0000
0100
0000
,  // measure 23
0001
0000
0010
0000
,  // measure 24
1000
0000
0100
0000
,  // measure 25
1000
0000
0010
0000
,  // measure 26
0001
0000
0010
0000
,  // measure 27
0001
0000
1001
0000
,  // measure 28
0100
0000
0010
0000
,  // measure 29
0100
0000
0110
0000
,  // measure 30
0001
0000
0010
0000
,  // measure 31
0100
0000
1000
0000
,  // measure 32
0001
0000
0001
0000
,  // measure 33
0100
0000
0100
0000
,  // measure 34
0010
0000
0010
0000
,  // measure 35
1000
0000
1000
0000
,  // measure 36
0010
0000
0100
0000
,  // measure 37
0010
0000
0100
0000
,  // measure 38
0001
0000
1000
0000
,  // measure 39
0001
0000
1000
0000
,  // measure 40
0100
0100
0100
0000
,  // measure 41
1000
0000
0001
0000
,  // measure 42
0100
0100
0100
0000
,  // measure 43
0010
0010
0010
0000
,  // measure 44
1000
0000
0001
0000
,  // measure 45
0010
0010
0010
0000
,  // measure 46
0200
0000
0300
0000
,  // measure 47
0020
0000
0030
0000
,  // measure 48
1001
0000
0110
0000
,  // measure 49
1000
1000
1000
0000
,  // measure 50
0001
0001
0001
0000
,  // measure 51
1000
0000
0010
0000
,  // measure 52
0001
0000
0100
0000
;
