#TITLE:Wonderful Workers;
#SUBTITLE:;
#ARTIST:Jimmy Weckl;
#TITLETRANSLIT:;
#SUBTITLETRANSLIT:;
#ARTISTTRANSLIT:;
#GENRE:;
#CREDIT:;
#BANNER:Wonderful Workers-bn.png;
#BACKGROUND:Wonderful Workers-bg.png;
#LYRICSPATH:;
#CDTITLE:;
#MUSIC:Wonderful Workers.ogg;
#OFFSET:0.092000;
#SAMPLESTART:61.748001;
#SAMPLELENGTH:20.000000;
#SELECTABLE:YES;
#DISPLAYBPM:163.000000;
#BPMS:0.000000=163.000000
;
#STOPS:
;
#BGCHANGES:;
#KEYSOUNDS:;
#ATTACKS:;

//---------------dance-single - ----------------
#NOTES:
     dance-single:
     :
     Hard:
     15:
     0.884322,0.967481,0.263847,0.213107,0.984352,610.000000,584.000000,26.000000,21.000000,0.000000,0.000000,0.884322,0.967481,0.263847,0.213107,0.984352,610.000000,584.000000,26.000000,21.000000,0.000000,0.000000:
0000
0000
0000
0000
,
0000
0000
0000
0000
,
0000
0000
0000
0000
,
0000
0000
0000
0000
,
0000
0000
0000
0000
,
0010
0000
1000
0100
1000
0100
1000
0000
0001
0100
0001
0100
0001
0000
1000
0000
,
0010
0000
0200
0000
0000
1000
0000
0000
0010
0000
0000
1000
0000
0000
0001
0000
,
0301
0000
0010
0100
0010
0100
0010
0000
0001
1000
0001
1000
0001
0000
0100
0000
,
0010
0000
2000
0000
0000
0100
0000
0000
0001
0000
0000
0010
0000
0000
0100
0000
,
3100
1000
0100
0010
0001
1000
0010
0100
0000
0100
0001
0000
0000
1000
0000
0000
,
0002
0000
0000
0000
0013
0000
1100
0000
0000
0010
1000
0000
0100
0010
0000
0001
,
1000
0000
0000
0000
0000
0000
0000
0000
0010
0000
0000
0000
0000
0000
0000
0000
1000
0000
0000
0000
0000
0000
0000
0000
0100
0000
0000
0000
0010
0000
0000
0000
0001
0000
0000
0000
0000
0000
0000
1000
0000
0000
0000
0000
0000
0001
0000
0000
,
0200
0000
0000
0000
0010
0000
0301
0000
0000
1000
0001
0000
0010
0100
0000
0100
,
1000
0000
0010
0000
0100
0000
0101
0000
0000
1000
0001
0000
0010
0001
0000
1000
,
0200
0000
0000
0000
0310
0000
1001
0000
0000
0001
1000
0000
0100
0010
0000
0010
,
0001
0000
0000
0010
0000
0000
0100
0000
1000
0001
0000
1000
0000
0000
0010
0100
,
0002
0000
1000
0000
0103
0000
0110
0000
0000
0010
1000
0000
0100
0010
0000
0001
,
0100
0000
0010
0000
1000
0100
0000
0010
0001
0000
0100
0000
0010
1000
0000
0001
,
0200
0000
0000
0000
0310
0000
1010
0000
0000
1000
0100
0000
1000
0001
0000
0010
,
0001
0000
0000
0100
0000
0000
0010
0000
1000
0100
0000
0100
0010
0000
0001
1000
,
0020
0000
0000
0000
0130
0000
0001
0000
1000
0100
0010
0000
0001
0000
1000
0001
,
0100
0000
0001
0000
0011
0000
0000
0000
0100
1000
0001
0000
0000
1000
0100
0000
,
2000
0000
0000
0000
3001
0000
0110
0000
0000
0010
1000
0000
0001
0100
0000
0100
,
0010
0000
0000
1000
0000
0000
0001
0000
1000
0100
0000
0100
0010
0000
0001
1000
,
0002
0000
0100
0000
0013
0000
1000
0000
0100
0010
0001
0000
1000
0000
0010
0100
,
0002
0000
0000
0000
0013
0100
1000
0000
1100
0000
1100
0000
1100
0000
0000
0000
,
0001
0000
0100
0010
1000
0000
0001
0000
0000
0000
0010
0001
0010
0100
1000
0001
,
1000
0010
1000
0010
0100
0010
0100
0010
1000
0100
0010
0001
0010
0100
1000
0000
,
0010
0000
1000
0001
0100
0000
0010
0000
0000
0000
0100
0001
0100
0010
1000
0001
,
0010
0100
0010
0100
1000
0100
1000
0100
0010
0001
0010
0100
1000
0001
0100
0000
,
0001
0000
1000
0100
0010
0000
0001
0000
0000
0000
0100
0010
1000
0001
0010
0100
,
1000
0001
1000
0001
0100
0010
0100
0010
1000
0001
0100
0001
0010
0001
0100
0000
,
0010
0000
1000
0100
1000
0000
0001
0100
0001
0000
1000
0010
1000
0000
0001
0010
,
0001
0000
0100
0010
1000
0001
0010
0000
0001
0100
0010
2000
0000
0000
0000
0000
,
3001
0000
1000
0000
0010
0000
0100
0000
0000
0010
1000
0000
0100
0010
0000
0000
,
0001
0000
1000
0000
0100
0000
1000
0000
0000
0001
0010
0000
0001
0100
0000
0000
,
0010
0000
1000
0000
0100
0000
0010
0000
0000
0001
1000
0000
0001
0000
0100
0000
,
0010
0000
1000
0000
0001
0000
0010
0000
0001
0100
1000
0000
0010
0000
0200
0000
,
0001
0000
0010
0000
0320
0000
0000
0000
1030
0001
1000
0000
0100
0000
0020
0000
,
0000
0000
0031
0000
0100
0000
0002
0000
0000
0000
1003
0010
0100
0000
0001
0000
,
0010
0000
0100
0000
1000
0000
0001
0000
0000
1000
0010
0000
0100
0000
0001
0000
,
1000
0100
0000
0000
0100
0001
0000
0000
0001
0010
0000
0000
0010
1000
0000
0000
,
0100
1000
0001
2020
0030
0001
3100
1001
,
0000
0000
0101
0000
0010
0000
1100
0000
1000
0100
0010
0000
0001
1000
0001
0000
,
0000
0100
0010
0000
1000
0000
0001
0010
0000
0001
0100
0000
0010
0000
1000
0000
,
0000
0100
1000
0000
0010
0000
0100
0001
0010
0000
1001
0000
1001
0000
0000
0000
,
0010
0000
1000
0000
0100
0000
0022
0000
0000
0030
0000
0000
1003
0000
0001
1000
,
0100
0000
0010
0001
0000
0001
0100
0000
0010
0000
1000
0100
0000
0100
0010
0000
,
0001
0000
0100
0000
0010
0000
1000
0100
0000
1000
0001
0000
0100
0010
1000
0000
,
0001
0000
0010
0100
1000
0000
0001
0000
0100
0010
0100
0000
0001
0010
0100
1000
,
0010
0000
0100
0001
1000
0001
0010
0000
0000
1000
0100
0000
1000
0001
0100
0010
,
0100
0000
0001
1000
0010
1000
0100
0000
0000
1000
0010
0100
0001
0000
0000
0000
,
0010
0000
0001
1000
0010
0100
0001
0000
0000
1000
0100
0010
0001
0000
1000
0000
,
0010
1000
0100
0002
0000
1000
0103
0000
,
0110
0000
1000
0001
0010
0100
1000
0000
0000
0010
1000
0000
0100
0010
0001
0100
,
0010
0000
1000
0001
1000
0100
0010
0000
0000
0001
1000
0100
0010
0000
0000
0000
,
0011
0000
0001
1000
0010
1000
0100
0000
0000
1000
0001
1000
0010
0000
0100
0000
,
0001
0000
0010
0100
1000
0000
0001
0100
0010
0000
1000
0001
1000
0000
0100
0010
,
0001
1000
0010
1000
0100
0010
0001
0000
0000
0100
0010
0000
0100
0001
1000
0010
,
1000
0000
0100
0010
0001
1000
0010
0000
0000
0100
0001
0100
0010
0000
0000
0000
,
1001
0000
0010
1000
0001
1000
0100
0000
0000
0010
0100
1000
0001
0000
0001
0000
,
0001
0000
0010
0000
0001
0000
1000
0000
0010
0100
0001
0000
1100
0000
0000
0000
,
0101
0000
1100
0000
0010
0000
0011
0000
0001
0100
0010
0000
1000
0000
0100
0000
,
0010
0000
0001
0000
1000
0000
0001
0000
0100
0010
1000
0000
0001
0000
0110
0000
,
1000
0100
0001
0000
0010
0100
1000
0000
0010
0100
0001
0000
1000
0001
0010
0000
,
0100
1000
0010
0000
0100
0000
0001
0000
0010
0100
1000
0000
0101
0000
0000
0000
;

//---------------dance-single - ----------------
#NOTES:
     dance-single:
     :
     Medium:
     11:
     0.517546,0.600505,0.243551,0.568286,0.111628,357.000000,333.000000,24.000000,56.000000,0.000000,0.000000,0.517546,0.600505,0.243551,0.568286,0.111628,357.000000,333.000000,24.000000,56.000000,0.000000,0.000000:
0000
0000
0000
0000
,
0000
0000
0000
0000
,
0000
0000
0000
0000
,
0000
0000
0000
0000
,
0000
0000
0000
0000
,
0010
1000
0100
0010
0000
0001
1000
0001
,
0000
0200
0000
0010
0000
0001
0000
0000
,
0310
1000
0001
0010
0000
0100
1000
0100
,
0000
0020
0000
1000
0000
0001
0001
0000
,
0130
0000
0010
0000
0001
0000
1000
0000
0010
0000
0100
0000
0000
0001
0000
0000
,
2020
0000
0000
0000
0030
0000
3002
0000
0000
0000
0100
0000
0000
1003
0000
0000
,
0001
0000
0010
0000
0100
0000
1000
0000
0001
0000
1000
0000
,
0020
0000
0000
1030
0000
0001
0100
0220
,
0000
0000
0000
0000
0000
0000
0000
0300
0000
0000
1000
0000
0000
0130
0000
0000
,
0202
0000
0000
0000
0300
0000
2003
0000
0000
0000
0010
0000
0000
3100
0000
0000
,
1000
0000
0000
0001
0000
0000
1000
0000
0100
0000
0000
0010
0000
0000
0001
0000
,
0200
0000
0000
0010
0000
0301
1000
2002
,
0000
0000
3000
0000
2003
0000
0000
0000
0000
0000
0010
0000
0000
3001
0000
0000
,
0022
0000
0000
0000
0030
0000
0203
0000
0000
0000
0310
0000
0000
1000
0000
0000
,
0100
0000
0000
0100
0000
0000
1000
0000
0001
0000
0000
0100
0000
0000
0001
0000
,
2000
0000
0000
0010
0000
3001
0000
0100
,
0010
0000
1000
0000
0001
0000
0000
0000
0000
0000
0010
0000
0000
0100
0000
0000
,
2200
0000
0000
0000
3000
0000
0320
0000
0000
0000
0001
0000
0000
1000
0000
0000
,
0031
0000
0000
0100
0000
0000
0010
0000
1000
0000
0000
0100
0000
0000
0010
0000
,
0002
0000
0000
1003
0000
0100
1000
0020
,
0000
0230
0000
0000
0001
0001
0301
0000
,
1000
0100
0001
0000
0000
0010
0001
0100
,
0001
1000
0100
0010
0001
0100
1000
0100
,
0001
0010
1000
0000
0000
0100
1000
0001
,
0100
0010
1000
0001
0010
1000
0010
0001
,
0100
0010
1000
0000
0000
0100
1000
0001
,
0100
0010
0100
0001
1000
0010
0100
0010
,
1010
0101
0011
1100
,
0001
0100
0010
1000
0100
0010
0001
0000
,
1000
0000
0000
0000
0000
0000
0020
0000
0000
0000
0130
0000
0000
0001
0000
0000
,
2000
0000
0000
0000
0000
0000
3001
0000
0000
0000
0100
0000
0000
0010
0000
0000
,
0200
0000
0000
0301
0000
1000
0001
0020
,
0000
0230
0000
1000
0000
0301
0100
2000
,
0000
0000
0001
0000
3001
1000
0010
0200
,
0000
0301
0100
0002
0000
1003
0100
0020
,
0000
0000
0031
1000
0000
1000
0100
0020
,
0001
1000
0100
1000
,
0031
0100
0010
2000
0000
0000
3000
1100
,
0000
0101
0000
1001
0000
0010
0100
0120
,
0000
1030
0000
1010
0000
0011
0000
2000
,
0000
3002
0000
2003
0000
0010
3010
0000
,
0100
0001
1000
0200
0000
0000
0000
1000
,
1300
0000
0000
0001
0000
0000
1000
0000
0010
0000
0000
0100
0000
0000
0001
0000
,
0020
0000
0000
0130
0000
0100
1000
0002
,
0000
1003
0010
0200
0000
0000
0300
0000
,
0001
1000
0001
0020
0000
0130
1000
0001
,
1000
0010
0100
0002
0000
1000
1003
0000
,
1000
0001
0100
0020
0000
0130
0010
1000
,
0100
0010
0001
2000
0000
3001
0100
0000
,
0001
1000
0001
0020
0000
0130
1000
0001
,
1000
0010
0100
0002
0000
0010
0013
0000
,
0001
1000
0001
0200
0000
0310
0100
0001
,
1000
0100
1000
0020
0000
0130
0001
0000
,
0101
1000
0001
0020
0000
0130
1000
0001
,
1000
0010
0100
0002
0000
0010
0013
0000
,
1100
0010
0001
0200
0000
0301
1000
0100
,
1000
0010
0100
0002
0000
0013
0100
0000
,
1000
1001
0000
1100
0000
0011
0000
0101
,
0000
1010
0000
0001
1000
0100
1000
0001
,
0100
0010
0100
0001
0100
0010
1000
0001
,
0010
0100
1000
0001
1000
0010
0101
0000
;

//---------------dance-single - ----------------
#NOTES:
     dance-single:
     :
     Easy:
     8:
     0.347930,0.467060,0.263847,0.182663,0.000000,240.000000,214.000000,26.000000,18.000000,0.000000,0.000000,0.347930,0.467060,0.263847,0.182663,0.000000,240.000000,214.000000,26.000000,18.000000,0.000000,0.000000:
0000
0000
0000
0000
,
0000
0000
0000
0000
,
0000
0000
0000
0000
,
0000
0000
0000
0000
,
0000
0000
0000
0000
,
0010
0000
0000
0001
0000
0000
0100
0000
,
0000
2000
0000
0000
0000
0000
0000
0000
,
3010
0000
0000
1000
0000
0000
0100
0000
,
0000
0002
0000
0000
0000
0000
0000
0000
,
1003
0000
0010
0000
1000
0001
0000
0000
,
0200
0000
0000
0310
0000
0000
1000
0000
,
0100
0001
0100
1000
,
0010
0000
0100
0000
0001
0000
0000
0220
,
0000
0000
0000
0330
0000
0000
1000
0000
,
0002
0000
0000
0103
0000
0000
0010
0000
,
1000
0100
0001
0100
,
1000
0000
0010
0000
0100
0000
0000
2002
,
0000
0000
0000
3003
0000
0000
0010
0000
,
0200
0000
0000
0301
0000
0000
1000
0000
,
0010
0010
1000
0001
,
0100
0010
1000
0001
,
1000
0100
0000
0010
,
0002
0000
0000
1003
0000
0000
0010
0000
,
1000
1000
0001
0001
,
0100
0000
0010
0000
0100
0000
0000
1010
,
0000
0101
0000
0000
1000
0001
1000
0000
,
0110
1001
0000
0010
,
1000
0100
0001
0010
,
0110
1001
0000
0100
,
0001
1000
0100
0010
,
0011
1100
0000
0001
,
1000
0010
1000
0100
,
1100
0101
1100
0101
,
0010
0000
0010
0000
1000
0001
0100
0000
,
0000
0000
0000
0001
0000
0010
0000
0100
,
1000
0000
0000
0010
0000
1000
0000
0001
,
0100
0000
0000
0010
0000
0010
0000
2000
,
0000
0002
0000
0000
3003
0000
0100
0020
,
0000
0000
0030
0000
1000
0001
0000
0010
,
0000
0001
0000
0001
0000
1000
0100
2000
,
0000
0000
0000
3010
0000
0100
0000
0020
,
0000
0200
0000
0000
0000
0000
0330
0000
,
1001
0000
0000
0110
0000
0000
0000
0001
,
0000
0010
0000
0001
0000
0100
0000
1000
,
0000
0001
0000
0010
0000
1000
0000
1010
,
0000
0101
0000
1100
0000
0001
1000
0000
,
0110
0000
0000
1001
0000
0000
0000
0001
,
1000
1000
0001
1000
,
1100
0000
0000
0001
0000
0010
0000
0001
,
0000
0100
0020
2000
0000
0000
3030
0000
,
0001
0010
0001
0100
,
1000
0010
1000
0100
,
0010
0001
0100
0010
,
1000
0100
0001
0010
,
1000
0001
0010
0001
,
0100
1000
0010
0100
,
0001
0010
0001
0100
,
0010
1000
0100
0001
,
0010
0001
1000
0010
,
1000
0100
0001
1000
,
0001
0010
0100
1000
,
0010
1000
0100
0001
,
0010
0100
0000
1100
0000
0110
0000
0011
,
0000
1000
0000
0010
0000
1000
0000
0001
,
0000
1000
0000
0100
0000
1000
0000
0001
,
0100
0000
0000
0010
0000
0000
1001
0000
;

//---------------dance-single - ----------------
#NOTES:
     dance-single:
     :
     Beginner:
     4:
     0.187012,0.266891,0.101480,0.020296,0.000000,129.000000,119.000000,10.000000,2.000000,0.000000,0.000000,0.187012,0.266891,0.101480,0.020296,0.000000,129.000000,119.000000,10.000000,2.000000,0.000000,0.000000:
// measure 0
0000
0000
0000
0000
,  // measure 1
0000
0000
0000
0000
,  // measure 2
0000
0000
0000
0000
,  // measure 3
0000
0000
0000
0000
,  // measure 4
0000
0000
0000
0000
,  // measure 5
0010
0000
0001
0000
,  // measure 6
0200
0000
0300
0000
,  // measure 7
0010
0000
1000
0000
,  // measure 8
0200
0000
0300
0000
,  // measure 9
1000
1000
1000
0000
,  // measure 10
0001
0000
0001
0000
,  // measure 11
1000
0000
1000
0000
,  // measure 12
0010
0000
0000
0000
,  // measure 13
1001
0000
0000
0000
,  // measure 14
1000
0000
1000
0000
,  // measure 15
0001
0000
0001
0000
,  // measure 16
0100
0000
0000
0000
,  // measure 17
0110
0000
0000
0000
,  // measure 18
0010
0000
0010
0000
,  // measure 19
1000
0000
0001
0000
,  // measure 20
1000
0000
0000
0000
,  // measure 21
1001
0000
0000
0000
,  // measure 22
0100
0000
0100
0000
,  // measure 23
0010
0000
0010
0000
,  // measure 24
0100
0000
0000
0000
,  // measure 25
0110
0000
0000
0000
,  // measure 26
0001
0001
0000
0000
,  // measure 27
1000
0000
0001
0000
,  // measure 28
0100
0100
0000
0000
,  // measure 29
0010
0000
1000
0000
,  // measure 30
0010
0010
0000
0000
,  // measure 31
1000
0000
0001
0000
,  // measure 32
0100
0000
0100
0000
,  // measure 33
0001
0001
0001
0000
,  // measure 34
0000
0000
1000
0000
,  // measure 35
0100
0000
1000
0000
,  // measure 36
0001
0000
0001
0000
,  // measure 37
0010
0000
0000
0000
,  // measure 38
0100
0000
0100
0000
,  // measure 39
1000
0000
0001
0000
,  // measure 40
0100
0000
0010
0000
,  // measure 41
0110
0000
0000
0000
,  // measure 42
1001
0000
1001
0000
,  // measure 43
0100
0100
0100
0000
,  // measure 44
0010
0000
1000
0000
,  // measure 45
0010
0000
0100
0000
,  // measure 46
0110
0000
0110
0000
,  // measure 47
0001
0001
0001
0000
,  // measure 48
0010
0000
0100
0000
,  // measure 49
1000
0000
0001
0000
,  // measure 50
0100
0000
0010
0000
,  // measure 51
1000
1000
1000
0000
,  // measure 52
0001
0000
1000
0000
,  // measure 53
0010
0000
0100
0000
,  // measure 54
0010
0000
1000
0000
,  // measure 55
0001
0001
0001
0000
,  // measure 56
0010
0000
0100
0000
,  // measure 57
1000
0000
0010
0000
,  // measure 58
1000
1000
1000
0000
,  // measure 59
0001
0001
0001
0000
,  // measure 60
0010
0010
0010
0000
,  // measure 61
0100
0100
0100
0000
,  // measure 62
1000
0000
0010
0000
,  // measure 63
1000
0000
0001
0000
,  // measure 64
0010
0000
0100
0000
,  // measure 65
1000
0000
0000
1001
;
