#TITLE:Wine Red (Tommie Sunshine's Brooklyn Fire Retouch);
#SUBTITLE:;
#ARTIST:The Hush Sound;
#TITLETRANSLIT:;
#SUBTITLETRANSLIT:;
#ARTISTTRANSLIT:;
#GENRE:;
#CREDIT:;
#BANNER:Wine Red (Tommie Sunshine's Brooklyn Fire Retouch)-bn.png;
#BACKGROUND:Wine Red (Tommie Sunshine's Brooklyn Fire Retouch)-bg.png;
#LYRICSPATH:;
#CDTITLE:;
#MUSIC:Wine Red (Tommie Sunshine's Brooklyn Fire Retouch).ogg;
#OFFSET:0.000000;
#SAMPLESTART:12.923000;
#SAMPLELENGTH:20.000000;
#SELECTABLE:YES;
#DISPLAYBPM:130.000000;
#BPMS:0.000000=129.800003
,4.000000=130.000000
;
#STOPS:
;
#BGCHANGES:0.000=Wine Red (Tommie Sunshine's Brooklyn Fire Retouch).avi=1.000=1=0=0=StretchNoLoop==CrossFade==,
216.000=Wine Red (Tommie Sunshine's Brooklyn Fire Retouch)-bg.png=1.000=1=0=0=StretchNoLoop==CrossFade==,
99999=-nosongbg-=1.000=0=0=0 // don't automatically add -songbackground-
;
#KEYSOUNDS:;
#ATTACKS:;

//---------------dance-single - ----------------
#NOTES:
     dance-single:
     :
     Beginner:
     1:
     0.088042,0.125185,0.009630,0.000000,0.000000,64.000000,63.000000,1.000000,0.000000,0.000000,0.000000,0.088042,0.125185,0.009630,0.000000,0.000000,64.000000,63.000000,1.000000,0.000000,0.000000,0.000000:
0000
0000
0000
0000
,
0000
0000
0000
0000
,
0000
0000
0000
0000
,
0001
0000
0000
0000
,
0001
0000
0000
0000
,
1000
0000
0000
0000
,
1000
0000
0000
0000
,
0001
0000
1000
0000
,
0001
0000
0000
0000
,
0010
0000
0000
0000
,
0010
0000
0000
0000
,
1000
0000
0001
0000
,
1000
0000
0000
0000
,
0010
0000
0000
0000
,
0010
0000
0000
0000
,
0000
0000
0000
0000
,
0100
0000
0000
0000
,
1000
0000
0000
0000
,
0001
0000
0000
0000
,
1000
0000
1000
0000
,
1000
0000
0000
0000
,
0001
0000
0000
0000
,
1000
0000
0001
0000
,
1000
0000
0001
0000
,
1000
0000
0000
0000
,
0001
0000
0000
0000
,
1000
0000
0000
0000
,
0000
0000
0000
0000
,
0000
0010
0000
0000
,
0000
0010
0000
0000
,
0000
0010
0000
0000
,
0000
0010
0000
0000
,
1000
0000
0100
0000
,
0001
0000
0001
0000
,
1000
0000
0010
0000
,
0000
0000
0000
0000
,
1000
0000
0100
0000
,
0100
0000
0010
0000
,
0001
0000
0000
0000
,
1000
0000
0000
0000
,
0010
0000
0010
0000
,
0100
0000
0100
0000
,
0001
0000
0000
0000
,
1000
0000
0000
0000
,
0001
0000
0010
0000
,
0010
0000
0100
0000
,
1000
0000
0000
0000
,
0001
0000
0000
0000
,
0100
0000
0100
0000
,
0010
0000
0010
0000
,
1000
0000
0000
0000
,
0001
0000
0000
0000
,
1001
0000
0000
0000
;

//---------------dance-single - ----------------
#NOTES:
     dance-single:
     :
     Easy:
     4:
     0.215979,0.225334,0.057778,0.028889,0.000000,157.000000,151.000000,6.000000,3.000000,0.000000,0.000000,0.215979,0.225334,0.057778,0.028889,0.000000,157.000000,151.000000,6.000000,3.000000,0.000000,0.000000:
0000
0000
0000
0000
,
0000
0000
0000
0000
,
0000
0000
0000
0000
,
0100
1000
0001
0010
,
0000
0100
0000
1000
,
0010
0100
0001
1000
,
0010
0000
0100
0110
,
0010
0000
1000
1000
,
0001
0000
0001
0001
,
0010
0100
0010
0100
,
1000
0010
0100
0001
,
1000
0000
0100
0100
,
0010
0000
0010
0010
,
0001
1000
0001
1000
,
0010
0000
0100
0110
,
0010
0000
1000
0001
,
0100
0000
0100
0000
,
0010
0000
0010
0000
,
1000
0000
0001
0000
,
1000
1000
0001
0001
,
0100
0000
0010
1000
,
0001
0000
0100
1000
,
0010
0010
0100
0100
,
0001
0000
1000
0001
,
2001
0000
0000
3000
,
0002
0000
0000
0003
,
2000
0000
0000
3000
,
0000
0000
0000
0000
,
0001
0100
0001
0100
,
0010
1000
0010
1000
,
0100
1000
0100
1000
,
0001
0010
0001
0010
,
0100
0000
1000
0001
,
0000
0100
0000
0010
,
1000
0000
0001
0010
,
0000
0100
0100
0110
,
0010
0000
1000
1000
,
0001
0000
0001
0001
,
0010
0100
0010
0100
,
1000
0010
0100
0001
,
1000
0000
0100
0100
,
0010
0000
0010
0010
,
0001
1000
0001
1000
,
0010
0000
0100
0110
,
0010
0000
0001
0001
,
1000
0000
1000
1000
,
0010
0100
0010
0100
,
0001
0010
0100
1000
,
0001
0000
0100
0100
,
0010
0000
0010
0010
,
1000
0001
1000
0001
,
0010
0000
0100
1000
,
1001
0000
0000
0000
;

//---------------dance-single - ----------------
#NOTES:
     dance-single:
     :
     Medium:
     7:
     0.319154,0.350519,0.327408,0.096296,0.004815,232.000000,198.000000,34.000000,10.000000,0.000000,0.000000,0.319154,0.350519,0.327408,0.096296,0.004815,232.000000,198.000000,34.000000,10.000000,0.000000,0.000000:
0000
0000
0000
0000
,
0000
0000
0000
0000
,
0000
0000
0000
0000
,
0001
0100
0001
0100
0010
1000
0010
1000
,
0000
0001
0000
1000
,
0100
1000
0100
1000
0001
0010
0001
0010
,
0100
0000
1000
1001
,
0200
0010
0301
1001
,
0101
0000
0010
0000
1000
0001
0100
0000
,
0001
0000
0000
0010
1000
0000
0000
0001
,
0100
0000
0000
0010
1010
0000
1100
0000
,
0200
0010
1300
1001
,
1100
0000
0010
0000
0001
1000
0100
0000
,
1000
0000
0000
0010
0001
0000
0000
1000
,
0100
0000
0000
0010
0011
0000
0101
0000
,
1001
1000
0001
0001
,
0110
0000
0100
0000
,
0010
0010
0100
0100
,
1000
0001
1000
0001
,
0100
0010
1000
0001
,
0100
0000
1000
0100
1000
0000
0000
0001
,
0100
0000
0000
0010
1000
0000
0100
0000
,
0010
0001
0100
0000
0010
1000
0100
0000
,
0010
0001
1000
0110
,
2002
0000
0000
3003
,
0200
0000
0000
0300
,
0020
0000
0000
0030
,
0000
0000
0000
0000
,
1000
0010
0001
0010
,
1000
0010
0001
0010
,
1000
0100
0001
0100
,
1000
0100
0001
0100
,
1000
1100
1000
1100
,
0001
0010
0100
0000
1000
0010
0100
0000
,
0001
0101
0001
0101
,
0000
0000
1000
0000
0000
0010
0000
0000
0100
0000
0000
0000
0001
0000
0000
0000
,
0020
0100
0031
1001
,
0011
0000
0100
0000
1000
0100
0001
0000
,
0010
0000
0000
0100
1000
0000
0000
0001
,
0010
0000
0000
0100
1100
0000
1010
0000
,
0020
0100
1030
1001
,
1010
0000
0100
0000
0001
0100
1000
0000
,
0010
0000
0000
0100
0001
0000
0000
1000
,
0010
0000
0000
0100
0101
0000
1001
0000
,
0020
0100
1030
1001
,
1010
0000
0100
0000
0001
0100
1000
0000
,
0010
0000
0000
0100
0001
0000
0000
1000
,
0010
0000
0000
0100
0101
0000
0011
0000
,
0020
0100
0031
1001
,
0011
0000
0100
0000
1000
0100
0001
0000
,
0010
0000
0000
0100
1000
0000
0000
0001
,
0010
0000
0000
0100
1100
0000
0101
0000
,
1001
0000
0000
0000
;

//---------------dance-single - ----------------
#NOTES:
     dance-single:
     :
     Hard:
     9:
     0.419577,0.425630,0.221482,0.154074,0.057778,305.000000,282.000000,23.000000,16.000000,0.000000,0.000000,0.419577,0.425630,0.221482,0.154074,0.057778,305.000000,282.000000,23.000000,16.000000,0.000000,0.000000:
0000
0000
0000
0000
,
0000
0000
0000
0000
,
0000
0000
0000
0000
,
0001
1000
0010
0100
0001
1000
0100
0010
,
0002
1000
2000
0000
0003
0001
3001
0000
,
1000
0010
0100
0001
1000
0100
0010
0001
,
2000
0000
0000
3001
0001
0100
0010
0000
,
0110
0000
1000
0010
0100
0000
0101
0000
,
1100
0000
0000
0000
1000
0000
0001
0000
0010
0000
0000
0100
0000
0000
1000
0000
,
0002
0000
0100
0000
1000
0000
0013
0001
,
0001
0000
1000
0100
0100
1000
0001
0100
,
0010
0000
0001
0010
0100
0000
1100
0000
,
0101
0000
0000
0000
1000
0000
0001
0000
0100
0000
0000
0010
0000
0000
1000
0000
,
0001
0000
0200
0010
0310
0000
2000
0001
,
3001
0000
0100
0010
0010
0100
0001
0010
,
0100
0000
1000
0000
0000
0100
0000
0000
0010
0000
0000
0001
0000
0000
1000
0000
,
0001
0100
1000
0100
0010
1000
0001
0100
,
0010
0000
0001
0010
1000
0100
0010
0000
,
0001
0000
0100
0001
1000
0000
0100
1000
,
0001
0000
0010
0001
1000
0010
0100
0001
,
1000
0010
0010
0100
0100
0000
0001
0010
,
0010
0000
0100
1000
1000
0001
0010
0100
,
1000
0001
1000
0000
0010
0100
0001
1000
,
1000
0100
0010
0100
1000
0000
0110
0000
,
2002
0000
0000
3000
,
0200
0000
0000
0003
,
0020
0000
0000
0000
,
0330
0000
0000
0000
,
1000
0100
0010
0100
1000
0100
0010
0100
,
1000
0000
0010
0000
0100
0000
0010
0000
1000
0000
0010
0000
0000
0100
0000
0000
,
0001
0010
0100
0010
0001
0010
0100
0010
,
0001
0000
0100
0000
0010
0000
0100
0000
0001
0000
0100
0000
0000
0010
0000
0000
,
1010
0000
0000
1000
0001
0010
0100
1000
,
0000
0000
0001
0000
0000
0001
0000
0000
0100
0000
0000
0000
0100
0000
0000
0000
,
0010
0000
0000
1000
0001
0100
0010
1000
,
0000
0000
1001
0000
0000
1001
0000
0000
0110
0000
0000
0000
0110
0000
0000
0000
,
1001
0000
1000
0001
0100
0000
0011
0000
,
1100
0000
0000
0000
0001
0000
1000
0000
0100
0000
0000
0010
0001
0000
0100
0000
,
2000
0000
3200
0000
0320
0000
0031
1000
,
1000
0000
0100
0010
0010
0100
1000
0001
,
0100
0000
0000
0000
0010
0000
0000
0000
1000
0000
0000
0010
0100
0000
0001
0000
,
0010
0000
0100
1000
0001
0000
0100
0000
,
0001
0000
0100
1000
1000
0000
0010
0100
,
0100
0000
0001
0010
0010
0001
0100
0010
,
0110
0000
1000
0010
0100
0000
0101
0000
,
1100
0000
0000
0000
1000
0000
0001
0000
0010
0000
0000
0100
1000
0000
0010
0000
,
0002
0000
0100
0000
1000
0000
0013
0001
,
0001
0000
1000
0100
0100
1000
0001
0100
,
0010
0000
0001
0010
0100
0000
1100
0000
,
0101
0000
0000
0000
1000
0000
0001
0000
0100
0000
0000
0010
1000
0000
0100
0000
,
0001
0000
0020
0001
0031
0000
2000
0100
,
3100
0000
1000
0010
1010
0000
0101
0000
,
1001
0000
0000
0000
;

//---------------dance-double - ----------------
#NOTES:
     dance-double:
     :
     Easy:
     5:
     0.215979,0.250371,0.038519,0.028889,0.000000,157.000000,153.000000,4.000000,3.000000,0.000000,0.000000,0.215979,0.250371,0.038519,0.028889,0.000000,157.000000,153.000000,4.000000,3.000000,0.000000,0.000000:
00000000
00000000
00000000
00000000
,
00000000
00000000
00000000
00000000
,
00000000
00000000
00000000
00000000
,
10000000
10000000
01000000
00010000
,
00000000
00001000
00000000
00010000
,
00001000
00001000
00000100
00000001
,
00001000
00000000
00000100
00000100
,
00000010
00000000
00000001
00000001
,
00001000
00000000
00000100
00010000
,
00001000
00001000
00010000
00010000
,
00001000
01000000
00010000
10000000
,
01000000
00000000
00100000
00100000
,
00010000
00000000
01000000
00001000
,
00010000
00010000
00001000
00001000
,
00010000
00000100
00001000
00000001
,
00000100
00000000
00000000
00000110
,
00001000
00000000
00000001
00000000
,
00000100
00000000
00001000
00000000
,
00010000
00000000
01000000
00000000
,
10000000
10000000
00010000
00010000
,
01000000
00000000
00100000
00010000
,
00001000
00000000
00000100
00000010
,
00001000
00001000
00000001
00000001
,
00000010
00000000
00000100
00010000
,
00012000
00000000
00000000
00003000
,
00020000
00000000
00000000
00030000
,
00002000
00000000
00000000
00003000
,
00000000
00000000
00000000
00000000
,
00010000
00100000
00010000
00100000
,
00010000
01000000
00010000
01000000
,
00001000
00010000
00001000
00010000
,
00000100
00001000
00000100
00001000
,
00000010
00000000
00000100
00000001
,
00000000
00000010
00000000
00000100
,
00001000
00000000
00010000
00100000
,
00000000
10000000
00010000
10010000
,
10000000
00000000
10000000
10000000
,
00010000
00000000
01000000
00001000
,
00010000
00010000
00001000
00001000
,
00010000
00000100
00001000
00000001
,
00000100
00000000
00000010
00000010
,
00001000
00000000
00000100
00010000
,
00001000
00001000
00010000
00010000
,
00001000
01000000
00010000
10000000
,
01000000
00000000
10000000
10000000
,
00010000
00000000
00100000
00001000
,
00010000
00010000
00001000
00001000
,
00010000
00000010
00001000
00000001
,
00000010
00000000
00000100
00000100
,
00001000
00000000
00000100
00010000
,
00001000
00001000
00010000
00010000
,
00001000
01000000
00010000
10000000
,
10010000
00000000
00000000
00000000
;

//---------------dance-double - ----------------
#NOTES:
     dance-double:
     :
     Medium:
     7:
     0.293016,0.325482,0.260000,0.086667,0.004815,213.000000,186.000000,27.000000,9.000000,0.000000,0.000000,0.293016,0.325482,0.260000,0.086667,0.004815,213.000000,186.000000,27.000000,9.000000,0.000000,0.000000:
00000000
00000000
00000000
00000000
,
00000000
00000000
00000000
00000000
,
00000000
00000000
00000000
00000000
,
00000100
00000001
00000100
00000000
00001000
00000100
00001000
00000000
,
00000000
00010000
00000000
00001000
,
00010000
01000000
00010000
00000000
01000000
10000000
01000000
00000000
,
00100000
00000000
00010000
10000000
,
00020000
00100000
01030000
01001000
,
00001000
00011000
00010000
00010100
,
00001000
00000000
00000000
00000010
00000100
00000000
00000000
00000001
,
00001000
00000000
00000000
00000100
00010000
00000000
00001000
00000000
,
02000000
00100000
03010000
01010000
,
01000000
01001000
00001000
00011000
,
00010000
00000000
00000000
00000100
00001000
00000000
00000000
00000001
,
00000100
00000000
00000000
00000010
00001000
00000000
00001010
00000000
,
00000101
00000001
00000100
00001000
,
00010000
00010000
00001000
00001000
,
00100000
00010000
01000000
00100000
,
10000000
10000000
00010000
00010000
,
10000000
01000000
00010000
00001000
,
00000100
00000000
00000000
00000001
00000010
00000000
00000000
00000100
,
00001000
00000010
00010000
00001000
,
00100000
00000000
00000000
00010000
01000000
00000000
00000000
00100000
,
10000000
01000000
00010000
00001000
,
00020000
00000000
00000000
00030000
,
00002000
00000000
00000000
00003000
,
00020000
00000000
00000000
00030000
,
00000000
00000000
00000000
00000000
,
00000001
00000100
00001000
00000100
,
00000001
00000100
00001000
00010000
,
01000000
10000000
01000000
00010000
,
01000000
10000000
01000000
00010000
,
00001000
00011000
00010000
00011000
,
00000100
00000000
00001000
00000000
00000010
00000100
00000010
00000000
,
00000001
00001001
00001000
00001001
,
00000000
00000000
00000001
00000000
00000000
00000100
00000000
00000000
00001000
00000000
00000000
00000000
00011000
00000000
00000000
00000000
,
02000000
00100000
03010000
01001000
,
00001000
00011000
00010000
00010100
,
00001000
00000000
00000000
00000010
00000100
00000000
00000000
00000001
,
00001000
00000000
00000000
00000100
00010000
00000000
00001000
00000000
,
02000000
00100000
03010000
01010000
,
01000000
01001000
00001000
00011000
,
00010000
00000000
00000000
00000100
00001000
00000000
00000000
00000001
,
00000100
00000000
00000000
00000010
00001000
00000000
00000100
00000000
,
00020000
00000010
00031000
00101000
,
00100000
00110000
00010000
10010000
,
10000000
00000000
00000000
00010000
01000000
00000000
00000000
00001000
,
00010000
00000000
00000000
00000010
00001000
00000000
00000001
00000000
,
00000200
00000010
00000301
00001001
,
00001000
00001100
00000100
00010100
,
00010000
00000000
00000000
00001000
00100000
00000000
00000000
00010000
,
01000000
00000000
00000000
00100000
10000000
00000000
01010000
00000000
,
10010000
00000000
00000000
00000000
;

//---------------dance-double - ----------------
#NOTES:
     dance-double:
     :
     Hard:
     10:
     0.405821,0.425630,0.250371,0.317778,0.057778,295.000000,269.000000,26.000000,33.000000,0.000000,0.000000,0.405821,0.425630,0.250371,0.317778,0.057778,295.000000,269.000000,26.000000,33.000000,0.000000,0.000000:
00000000
00000000
00000000
00000000
,
00000000
00000000
00000000
00000000
,
00000000
00000000
00000000
00000000
,
00100000
10000000
00010000
01000000
00001000
00010000
00000010
00001000
,
00000000
00000001
00000010
00000000
00000000
00001000
00000100
00000000
,
00000010
00000001
00001000
00000100
00010000
00001000
00100000
00010000
,
10000000
00000000
00000000
00100000
01000000
00010000
10000000
00000000
,
10010000
00000000
00100000
10000000
01000000
10000000
00010000
00000000
,
01000000
00000000
00000000
00000000
00100000
00000000
01000000
00000000
00001000
00000000
00000000
00010000
00000000
00000000
00000100
00000000
,
00000020
00000000
00000032
00001000
00002003
00000000
00003200
00010000
,
00020300
00000000
00031000
00100000
00101000
00000000
00110000
00000000
,
01100000
00000000
01000000
10000000
00100000
10000000
00010000
00000000
,
00100000
00000000
00000000
00000000
01000000
00000000
00100000
00000000
00001000
00000000
00000000
00010000
00000000
00000000
00000010
00000000
,
00000200
00000000
00000302
00001000
00002003
00000000
00003020
00010000
,
00020030
00000000
00031000
01000000
01001000
00000000
01010000
00000000
,
10010000
00000000
10000000
00000000
00000000
00100000
00000000
00000000
01000000
00000000
00000000
00010000
00000000
00000000
10000000
00000000
,
01000000
00010000
00001000
00000100
,
00000001
00000000
00000010
00000000
00000001
00000100
00001000
00000000
,
00010000
01000000
10000000
00100000
,
00010000
00000000
00001000
00000100
00000001
00000010
00000001
00000100
,
00000010
00001000
00000100
00010000
00001000
00000000
00100000
00010000
,
01000000
00000000
00100000
10000000
01000000
10000000
00100000
01000000
,
00001000
00010000
00000100
00000000
00001000
00000001
00000100
00000000
,
00001000
00000000
00000100
00000001
00000010
00001000
00010000
00000000
,
00021000
00000000
00000000
00030000
,
02000000
00000000
00000000
03000000
,
20000000
00000000
00000000
30000000
,
00000000
00000000
00000000
00000000
,
10000000
01000000
00010000
01000000
10000000
01000000
00010000
01000000
,
10000000
00000000
00100000
00000000
00010000
00000000
00100000
00000000
10000000
00000000
00100000
00000000
00000000
00010000
00000000
00000000
,
00001000
00000010
00000001
00000010
00001000
00000010
00000001
00000010
,
00000100
00000000
00001000
00000000
00000010
00000000
00000100
00000000
00000001
00000000
00001000
00000000
00000000
00000001
00000000
00000000
,
00001001
00000000
00000000
00000100
00010000
00001000
01000000
00100000
,
00000000
00000000
10000000
00000000
00000000
10000000
00000000
00000000
00010000
00000000
00000000
00000000
00010000
00000000
00000000
00000000
,
10000000
00000000
00000000
01000000
00010000
00001000
00000100
00000001
,
00000000
00000000
00001001
00000000
00000000
00001001
00000000
00000000
00000110
00000000
00000000
00000000
00000110
00000000
00000000
00000000
,
00001001
00000000
00000010
00000001
00000100
00000001
00001000
00000000
,
00000100
00000000
00000000
00000000
00000010
00000000
00000100
00000000
00010000
00000000
00000000
00001000
00000000
00000000
01000000
00000000
,
00200000
00000000
20300000
00010000
30020000
00000000
02030000
00001000
,
03002000
00000000
00013000
00000010
00010010
00000000
00001010
00000000
,
00000110
00000000
00000100
00000001
00000010
00000001
00001000
00000000
,
00000010
00000000
00000000
00000000
00000100
00000000
00000010
00000000
00010000
00000000
00000000
00001000
00000000
00000000
00100000
00000000
,
02000000
00000000
23000000
00010000
30020000
00000000
00230000
00001000
,
00302000
00000000
00013000
00000100
00010100
00000000
00001100
00000000
,
00001001
00000000
00000100
00000001
00000010
00000001
00001000
00000000
,
00000010
00000000
00000000
00000000
00000100
00000000
00000010
00000000
00010000
00000000
00000000
00001000
00000000
00000000
00100000
00000000
,
02000000
00000000
23000000
00010000
30020000
00000000
00230000
00001000
,
00302000
00000000
00013000
00000100
00010100
00000000
00001100
00000000
,
00000110
00000000
00000010
00000001
00000100
00000001
00001000
00000000
,
00000100
00000000
00000000
00000000
00000010
00000000
00000100
00000000
00010000
00000000
00000000
00001000
00000000
00000000
01000000
00000000
,
00200000
00000000
20300000
00010000
30020000
00000000
02030000
00001000
,
03002000
00000000
00013000
00000010
00010010
00000000
01001000
00000000
,
00011000
00000000
00000000
00000000
;

//---------------dance-single - ----------------
#NOTES:
     dance-single:
     :
     Challenge:
     13:
     0.568149,0.627432,0.327408,0.173334,0.356297,413.000000,379.000000,34.000000,18.000000,0.000000,0.000000,0.568149,0.627432,0.327408,0.173334,0.356297,413.000000,379.000000,34.000000,18.000000,0.000000,0.000000:
// measure 0
0000
0000
0000
0000
,  // measure 1
0000
0000
0000
0000
,  // measure 2
0000
0000
0000
0000
,  // measure 3
0010
0001
0010
0100
1000
0010
0001
0100
,  // measure 4
0010
1010
1010
0001
1000
1100
1100
0000
,  // measure 5
0001
0010
0001
0100
1000
0010
0100
0001
,  // measure 6
0010
0000
0100
1000
0001
0001
0001
0100
,  // measure 7
1001
0000
0010
1000
0100
0010
0001
0000
,  // measure 8
0110
0000
0000
0000
0100
0000
1000
0000
0010
0100
0000
0010
0100
0000
0001
0000
,  // measure 9
2000
3010
2000
3001
2000
3100
0020
0001
,  // measure 10
0031
0100
0010
1000
1100
0000
0101
0000
,  // measure 11
1001
0000
0010
0001
0100
0010
1000
0000
,  // measure 12
0001
0000
0100
0000
0001
0000
1000
0000
0100
0010
0000
0100
0010
0000
0001
0000
,  // measure 13
0100
0120
0000
1000
1030
0100
0001
0001
,  // measure 14
0010
0000
0000
0000
0001
0000
0100
0000
0010
1000
0010
1000
0010
1000
0010
0000
,  // measure 15
0100
0000
0001
0000
0000
1000
0000
1000
0100
0000
0010
0001
0000
0010
0001
0000
,  // measure 16
1000
0000
0010
0000
0010
0000
0100
0000
0001
0000
1000
0000
0100
0010
0000
0001
,  // measure 17
0000
0000
0100
0000
0010
0000
1000
0001
0000
1000
0100
0000
0010
0000
0001
0000
,  // measure 18
0100
0010
0100
0000
0001
0000
1000
0010
0000
0000
1000
0000
0100
0010
0000
0010
,  // measure 19
0001
0000
0100
0000
0001
1000
0001
0000
0010
0000
0100
0000
1000
0001
1000
0000
,  // measure 20
0100
0000
0010
0000
0001
1000
0001
1000
0001
0000
0100
0000
0100
0000
0010
0000
,  // measure 21
1000
0000
0001
0100
0000
0001
0100
0000
0010
0000
1000
0000
0200
0000
0000
0000
,  // measure 22
1300
0001
0000
1000
0001
0000
0010
0100
0000
0100
0000
0100
1000
0000
0001
0100
,  // measure 23
0001
0000
0100
0010
0000
0100
0010
0000
1000
0001
1000
0001
1000
0001
1000
0000
,  // measure 24
2010
0000
0000
0002
0000
0000
0000
0000
0000
0000
3000
0000
0000
0000
0103
0010
,  // measure 25
2000
0000
0000
0000
0000
0000
0000
0001
,  // measure 26
3002
0000
0000
0020
0000
0000
0000
0000
0000
0000
0000
0000
0000
0000
0000
0000
,  // measure 27
0000
0000
0000
0000
0000
0033
0000
0000
0000
1001
0000
0000
0110
0000
0000
1000
,  // measure 28
0001
0010
1100
1000
0000
0010
0101
0000
,  // measure 29
1000
0000
0001
0000
1010
0000
0100
0000
0000
0000
0001
0000
1000
0100
0000
0010
,  // measure 30
0001
0100
0101
0010
0000
1000
1100
0000
,  // measure 31
1000
0000
0000
0000
0100
0000
0000
0000
1000
0000
0000
0000
0001
0000
0000
0000
0100
0000
0000
0000
0001
0000
0000
0000
1000
0000
0000
0000
0000
0000
0010
0000
0000
0000
0000
0000
0100
0000
0000
0001
0000
0000
0000
0000
0000
0100
0000
0000
,  // measure 32
0001
0000
1001
0010
1000
0100
1000
0001
,  // measure 33
0000
0000
0010
0000
0100
1000
0000
1000
0002
0000
0000
0000
0103
0000
0010
0000
,  // measure 34
1001
0000
0100
0001
0010
0100
1000
0001
,  // measure 35
0000
0000
1100
0000
0000
0110
0000
0000
0011
0000
0000
0000
0101
0000
0000
0000
,  // measure 36
1001
0000
0010
1000
0001
1000
0100
0010
,  // measure 37
0001
0000
0000
0000
0100
0000
0010
0000
1000
0001
0000
0001
0010
0000
0100
0000
,  // measure 38
2000
3001
2000
3100
2000
3010
0200
0001
,  // measure 39
0301
0010
0001
0100
1010
0000
0101
0000
,  // measure 40
0110
0000
0000
0000
1000
0000
0001
0000
0010
0100
0000
0010
0001
0000
1000
0000
,  // measure 41
0010
0000
0100
0001
1000
0100
0010
0000
,  // measure 42
0001
0000
0100
0010
0010
0000
1000
0001
,  // measure 43
0001
0000
0010
0100
0000
0100
1000
0000
1100
0000
0000
0000
0011
0000
0000
0000
,  // measure 44
1010
0000
0100
0000
0001
0000
1000
0000
0100
0010
0100
0010
0001
0000
1000
0000
,  // measure 45
0010
0000
1000
0000
0001
0000
1000
0000
0010
0100
0001
0100
0010
0000
1000
0000
,  // measure 46
0200
0000
0310
0000
0002
0000
1003
0000
0010
1000
0001
1000
0100
0000
0010
0000
,  // measure 47
0001
0000
1000
0010
0000
0100
0001
0000
0011
0000
0000
0000
1100
0000
0000
0000
,  // measure 48
0101
0000
0010
0000
1000
0000
0001
0000
0100
0010
0100
0001
1000
0000
0100
0000
,  // measure 49
0010
0000
0001
0000
1000
0000
0001
0000
0100
0010
0100
0010
1000
0000
0001
0000
,  // measure 50
0010
0001
0100
1000
0001
0100
0010
1000
,  // measure 51
0100
0000
0010
0001
0010
0000
0100
0000
1000
0000
0001
0100
0010
1000
0100
0010
,  // measure 52
0001
1000
0000
0000
0000
0000
0000
0000
;
