#TITLE:Wild World;
#ARTIST:Mr. Big;
#BANNER:Wild World-bn.png;
#BACKGROUND:Wild World-bg.png;
#JACKET:Wild World-jacket.png;
#MUSIC:Wild World.ogg;
#SAMPLESTART:41.333;
#SAMPLELENGTH:20;
#DISPLAYBPM:141:147;
#BPMS:0=141,4=143,8=144,12=145,20=147,32=145.4,48=144.4,60=144.75,64=146,72=146.7,76=145.6,80=143.68,84=147.3,92=142,100=143.4,116=145.13,148=144.08,168=141.2,176=143.2,180=145.2,188=143.75,204=142.25,212=143.35,224=142.18,240=145.01,248=142.81,260=143.87,276=144.75,288=144.09;
#BGCHANGES:;

//---------------dance-single - ----------------
#NOTES:
     dance-single:
     :
     Beginner:
     2:
     :
0000
0000
0000
0000
,
0000
0000
0000
0000
,
0000
0000
0000
0000
,
0000
0000
0000
0000
,
0000
0000
0000
0000
,
0000
0000
0000
0000
,
1000
0000
0001
0000
,
0000
0000
0000
0000
,
0000
0000
0100
0000
,
0010
0000
1000
0000
,
1000
0000
0000
0000
,
0001
0000
1000
0000
,
0100
0000
0000
0000
,
0010
0000
0001
0000
,
0100
0000
0100
0000
,
0010
0000
1000
0000
,
0000
0000
1000
0000
,
0001
0000
1000
0000
,
0010
0000
0100
0000
,
0001
0000
0100
0000
,
0010
0000
0000
0000
,
1000
0000
0001
0000
,
0100
0000
0000
0010
,
0000
0000
0000
0000
,
0000
0000
0000
0000
,
0100
0000
1001
0000
,
0010
0000
0100
0000
,
0001
0000
0001
0000
,
0000
0000
0000
0000
,
0010
0000
0001
0000
,
0100
0000
0010
0000
,
1000
0000
0000
0000
,
0001
0000
0000
0000
,
0100
0000
1001
0000
,
0010
0000
0100
0000
,
0001
0000
0001
0000
,
0000
0000
0000
0000
,
0010
0000
1000
0000
,
0001
0000
0000
0000
,
1000
0000
0100
0000
,
0000
0000
0000
0000
,
0000
0000
0001
0000
,
0100
0000
0001
0000
,
1000
0000
0000
0000
,
0010
0000
1000
0000
,
0100
0000
0000
0000
,
1000
0000
0001
0000
,
0100
0000
0100
0000
,
0001
0000
0010
0000
,
0000
0000
0001
0000
,
0100
0000
0010
0000
,
0100
0000
0001
0000
,
1000
0000
0100
0000
,
0010
0000
0000
0000
,
0001
0000
1000
0000
,
0001
0000
0000
0100
,
0000
0000
0000
0000
,
0000
0000
0010
0000
,
1000
0000
1001
0000
,
0001
0000
0100
0000
,
0010
0000
0010
0000
,
0000
0000
0000
0000
,
1000
0000
0001
0000
,
0010
0000
0001
0000
,
0100
0000
0000
0000
,
0010
0000
0000
0000
,
1000
0000
1001
0000
,
0001
0000
1000
0000
,
0010
0000
0010
0000
,
0000
0000
0000
0000
,
0000
1001
0000
0000
,
0010
0000
0000
0000
,
1000
0000
1001
0000
;

//---------------dance-single - ----------------
#NOTES:
     dance-single:
     :
     Easy:
     6:
     :
0000
0000
0000
0000
,
0000
0000
0000
0000
,
0000
0000
0000
0000
,
0000
0000
0000
0000
,
0000
0000
0000
0000
,
0000
0000
0000
0000
,
1000
0000
0001
0000
,
1000
0001
0100
0000
,
0010
0000
1000
0000
,
0100
1000
0001
0001
,
0100
0000
0000
0000
,
0010
1000
0010
1000
,
0001
0000
0000
0000
,
0010
0001
0100
0010
,
1000
0000
0001
0000
,
0010
0001
0100
0000
,
1000
0000
0010
1000
,
0001
0000
0110
1001
,
0110
0000
0001
0000
,
1000
0010
1000
0100
,
0010
0000
0000
0001
,
0100
0010
1000
0001
,
0010
0000
0011
1100
,
0000
0000
1000
1000
,
0001
0001
1000
0001
,
0100
0100
1001
0000
,
0110
0001
1000
0001
,
0100
0100
1001
0000
,
0010
1000
0100
0001
,
0010
0000
0001
1000
,
0100
0000
1000
0001
,
0100
0000
0010
0000
,
1000
0001
1000
0001
,
0100
0100
1001
0000
,
0110
1000
0001
1000
,
0100
0100
1001
0000
,
0010
1000
0100
0001
,
0010
0000
0001
0100
,
1000
0000
0000
0010
,
1000
0000
0110
0000
,
0001
0001
1000
1000
,
0010
0000
1000
0100
,
1000
1000
0001
0100
,
0010
0000
0000
0000
,
1000
0100
1000
0001
,
0100
0000
0010
0000
,
1000
0100
0010
0000
,
0001
0000
1000
0000
,
0001
0010
0100
0000
,
1000
0000
0010
1000
,
0001
0000
1001
0110
,
1001
0000
1000
0100
,
0010
0010
0001
1000
,
0010
0000
0000
0100
,
0001
0010
0100
1000
,
0010
0000
1100
0011
,
0000
0000
1000
1000
,
0001
0001
1000
0001
,
0100
0100
1001
0000
,
0110
0000
0001
1000
,
0010
0010
1001
0000
,
0010
1000
0100
0001
,
0010
0000
0001
0100
,
1000
0000
0010
1000
,
0100
0000
0000
0000
,
1000
0001
1000
0001
,
0100
0100
1001
0000
,
0110
0000
0001
1000
,
0010
0010
1001
0000
,
0010
1000
0100
0001
,
0000
1001
0010
1000
,
0001
0000
0000
0100
,
0010
0000
1000
0000
;

//---------------dance-single - ----------------
#NOTES:
     dance-single:
     :
     Medium:
     8:
     :
0000
0000
0000
0000
,
0000
0000
0000
0000
,
0000
0000
0000
0000
,
0000
0000
0000
0000
,
0000
0000
0000
0000
,
0000
0000
0000
0000
,
1000
0000
0101
0000
,
1000
0001
0000
0100
0000
0010
0000
0100
,
0001
0000
0000
0000
0010
0100
0000
1000
,
0000
0010
0000
1000
0001
0000
0100
0000
,
0010
0000
0000
0000
0000
0000
1000
0001
,
1000
0100
0010
0001
,
0100
0000
0000
0000
0000
0000
0010
1000
,
0010
0000
0100
0001
0000
0000
1000
0000
,
0001
0000
1100
0000
,
0001
0100
0000
0010
0000
1000
0000
0010
,
0100
0000
0000
0000
0001
1000
0001
1000
,
0001
0000
0011
0110
,
1100
0000
0000
0000
0010
0100
0010
0000
,
1000
0001
1000
0000
0100
0000
0010
0000
,
0001
0000
0000
0000
0000
0000
1000
0010
,
1000
0100
0010
0001
,
0100
0000
0110
1001
,
0000
0010
0100
0010
1000
0000
1000
0000
,
0001
0000
0001
0000
1000
0010
0100
0001
,
1000
1000
0101
0000
,
1100
0000
0001
1000
0000
0001
1000
0000
,
0010
0100
1001
0000
,
0001
0010
0100
1000
0001
0010
0100
1000
,
0010
0010
1000
0001
,
0100
0010
0000
0000
1000
0100
1000
0000
,
0001
1000
0110
0000
,
1000
0010
1000
0010
1000
0010
1000
0010
,
1000
1000
0101
0000
,
1010
0000
0010
0100
0000
0010
0100
0000
,
0001
1000
0110
0000
,
0001
0010
0100
1000
0001
0010
0100
1000
,
0010
0010
1000
0001
,
0100
0010
1000
0000
0000
0000
0001
0100
,
0010
1000
0101
0000
,
1000
0100
0010
0001
1000
0100
0010
0001
,
0100
0000
0000
0000
0010
1000
0010
0000
,
0100
0001
1000
0000
0100
0000
0100
0000
,
0010
0000
0000
0000
1001
0000
0010
0100
,
0010
0000
1000
0001
0000
0000
0010
0100
,
1000
0000
0000
0000
1100
0000
0001
0100
,
0001
0000
0010
0001
1000
0000
0010
0000
,
0100
0000
1010
0000
,
0100
0010
0000
1000
0000
0001
0000
1000
,
0100
0000
0000
0000
1000
0001
1000
0001
,
1000
0000
1100
0110
,
0011
0000
0000
0000
0100
0001
0100
0000
,
0010
1000
0001
0000
0100
0000
0100
0000
,
0010
0000
0000
0000
1001
0000
1000
0100
,
1000
0000
0001
0000
0010
0100
1000
0000
,
0010
0100
0110
1001
,
0000
0010
0100
0010
1000
0000
1000
0000
,
0001
0000
0001
0000
1000
0010
0100
0001
,
1000
1000
0101
0000
,
1010
0000
0000
0001
0100
0001
0100
0000
,
0010
0100
1001
0000
,
0001
0010
0100
1000
0001
0010
0100
1000
,
0010
0000
0010
0000
1000
0000
0001
0010
,
0100
0000
0000
0000
1000
0010
1000
0010
,
0100
0001
1010
0000
,
1000
0010
1000
0010
1000
0010
1000
0010
,
0100
0100
1001
0000
,
0101
0000
0000
0010
1000
0010
1000
0000
,
0100
0010
0011
0000
,
0001
0010
0100
1000
0001
0010
0100
1000
,
0000
0000
1001
0000
0010
0000
0100
0001
,
0000
1000
0000
0000
0000
0000
0001
1000
,
0100
0000
0010
0000
;

//---------------dance-single - ----------------
#NOTES:
     dance-single:
     :
     Hard:
     10:
     :
0000
0000
0000
0000
,
0000
0000
0000
0000
,
0000
0000
0000
0000
,
0000
0000
0000
0000
,
0000
0000
0000
0000
,
0000
0000
0000
0000
,
1000
0000
0101
0000
,
1000
0001
1000
0010
0000
0100
0000
0010
,
1000
0000
0000
0000
0001
0100
0010
1000
,
0000
0100
0000
1000
0001
0000
0100
0000
,
0010
0000
0000
0000
0000
0000
1000
0001
,
1000
0100
0010
0000
0001
0000
0100
0000
,
0010
0000
0000
0000
0000
0000
1000
0100
,
0010
0100
1000
0001
0000
0100
0010
0000
,
1000
0000
0101
0000
,
0010
0100
0010
1000
0000
0001
0000
0100
,
0010
0000
0000
0100
0001
0100
0001
1000
,
0001
0000
0011
0110
,
1100
0000
0000
0000
0010
1000
0010
1000
,
0100
0010
0001
0000
0100
0000
0001
1000
,
0000
0010
0100
0000
0000
0001
0100
0010
,
1000
0100
1000
0000
0001
0100
0010
0000
,
1010
0100
0101
1100
,
0000
0010
0100
0010
1000
0001
0100
0010
,
1000
0001
0100
0010
1000
0001
0100
0010
,
1000
1000
0101
0010
,
1100
0000
0001
1000
0000
1000
0010
0100
,
0001
1000
0110
0000
,
0001
0010
0100
1000
0001
0010
0100
1000
,
0010
0000
0010
0000
1000
0001
1000
0100
,
0010
0001
0000
0000
1000
0010
1000
0001
,
0100
0100
1001
0000
,
1000
0010
1000
0010
1000
0010
1000
0010
,
0100
0100
1010
0001
,
0011
0000
0100
1000
0000
1000
0010
0100
,
0001
1000
0110
0000
,
0001
0010
0100
1000
0001
0010
0100
1000
,
0010
0000
0010
0000
1000
0001
0010
0100
,
1000
0001
0100
0000
0010
0000
1000
0100
,
0010
0100
1001
0000
,
0010
0100
0001
1000
0010
0100
0001
1000
,
0100
0000
0000
1000
1000
0010
0100
0001
,
0100
0001
0100
0010
1000
0000
1000
0000
,
0001
0000
0010
0000
0100
1000
0001
1000
,
0001
0100
0010
1000
0000
0010
0100
0001
,
1000
0100
0000
0000
0010
0001
1000
0001
,
0100
0010
0100
0010
1000
0001
0100
0000
,
0010
1000
0101
0000
,
0001
0010
0001
1000
0000
0010
0000
0100
,
0001
0000
0000
0010
0100
1000
0100
1000
,
0001
1000
0000
0000
1100
0000
0110
0000
,
0011
0000
0000
0000
0100
0001
0100
0010
,
1000
0001
0100
0000
0010
1000
0001
0000
,
0010
0100
1000
0000
0001
0100
0001
0100
,
0010
1000
0010
0100
0010
1000
0100
0000
,
1100
0001
0011
1010
,
0000
0010
0100
0010
1000
0001
0100
0010
,
1000
0001
0100
0010
1000
0001
0100
0010
,
1000
1000
0101
0010
,
1010
0000
0000
0001
0001
0100
0010
1000
,
0001
1000
0110
0000
,
0001
0010
0100
1000
0001
0010
0100
1000
,
0010
0000
0010
0000
1000
0001
1000
0100
,
0010
0000
0000
0000
0001
0100
0001
1000
,
0010
0100
1001
0000
,
1000
0010
1000
0010
1000
0010
0100
0001
,
1000
1000
0101
0001
,
1100
0000
0000
0010
0010
1000
0001
0100
,
0001
1000
0110
0000
,
0001
0010
0100
1000
0001
0010
0100
1000
,
0000
0000
1001
0000
0010
1000
0010
0100
,
0001
1000
0000
0100
0010
0001
0010
0001
,
1000
0000
0101
0000
;
