#TITLE:Why Do Fools Fall in Love;
#ARTIST:Diana Ross;
#BANNER:Why Do Fools Fall in Love-bn.png;
#BACKGROUND:Why Do Fools Fall in Love-bg.png;
#JACKET:Why Do Fools Fall in Love-jacket.png;
#MUSIC:Why Do Fools Fall in Love.ogg;
#SAMPLESTART:13.357;
#SAMPLELENGTH:20;
#DISPLAYBPM:160;
#BPMS:0=160.09;
#BGCHANGES:;

//---------------dance-single - ----------------
#NOTES:
     dance-single:
     :
     Beginner:
     3:
     :
0000
0000
0000
0000
,
0000
0000
0000
0000
,
0000
0000
0000
0000
,
0000
0000
0000
0000
,
0000
0000
0000
0000
,
0000
0000
0000
0000
,
0000
0000
0000
0000
,
1001
0000
0000
0000
,
0000
0000
0000
0000
,
0001
0000
0100
0000
,
0020
0000
0030
0000
,
2000
0000
3000
0000
,
0100
0000
1000
0000
,
0001
0000
0100
0000
,
0010
0000
0010
0000
,
1001
0000
0000
0000
,
0000
0000
0000
0000
,
0110
0000
0000
0000
,
0001
0000
1000
0000
,
0010
0010
0010
0000
,
1000
0000
0001
0000
,
0100
0100
0100
0000
,
0001
0000
0010
0000
,
0110
0000
0000
0000
,
0001
0001
0000
0000
,
1000
0000
0001
0000
,
1000
0000
0000
0000
,
0010
0000
0100
0000
,
0010
0000
0000
0000
,
2000
0000
3000
0000
,
0002
0000
0003
0000
,
0000
1001
0000
0110
,
0000
1001
0000
0110
,
0000
2000
0000
0000
,
0000
0000
3000
0000
,
0002
0000
0000
0000
,
0003
0000
0100
0000
,
0020
0000
0000
0000
,
0030
0000
1000
0000
,
0002
0000
0000
0000
,
0000
0000
0003
0000
,
0000
0100
0100
0100
,
0100
0000
0000
0000
,
0000
1000
0000
0001
,
0000
1000
0000
0001
,
0000
0010
0010
0010
,
0010
0000
0000
0000
,
0001
0000
0100
0000
,
1000
0000
0010
0010
,
0010
0000
0100
0000
,
0001
0000
1000
0000
,
0000
0100
0100
0000
,
1000
0000
0010
0000
,
0100
0000
0001
0000
,
1000
1000
1000
0000
,
0000
0001
0001
0001
,
0000
0000
0000
0000
,
0010
0000
0001
0000
,
0200
0000
0300
0000
,
0010
0000
1000
0000
,
0200
0000
0300
0000
,
1000
0000
0001
0000
,
0200
0000
0000
0300
,
0000
1001
0000
0110
,
0000
1001
0000
0110
,
0000
0200
0000
0000
,
0000
0000
0300
0000
,
0020
0000
0000
0000
,
0030
0000
1000
0000
,
2000
0000
0000
0000
,
3000
0000
0001
0001
,
0002
0000
0000
0000
,
0000
0000
0003
0000
,
0200
0000
0000
0000
,
0300
0000
0010
0000
,
2000
0000
3000
0000
,
0001
0000
0001
0000
,
0220
0000
0000
0000
,
0000
0000
0330
0000
,
1001
0000
0000
0000
;

//---------------dance-single - ----------------
#NOTES:
     dance-single:
     :
     Easy:
     7:
     :
0000
0000
0000
0000
,
0000
0000
0000
0000
,
0000
0000
0000
0000
,
0000
0000
0000
0000
,
0000
0000
0000
0000
,
0000
0000
0000
0000
,
0000
0000
0000
0000
,
1001
0110
1001
0000
,
0010
1000
0001
0000
,
0010
0100
2000
3000
,
0002
0003
0100
0010
,
1000
0100
0200
0300
,
0020
0030
0001
0100
,
0010
1000
1000
0000
,
0100
1000
0001
1000
,
1001
0100
0100
0100
,
0100
0010
1000
0000
,
0110
0000
0001
0001
,
0010
0100
2000
3000
,
0001
0010
0010
0000
,
0001
0100
2000
3000
,
0010
0100
0001
0000
,
0010
0100
1000
0001
,
0110
0100
0100
0100
,
0100
0010
0001
0000
,
2000
0010
0100
0010
,
0001
0001
3001
0000
,
0020
0100
1030
0000
,
0001
0001
0001
0000
,
1001
0000
0100
0000
,
0010
1000
0001
0000
,
0000
1001
0000
0110
,
0000
0000
1000
0000
0000
0001
0000
0000
1000
0000
0000
0001
,
0000
0100
0010
0100
,
0010
1000
0001
0000
,
0010
0001
0100
0100
,
0100
1000
0020
0030
,
1000
0001
1000
1000
,
0010
0100
0001
0000
,
0110
0000
0001
0001
,
1000
1000
0001
0000
,
0000
0000
0010
0000
0000
0000
0100
0000
0000
0100
0000
0000
,
0100
0000
2000
3000
,
0010
0110
0000
1001
,
0000
0001
0100
1000
,
0010
0000
1000
0001
,
0100
0000
0010
0000
,
1000
0100
1000
0001
,
0010
0000
0000
0000
0000
0110
0000
0000
1001
0000
0000
0110
,
0000
0000
0000
1000
0000
0000
0001
0000
0000
0000
0000
0020
,
0000
0031
0100
0001
,
0000
1000
0100
1000
,
0000
0001
0100
1000
,
0010
0000
0000
0100
0000
0000
1001
0000
0000
0000
0000
0001
,
0000
0100
0020
0030
,
1000
0100
1000
0001
,
0100
0100
0100
0000
,
0002
0013
0001
1000
,
0200
0000
0000
0300
,
1001
0100
0010
1000
,
0002
1000
2000
3003
,
0110
0001
0010
0100
,
2000
0000
0001
3100
,
0000
1001
0000
0110
,
0000
0000
1000
0000
0000
0001
0000
0000
1000
0000
0000
0001
,
0000
0010
0001
0001
,
1000
0010
0100
0001
,
1000
0100
0100
1000
,
0010
0100
0002
0003
,
0010
0001
1000
1000
,
0001
1000
0020
0030
,
2000
0001
0001
0001
,
3001
1001
0110
0000
,
2000
0000
0010
0000
,
0100
0000
0002
3003
,
0020
0000
0130
0000
,
0002
0000
1003
0000
,
0220
0000
0000
0000
,
0000
0330
1000
0001
,
2002
0000
0000
0000
,
0000
0000
0000
0000
,
3003
0000
0000
0000
;

//---------------dance-single - ----------------
#NOTES:
     dance-single:
     :
     Medium:
     10:
     :
0000
0000
0000
0000
,
0000
0000
0000
0000
,
0000
0000
0000
0000
,
0000
0000
0000
0000
,
0000
0000
0000
0000
,
0000
0000
0000
0000
,
0000
0000
0000
0000
,
1001
0101
1100
0101
,
0010
0000
0000
1000
0000
0001
0000
0000
0000
0000
0000
0000
,
0010
0000
0000
0100
0000
0000
1000
0000
0000
0001
0000
0001
,
0200
0000
0000
0300
0000
0010
1000
0000
0100
0000
0000
2000
,
0000
0000
3001
0100
0000
0000
0110
0000
0000
1001
0000
0000
,
0010
0000
1000
0000
0000
0001
0100
0000
0000
0001
0000
0010
,
0000
0000
0100
1000
0000
0000
1010
0000
0000
0101
0000
0000
,
0010
0000
0001
0010
0000
0100
0000
0000
1100
0000
0000
0011
,
0000
0100
0100
0100
,
0100
0000
0000
0010
0000
1000
0000
0000
1001
0000
0000
0110
,
0000
0000
0000
1000
0000
0010
0000
0000
0100
0000
0000
0001
,
0000
0000
1000
0000
0000
0001
0100
0000
0010
0000
0000
2000
,
0000
0000
3001
0010
0000
0001
0010
0000
0000
0000
0000
0002
,
0000
0000
0203
0000
0000
0310
1000
0000
0100
0000
0000
0020
,
0000
0000
0031
1000
0000
0000
0010
0000
0000
0000
0000
0100
,
0000
0000
0010
0100
0000
0001
0000
0000
0011
0000
0000
1100
,
0000
0010
0010
0010
,
0010
0000
0000
1000
0000
0001
0000
0000
0100
0000
0000
0001
,
2000
0000
0000
3020
0000
0000
0130
0000
0001
1000
0000
0000
,
0020
0000
0000
1030
0000
0100
1000
0000
0001
0000
0000
0100
,
0020
0000
0000
0230
0000
0000
0301
0000
1000
0100
0000
0000
,
2000
0000
0000
3002
0000
0000
0023
0000
0000
0030
0000
0011
,
0000
0000
1010
0000
0000
0100
1000
0000
0001
0100
0000
0010
,
0000
0000
1000
0000
0000
0001
0100
0000
0010
1000
0000
0000
,
0001
1010
0001
1100
,
0010
0000
0100
0000
0000
0110
0000
0000
1001
0000
0000
0110
,
0000
0000
0002
1000
0000
0000
0010
0000
0000
0100
0000
0000
,
1000
0000
0000
1003
0000
0100
0000
0000
0010
0001
0000
0200
,
0000
0000
0000
0010
0000
0000
1000
0000
0000
0301
0000
0100
,
0010
0000
0000
1000
0000
0100
0020
0000
0000
0030
0000
0011
,
0000
0000
2000
0001
0000
0000
0100
0000
0000
0010
0000
0000
,
0100
0000
0000
3100
0000
0001
0000
0000
1000
0000
0000
0010
,
0000
0000
1000
0100
0000
0000
0011
0000
0000
1100
0000
0000
,
0101
0000
0000
1000
0000
0001
0000
0000
0000
0000
0000
1001
,
0000
0000
0110
0000
0000
1000
0001
0000
0000
0100
0000
0001
,
0100
0000
0000
0010
0000
0000
1000
0000
0010
0000
0000
0101
,
0000
0000
0000
2000
0000
3100
0000
0000
0000
0020
0000
0031
,
0000
0000
0100
0010
0000
0100
0010
0000
0100
0010
0000
1000
,
0000
0000
1100
0000
0000
0001
0200
0000
0000
0320
0000
0000
,
0130
0000
0000
0001
0000
0000
1000
0000
0100
0000
0000
0110
,
0000
0000
0001
1000
0000
0000
1100
0000
0000
0101
0000
0000
,
1000
0000
0010
0100
0000
0001
0000
0000
0101
0000
0000
1100
,
0000
0000
0010
0000
0000
1000
0001
0000
0000
0000
0000
0020
,
0000
0000
0031
0100
0000
0100
0010
0000
0010
1000
0000
0000
,
0000
0000
0100
1000
0000
0100
1000
0000
0100
0000
0000
0010
,
0000
0000
0001
1000
0000
0001
1000
0000
0001
1000
0000
0010
,
0000
0000
0101
0000
0000
0000
1010
0000
0000
0000
0000
0200
,
0000
0000
1300
0001
0000
0100
0000
0000
0010
0000
0000
0100
,
0000
0000
0001
1000
0000
0100
0010
0000
0100
0010
0000
0001
,
1000
0000
0000
0010
0000
0100
0000
0000
0110
0000
0000
0001
,
2000
0000
0000
3200
0000
0000
0310
0000
0001
0100
0000
0000
,
0001
0000
1000
0002
0000
0000
0103
0000
0010
0000
0000
0000
,
0110
0000
0000
0101
0000
0000
1100
0000
0000
0001
0000
1000
,
0020
0130
0002
1003
,
0020
0000
0000
2030
0000
0000
3100
0000
0010
0001
0000
0000
,
2000
0000
0000
3010
0000
0000
1000
0000
1000
0001
0000
0001
,
0100
1010
0100
0011
,
1000
0000
0001
0000
0000
1001
0000
0000
0110
0000
0000
1001
,
0000
0000
0020
0100
0000
0000
0001
0000
0000
0001
0000
0000
,
1000
0000
0000
0130
0000
0001
0000
0000
0010
0100
0000
2000
,
0000
0000
0000
0001
0000
0000
3100
0000
0100
0010
0000
0000
,
0011
0000
0000
0001
0000
1000
0020
0000
0000
0000
0000
0230
,
0000
0000
0302
0100
0000
0000
1000
0000
0000
1000
0000
0000
,
0010
0000
0000
0103
0000
0010
0000
0000
1010
0000
0000
0011
,
0000
0000
0000
1000
0000
0010
1000
0000
0010
1000
0000
0010
,
1000
0000
0000
1001
0000
0000
1001
0000
0000
0000
0000
0110
,
0000
0001
0100
0010
,
1000
0100
2000
3010
,
0200
0001
0010
1300
,
0200
0310
2000
3001
,
0202
0000
0000
0300
,
1003
0000
0000
1000
0000
0000
1000
0000
0010
0000
0000
0200
,
0000
0000
0000
0000
,
0000
0000
0000
0000
,
0300
0000
0000
0000
;

//---------------dance-single - ----------------
#NOTES:
     dance-single:
     :
     Hard:
     12:
     :
0000
0000
0000
0000
,
0000
0000
0000
0000
,
0000
0000
0000
0000
,
0000
0000
0000
0000
,
0000
0000
0000
0000
,
0000
0000
0000
0000
,
0000
0000
0000
0000
,
1001
0101
1100
0101
,
0010
0000
0000
1000
0000
0001
0100
0000
0100
0010
0000
0010
,
1000
0000
0000
1100
0000
0100
1000
0000
0000
0001
0000
0100
,
0010
0000
1000
0010
0000
0100
0000
0000
0001
1000
0000
0020
,
0000
0000
1030
0001
0000
0000
0101
0000
0000
0100
0000
0010
,
1000
0000
0100
0000
0000
1000
0001
0000
0100
0001
0000
0020
,
0000
0000
0130
1000
0000
0000
1010
0000
0000
0001
0000
1000
,
0001
0000
0100
0010
0000
1000
0000
0000
1100
0000
0000
0100
,
0010
0000
0010
0001
0000
0000
0100
0000
0000
0010
0000
0000
,
0100
0000
0000
0001
0000
1000
0100
0000
0100
0010
0000
0010
,
0001
0000
0000
1001
0000
1000
0010
0000
0010
0100
0000
0100
,
0002
0000
0000
1003
0000
1100
0000
0000
0101
0000
0000
1010
,
0000
0000
0001
0010
0000
0001
0010
0000
0100
1000
0000
0001
,
0000
0000
0110
0000
0000
0001
1000
0000
0100
1000
0000
0001
,
0100
0000
0100
0010
0000
0010
1000
0000
0000
0100
0000
1000
,
0001
0000
1000
0010
0000
0100
0000
0000
0001
1000
0000
0001
,
0100
0000
0010
1000
0000
0000
0001
0000
0000
0001
0000
0000
,
0001
0000
0010
1000
0000
0001
0100
0000
1000
0000
0000
0010
,
0200
0000
0000
0301
0000
1000
0100
0000
0100
1000
0000
0000
,
0020
0000
0000
1030
0000
0100
0010
0000
0010
0001
0000
0000
,
2000
0000
0000
3001
0000
0100
0010
0000
0010
1000
0000
0000
,
0002
0000
0000
1003
0000
0000
0010
0000
0100
0010
0000
1010
,
0000
0000
0100
0001
0000
0010
0001
0000
1000
0100
0000
0000
,
1000
0000
0000
0010
0000
0100
0010
0000
1000
0001
0000
0000
,
0100
0000
0000
0011
0000
0000
0100
0000
0000
1010
0000
1000
,
0001
0000
0101
0000
0000
1100
0000
0000
0101
0000
0000
1000
,
0010
0000
0010
0100
0000
0100
0001
0000
0001
1000
0000
0000
,
0100
0000
1000
0001
0000
0100
0000
0000
0010
1000
0000
0010
,
1000
0000
0100
0010
0000
0000
0011
0000
0000
1100
0000
0001
,
0100
0000
0000
0010
0000
1000
0010
0000
0100
0001
0000
2000
,
0000
0000
3100
1000
0000
0001
0100
0000
0000
0010
0000
1000
,
0002
0000
0000
0013
0000
0001
0100
0000
0010
1000
0000
1001
,
0000
0000
0100
0010
0000
0000
1000
0000
0010
0100
0000
0000
,
0001
0000
0001
1000
0000
1000
0001
0000
0001
1000
0000
0110
,
0000
0000
0001
0100
0000
0010
1000
0000
0000
1000
0000
0100
,
1000
0000
0000
0010
0000
0100
0001
0000
0100
0001
0000
2000
,
0000
0000
0000
3000
0000
0000
0101
0000
0000
0000
0010
0000
1000
0000
0000
0000
0000
0000
1100
0000
0000
0000
0010
0000
,
0001
0000
0100
0010
0000
0100
0010
0000
0010
1000
0000
0001
,
0000
0000
1010
0000
0000
0100
0001
0000
0000
1100
0000
0001
,
0100
0000
0000
0010
0000
0000
1000
0000
0010
1000
0000
0002
,
0100
0000
0103
0010
0000
0000
1001
0000
0000
0110
0000
0000
,
1000
0000
0010
0100
0000
0001
0000
0000
0011
0000
0000
1100
,
0000
0000
0001
1000
0000
0010
1000
0000
0000
0100
0000
0020
,
0000
0000
0031
0100
0000
0100
0010
0000
0010
1000
0000
0200
,
0000
0000
1300
0100
0000
0010
0001
0000
0100
0010
0000
1000
,
0000
0000
0001
0100
0000
0100
0010
0000
0010
1000
0000
0001
,
0100
0000
0010
1000
0000
0001
1000
0000
0000
0100
0000
0010
,
0001
0000
0100
0001
0000
1000
0010
0000
0100
0000
0000
0001
,
0000
0000
1000
0100
0000
0100
0010
0000
0010
0001
0000
0100
,
0000
0001
1000
0001
1000
0001
1000
0000
1010
0000
0000
0001
,
0200
0000
0000
0310
0000
1000
0010
0000
0100
0001
0000
0000
,
0010
0000
0001
0100
0000
0100
0010
0000
1000
0100
0000
0000
,
1100
0000
0000
0001
0000
0100
0010
0000
0010
1000
0000
0001
,
0020
0000
0000
0130
0000
0000
1000
0000
0010
1000
0000
0001
,
0200
0000
0000
0310
0000
0010
1000
0000
1000
0001
0000
0000
,
2000
0000
0000
3100
0000
0010
0001
1000
0001
1000
0001
1000
,
0001
0000
0000
1100
0000
0000
1000
0000
0000
0101
0000
0010
,
1000
0000
1100
0000
0000
0110
0000
0000
0011
0000
0000
1000
,
0001
0000
0100
0010
0000
0010
1000
0000
1000
0100
0000
0100
,
0010
0000
0000
0001
0000
0100
0000
0000
0010
1000
0000
0001
,
1000
0000
0100
0010
0000
0000
0011
0000
0000
1100
0000
0001
,
1000
0000
0010
1000
0000
0001
0100
0000
0010
1000
0000
0001
,
0000
0000
0010
0100
0000
1000
0001
0000
0000
0101
0000
0000
,
1000
0000
0000
0010
0000
0100
0001
0000
1000
0001
0000
0100
,
0000
0000
0000
0010
1000
0010
1000
0010
1000
0010
1000
0010
,
1000
0000
0000
1001
0000
0000
1001
0000
0110
0000
0000
1000
,
0001
0000
0000
0100
0000
0010
1000
0000
0000
0100
0000
1000
,
0001
0000
0000
0100
0000
0010
1000
0000
0000
0001
0000
1000
,
0100
0000
0000
0010
0000
0001
1000
0000
0000
0001
0000
0100
,
0010
0000
0000
1000
0000
0001
0100
0000
0000
0110
0000
0000
,
0202
0000
0000
0300
0000
0000
1000
0000
1000
0003
1000
0001
,
1000
0000
0010
0100
0000
0010
0100
0000
0001
1000
0000
0010
,
0200
0000
0000
0000
,
0000
0000
0000
0000
,
0300
0000
0000
0000
;
