#TITLE:When God-Fearin' Women Get the Blues;
#ARTIST:Martina McBride;
#BANNER:When God-Fearin' Women Get the Blues-bn.png;
#BACKGROUND:When God-Fearin' Women Get the Blues-bg.png;
#JACKET:When God-Fearin' Women Get the Blues-jacket.png;
#MUSIC:When God-Fearin' Women Get the Blues.ogg;
#SAMPLESTART:49.1;
#SAMPLELENGTH:20;
#DISPLAYBPM:142;
#BPMS:0=142,175.75=137,176=142;
#BGCHANGES:;

//---------------dance-single - ----------------
#NOTES:
     dance-single:
     :
     Beginner:
     3:
     :
0000
0000
0000
0000
,
0000
0000
0000
0000
,
0000
0000
0000
0000
,
0000
0000
0000
0000
,
0000
0000
0000
0000
,
0010
0000
0010
0000
,
1000
0000
0001
0000
,
1000
0000
0100
0000
,
0100
0000
0000
0000
,
0000
0000
0010
0000
,
0001
0000
0100
0000
,
0010
0000
1000
0000
,
0001
0000
0000
0000
,
0000
0000
0010
0000
,
0001
0000
0100
0000
,
0001
0000
0010
0000
,
1000
0000
0000
0000
,
1001
0000
0000
0000
,
0110
0000
0000
0000
,
1000
0000
0001
0000
,
0100
0100
0100
0000
,
0010
0000
0010
0000
,
1000
0000
0001
0000
,
1000
0000
0000
0000
,
0100
0000
0000
0000
,
1000
1000
1000
0000
,
0001
0000
0010
0000
,
0200
0000
0300
0000
,
0010
0000
0001
0000
,
1001
0000
0000
0000
,
0010
0000
1000
0000
,
0100
0000
0100
0000
,
1000
0000
0001
0000
,
0110
0000
0000
0000
,
0001
0000
1000
0000
,
0010
0000
1000
0000
,
0001
0000
0001
0000
,
1000
0000
1000
0000
,
0002
0000
0000
0000
,
0003
0000
0110
0000
,
1001
0000
0100
0000
,
1000
0000
0001
0000
,
0010
0000
0001
0000
,
0100
0000
0010
0000
,
1001
0000
0000
0000
,
1000
0000
0001
0000
,
1000
0000
0100
0000
,
0010
0000
0001
0000
,
0110
0000
0000
0000
,
1000
0000
0100
0000
,
0001
0000
1000
0000
,
0010
0000
0010
0000
,
0100
0000
0100
0000
,
0020
0000
0000
0000
,
0030
0000
1001
0000
,
0110
0000
0000
0000
,
1000
0000
0001
0000
,
0110
0000
0000
0000
,
0010
0010
0010
0000
,
1000
0000
0000
0000
,
0001
0000
0000
0000
,
2000
0000
3000
0000
,
0010
0010
0010
0000
,
1001
0000
0000
0000
;

//---------------dance-single - ----------------
#NOTES:
     dance-single:
     :
     Easy:
     6:
     :
0000
0000
0000
0000
,
0000
0000
0000
0000
,
0000
0000
0000
0000
,
0000
0000
0000
0000
,
0000
0000
0000
0000
,
0010
1000
0010
0100
,
0002
0000
2000
3003
,
0001
0100
0010
1000
,
0100
0010
0010
0001
,
1000
0001
0010
0100
,
1000
1000
0001
0001
,
0100
0001
0010
0100
,
1000
0000
0001
0100
,
1000
0001
0010
0001
,
0100
0010
1000
0001
,
0010
0001
0100
0010
,
2000
0000
0000
3001
,
1002
0100
1000
0103
,
0110
1001
0100
0001
,
0010
0001
0100
0010
,
1000
1000
1000
0001
,
0020
0030
0200
0300
,
2000
3000
0001
0100
,
0020
0000
1030
0001
,
1000
0100
0010
0001
,
0100
0110
0010
0110
,
1000
0100
0001
0100
,
0020
0000
0000
0030
,
1000
0001
0100
0100
,
1001
0010
1000
0100
,
0001
0001
1000
1000
,
0020
0030
2000
3000
,
0002
0003
0110
1001
,
0010
0010
1000
0001
,
1001
0100
1000
0000
,
0002
0003
2000
3000
,
0010
1000
0100
1000
,
0001
0010
0001
0100
,
0010
0010
0010
0010
,
0010
0010
1001
0000
,
0100
0001
0010
0001
,
1000
0100
0001
0010
,
0100
2000
3002
0103
,
0010
0010
1000
0100
,
1001
0010
0001
0100
,
1000
1000
0001
0100
,
0020
0030
0200
0300
,
0002
0003
1001
0110
,
0001
0001
1000
0100
,
0110
0001
0100
0000
,
2000
3000
0020
0030
,
0100
0001
0010
0100
,
1000
0010
0100
0001
,
0010
0010
0010
0010
,
0010
0010
1001
0000
,
0001
0001
1000
1000
,
0001
0100
1000
0100
,
0001
0001
0010
1000
,
0100
0010
0100
0010
,
0001
0010
0001
1000
,
0010
1000
0100
0000
,
0002
0000
1000
0103
,
1000
1000
1000
0000
,
1001
0000
0000
0000
;

//---------------dance-single - ----------------
#NOTES:
     dance-single:
     :
     Medium:
     9:
     :
0000
0000
0000
0000
,
0000
0000
0000
0000
,
0000
0000
0000
0000
,
0000
0000
0000
0000
,
0000
0000
0000
0000
,
0110
0000
1000
0010
0000
0100
0001
0000
,
0020
0000
0000
0130
0000
1000
0002
0000
,
0103
0000
0001
0010
0000
1000
0000
0100
,
0010
0000
0001
0000
0001
0100
1000
0000
,
1100
0002
0023
0230
,
2300
3020
2030
3002
,
0103
0000
0001
0010
0001
2000
0000
3010
,
0100
0000
0001
0010
0001
0000
0001
0100
,
1000
0000
0200
0000
0320
0000
0031
1000
,
0000
1010
0000
0101
0000
0010
0100
0000
,
0001
0010
0100
0010
0001
0000
1000
0002
,
0000
0103
0000
0100
0010
1000
0001
1000
,
0200
0001
1000
0301
,
0110
0000
1001
0000
1000
0001
0100
0000
,
0001
0010
0100
1000
0000
0001
0000
0100
,
0000
0010
1000
0010
1000
0000
0101
0000
,
2100
0000
3010
0000
1000
0001
0100
0000
,
0010
2000
0000
0000
3001
0000
1000
0010
,
0000
0000
0100
0001
1000
0000
0100
1000
,
0001
0000
0010
0001
0100
0010
1000
0000
,
0101
1100
1010
0011
,
0100
0001
0010
0001
0200
0000
0310
2000
,
0001
0100
0001
3010
,
1000
0100
0002
0000
0023
0000
0130
0000
,
1001
0000
0001
0100
1000
0000
1000
0000
,
0010
1000
0100
0000
2000
0000
3002
0000
,
0013
0001
0000
0000
0110
0000
0001
0100
,
0000
0010
1000
0000
0101
0000
1010
0000
,
0002
0103
2000
3100
,
0011
0000
0100
0010
0000
1000
0001
0000
,
0100
0010
0000
0000
1001
0000
1000
0002
,
0000
0103
0000
0010
1000
0001
0000
0010
,
0001
0100
0000
0010
1000
0100
0000
0010
,
0002
0100
1000
0100
,
0013
0001
0100
0010
1000
0001
0100
0000
,
0010
0000
1000
0100
1000
0000
0001
0100
,
0000
0001
2000
0000
3020
0000
0130
0001
,
0020
0032
0203
2300
,
3100
0001
0010
0000
0001
0100
0010
1000
,
0001
0000
0010
0100
1000
0000
1000
0000
,
1000
0001
0100
0000
0020
0000
2030
0000
,
3100
0010
0000
0000
1100
0000
0001
0100
,
0000
0010
1000
0000
1001
0000
0110
0000
,
2000
3010
0002
0013
,
0101
0000
0010
1000
0000
0100
0001
0000
,
0010
0001
0000
0000
0110
0000
1000
0200
,
0000
0310
0000
0001
0100
0001
0000
1000
,
0100
1000
0000
0010
0100
0001
0000
0010
,
0200
1000
0010
0001
,
0310
0100
1000
0000
0001
0100
0001
0000
,
1000
0001
0100
0000
0100
0000
0100
0010
,
1000
0001
0200
0000
0310
1000
0002
0000
,
0013
0100
1000
0000
1010
0000
0001
0100
,
0010
1000
0001
0000
0001
0010
0100
0000
,
1000
0001
0100
0000
0010
0000
0000
0101
,
0000
1000
0100
0000
1000
0010
0000
0200
,
0001
0000
0010
0000
0301
0000
1000
0010
,
1000
0100
0010
0001
2000
0000
3010
0000
,
1001
0000
0000
0000
;

//---------------dance-single - ----------------
#NOTES:
     dance-single:
     :
     Hard:
     12:
     :
0000
0000
0000
0000
,
0000
0000
0000
0000
,
0000
0000
0000
0000
,
0000
0000
0000
0000
,
0000
0000
0000
0000
,
0110
0000
1000
0010
0000
0100
0001
0010
,
0100
1000
0001
0100
0000
0010
1000
0010
,
0100
0000
0001
0010
0000
0001
1000
0100
,
0010
0000
0000
0000
0002
0000
0000
0000
1003
0100
1000
0000
0010
0000
0100
0000
,
0001
0000
2010
0000
3010
1000
0100
0000
,
0020
0001
0031
0100
2000
0001
3001
0000
,
0100
0010
0100
0001
1000
0010
0100
0001
,
0010
0100
1000
0001
0002
0000
0103
0010
,
1000
0000
0101
1000
0010
0100
0001
1000
,
0100
0010
0001
0100
0000
0010
1000
0001
,
0010
0100
0010
0001
1000
0100
1000
0001
,
0100
0010
0100
0001
0010
0100
1000
0001
,
1002
0100
1000
0103
,
0110
0000
1001
0000
1000
0010
0100
0001
,
0010
0010
0001
1000
0001
0100
0010
1000
,
0100
0100
0010
0010
0001
0100
1000
0000
,
0201
0000
0310
0000
1000
0100
0001
0000
,
0010
0001
0100
0000
0020
0000
1030
0001
,
0100
0010
0100
0000
0001
0000
1000
0000
0001
0000
0010
0000
0100
0000
1000
0000
,
0001
0100
1000
0100
0001
1000
1000
0000
,
1100
0101
1010
0011
,
0010
0001
1000
0001
0100
1000
0100
0001
,
0010
0100
1000
0000
0001
0000
1000
0010
,
0100
1000
0100
0001
0010
0100
1000
0000
,
1001
0000
0100
0001
1000
0000
1000
0000
,
1000
0100
0001
0000
0010
0001
0100
0000
,
0010
1010
0000
1000
1000
0000
0100
0010
,
0001
0000
0100
0000
1000
0000
0010
0000
1000
0000
0100
0000
0001
0000
1000
0100
,
1000
0010
0100
0001
0010
0100
1000
0000
,
0011
0100
1000
0010
1000
0100
0001
0000
,
0010
1100
0000
0001
0001
0000
0100
0010
,
1000
0100
0001
0100
1000
0010
0100
1000
,
0100
0001
0010
0100
0010
0001
0100
0010
,
0001
0010
1000
0001
1000
0100
0010
0001
,
0100
1000
0100
0010
1000
1000
0001
0100
,
0020
1000
1030
0001
2000
0100
3100
0020
,
0000
0000
0031
0000
0100
0000
1000
0000
0002
0000
0000
0000
0103
0010
0100
0000
,
1000
0000
0100
0000
0001
0000
0000
0000
0001
1000
0001
0000
0100
0000
0000
0000
,
0010
1000
0010
1000
0010
0000
0000
0000
0100
0000
0001
0010
0001
0000
1000
0100
,
1000
0000
0001
0100
0010
0000
0010
0000
,
0010
0000
1000
0000
0100
0000
1000
0000
0001
0000
0100
0000
0010
0000
1000
0001
,
1000
1100
0000
0010
0010
0000
0001
0100
,
1000
0100
0001
0010
0100
1000
0001
0000
,
0110
0000
0001
0100
1000
0100
0001
0000
,
1010
0000
0100
0001
0010
0100
1000
0000
,
0001
0011
0000
1000
1000
0000
0100
0010
,
0001
0010
1000
0100
0010
0100
1000
0001
,
0010
0001
0001
0100
0010
1000
1000
0100
,
0100
0010
0001
0010
0100
1000
0001
1000
,
0010
0001
1000
0001
0100
0100
1000
0010
,
0100
0001
1000
0000
1000
0000
1000
0100
,
0010
0000
0001
0000
0100
0000
0000
0000
0100
0010
0100
0000
0001
0000
1000
0000
,
0010
0000
1000
0000
0001
0000
0000
0000
0001
0000
0000
0000
0100
0001
0100
0000
,
0010
0000
1000
0000
0001
0000
0000
0000
1000
0100
1000
0000
0001
0000
0100
0000
,
0010
1000
0100
1000
0002
0010
0013
0200
,
0000
0000
1300
0000
0010
0000
1000
0000
0001
0000
0010
0100
0010
0000
0001
0000
,
0200
0000
0010
0000
0310
0000
1000
0000
0002
0000
0000
0000
0013
0001
0010
0000
,
0100
0000
0100
0000
1000
0001
1000
0000
0010
0000
0100
0000
0001
0010
0001
0000
,
1001
0000
0000
0000
;
