#TITLE:What Have You Done for Me Lately?;
#SUBTITLE:;
#ARTIST:Janet Jackson;
#TITLETRANSLIT:;
#SUBTITLETRANSLIT:;
#ARTISTTRANSLIT:;
#GENRE:;
#CREDIT:;
#BANNER:What Have You Done for Me Lately-bn.png;
#BACKGROUND:What Have You Done for Me Lately-bg.png;
#LYRICSPATH:;
#CDTITLE:;
#MUSIC:What Have You Done for Me Lately.ogg;
#OFFSET:0.937500;
#SAMPLESTART:34.846001;
#SAMPLELENGTH:20.000000;
#SELECTABLE:YES;
#DISPLAYBPM:114.000000;
#BPMS:0.000000=114.019997
;
#STOPS:
;
#BGCHANGES:;
#KEYSOUNDS:;
#ATTACKS:;

//---------------dance-single - ----------------
#NOTES:
     dance-single:
     :
     Hard:
     12:
     0.479774,0.447266,0.251097,0.078468,0.215786,428.000000,396.000000,32.000000,10.000000,0.000000,0.000000,0.479774,0.447266,0.251097,0.078468,0.215786,428.000000,396.000000,32.000000,10.000000,0.000000,0.000000:
0000
0000
0000
0000
,
0000
0000
0000
0000
,
0000
0000
0000
0000
,
0000
0000
0000
0000
,
0000
0000
0000
0000
,
1000
0000
0100
0000
0001
0000
0100
0000
1000
0000
0000
0001
0010
0000
0000
0000
,
0001
0000
0100
0000
1000
0000
0100
0000
0001
0000
0000
1000
0010
0000
0000
0000
,
1000
0000
0010
0000
0001
0000
0010
0000
1000
0000
0000
0001
0100
0000
0000
0000
,
0001
0000
0010
0000
1000
0000
0010
0000
0001
0000
0000
1000
0100
0000
0000
0000
,
1001
0000
0100
0000
0001
0000
0010
0100
0000
0100
0010
0000
0001
0000
1000
0000
,
0100
0000
0100
0000
0100
0000
0010
0000
0001
0000
0000
1000
0010
0000
0000
0000
,
0100
0000
0001
0000
0100
0000
0010
0000
1000
0000
0001
0100
0000
0100
0001
0000
,
1000
0000
0100
0000
0001
0000
0100
0000
1000
0000
0000
0001
0010
0000
0000
0000
,
0001
0000
0100
0000
0010
0000
1000
0100
0000
0100
1000
0000
0001
0000
0100
0000
,
0010
0000
0010
0000
0010
0000
1000
0000
0100
0000
0000
1000
0001
0000
0000
0000
,
0010
0000
0001
0000
1000
0000
0010
0000
0100
0000
0001
1000
0000
1000
0001
0000
,
0010
0000
0100
0000
1000
0000
0001
0000
0001
0000
0100
0000
0010
1000
0000
0000
,
1001
0000
0110
0001
1000
0100
0100
1000
,
0001
0000
0001
0000
0001
0000
0100
0000
0010
0000
1000
0000
1000
0001
0000
0000
,
0011
0000
1100
0000
0101
1000
0010
0100
,
0002
0000
0010
0000
1003
0000
0000
0000
0100
0000
0010
0000
0001
1000
0000
0000
,
1001
0000
0110
0001
1000
0010
0010
0100
,
0001
0000
0001
0000
0001
0000
1000
0000
0010
0000
0100
0000
0100
0001
0000
0000
,
0011
0000
1100
0000
0101
1000
0010
0100
,
0002
0000
0010
0000
1003
0000
0001
0000
0100
0000
0001
1000
0010
0000
0000
0000
,
1001
0000
0100
0000
0010
0000
0100
0002
0000
0000
1003
0100
0000
0010
0001
0000
,
0100
0000
0100
0000
0100
0000
0010
0000
1000
0000
0000
0001
0100
0000
0000
0000
,
0010
0000
1000
0000
0100
0000
0010
0000
0001
0000
1000
0010
0000
1000
0001
0000
,
0100
0000
0010
0000
1000
0000
0001
0000
0110
0000
0000
0001
0100
0000
0000
0000
,
1001
0000
0010
0000
1000
0000
0100
0000
0010
0000
0001
1000
0000
0001
0100
0000
,
0010
0000
1000
0100
0000
0010
0001
0000
0100
0000
0000
0001
1000
0000
0000
0000
,
0100
0000
1000
0000
0010
0000
0100
0000
0001
0000
1000
0000
0001
0000
0010
0100
,
0000
0000
1000
0000
0010
0000
0100
0000
0001
0000
0010
0000
0001
1000
0000
0000
,
1001
0000
0110
0001
1000
0010
0010
1000
,
0100
0000
0100
0000
0100
0000
0010
0000
0001
0000
1000
0000
1000
0010
0000
0000
,
0101
0000
1100
0000
1010
0001
0100
0010
,
2000
0000
0100
0000
3001
0000
1000
0000
0001
0000
0100
0000
0010
1000
0000
0000
,
1001
0000
0110
0010
0100
0001
0001
1000
,
0001
0000
0001
0000
0001
0000
0010
0000
0100
0000
1000
0000
1000
0010
0000
0000
,
0101
0000
1010
0000
1100
0001
1000
0100
,
2000
0000
0010
0000
3001
0000
1000
0000
0010
0000
0000
0100
0001
0000
0000
0000
,
1001
0000
0110
0100
0001
0010
0001
1000
,
0002
0000
0203
0000
0310
1000
0010
0100
,
0001
1000
0010
1000
0100
0010
0100
1000
,
0001
0100
0010
1000
0100
0010
0001
0000
,
0110
0000
1000
0010
1000
0001
0010
0100
,
2000
0000
3002
0000
1003
0010
0100
0001
,
0010
1000
0010
0001
0100
0010
1000
0001
,
1010
0000
0100
0001
0011
0000
1000
0001
,
0100
0000
0010
1000
0000
0010
1000
0000
0001
0000
0001
0000
1001
0000
0000
0000
,
0100
0000
0010
1000
0000
0001
1000
0000
0100
0000
0000
0010
0001
0000
1000
0000
,
0001
0100
0000
0010
1000
0000
0100
0000
1000
0000
0001
0000
0010
0000
0001
0100
,
0010
0000
1000
0000
0100
0000
1000
0000
0001
0000
1000
0010
0000
0100
0001
0000
,
0010
0001
0000
0001
0100
0000
0010
0000
1000
0000
0000
0000
0001
0000
1000
0100
,
0010
0000
0001
0000
0100
0000
0010
0000
1000
0000
0001
0100
0020
0000
0000
0000
,
1030
0000
0100
0000
0100
0000
1000
0000
0001
0000
0100
0010
0000
0010
1000
0000
,
0001
0000
0000
0000
0101
0000
1000
0000
0001
0000
0000
0010
0100
0000
0000
0000
,
1001
0000
0000
0000
;

//---------------dance-single - ----------------
#NOTES:
     dance-single:
     :
     Medium:
     9:
     0.353105,0.357813,0.235403,0.094161,0.031387,315.000000,285.000000,30.000000,12.000000,0.000000,0.000000,0.353105,0.357813,0.235403,0.094161,0.031387,315.000000,285.000000,30.000000,12.000000,0.000000,0.000000:
0000
0000
0000
0000
,
0000
0000
0000
0000
,
0000
0000
0000
0000
,
0000
0000
0000
0000
,
0000
0000
0000
0000
,
1000
0000
0000
0000
0001
0000
0000
0000
0010
0000
0000
0001
1000
0000
0000
0000
,
0100
0000
0000
0000
1000
0000
0000
0000
0010
0000
0000
1000
0100
0000
0000
0000
,
0010
0000
0000
0000
0001
0000
0000
0000
0100
0000
0000
0001
0010
0000
0000
0000
,
0001
0000
0000
0000
1000
0000
0000
0000
0100
0000
0000
1000
0001
0000
0000
0000
,
1001
0100
0010
0000
1000
0100
0001
0000
,
0010
0001
0100
0000
0010
0000
1000
0000
,
0001
0010
0001
0000
1000
0010
0100
0000
,
0001
0000
0000
0000
0010
0000
0000
0000
0001
0000
0000
1000
0100
0000
0000
0000
,
1000
0001
0100
0000
0010
1000
0001
0000
,
0010
0100
1000
0000
0001
0000
1000
0000
,
0001
1000
0010
0000
1000
0100
1000
0000
,
0010
0000
0100
0001
0001
1000
0100
0000
,
1001
0000
0110
0000
0000
0001
1000
0001
,
0100
0010
0100
0010
1000
0001
0001
0000
,
0011
0000
1100
0000
0101
0000
1000
0001
,
0020
0000
0130
0000
0000
1000
0001
0000
,
1001
0000
0110
0000
0000
1000
0001
1000
,
0100
0010
0100
0010
0100
1000
1000
0000
,
1010
0000
0101
0000
1100
0000
0010
0001
,
2000
0000
0000
0000
3001
0000
0000
0000
0010
0000
0000
0001
0100
0000
0000
0000
,
1001
0010
1000
0000
0001
1000
0100
0000
,
0010
0001
1000
0000
0001
0000
0100
0000
,
0010
1000
0100
0000
1000
0010
0001
0000
,
0100
0000
0000
0000
0010
0000
0000
0000
1010
0000
0000
0001
0100
0000
0000
0000
,
1001
1000
0100
0000
0010
0001
1000
0000
,
0001
0100
0010
1000
0100
0000
0010
0000
,
0001
1000
0001
0000
0100
0010
1000
0000
,
0100
0000
1000
0001
0001
0100
0010
0000
,
1001
0000
0110
0000
0000
1000
0010
0100
,
0001
1000
0001
1000
0001
0100
0100
0000
,
0101
0000
1100
0000
0011
0000
1000
0001
,
2000
0000
3100
0000
0000
0010
0001
0000
,
1001
0000
0110
0000
0000
0100
0001
1000
,
0100
0010
0100
0010
0100
1000
1000
0000
,
1100
0000
0101
0000
1010
0000
0100
0001
,
0020
0000
0000
0000
0130
0000
0000
0000
1000
0000
0000
0001
0100
0000
0000
0000
,
1001
0000
0100
0000
0001
1000
0010
1000
,
0200
0000
0320
0000
0032
0000
1003
0001
,
0100
0000
0010
0000
1000
0100
0001
0000
,
0010
0001
0010
0200
0000
0000
1300
0000
,
1001
0000
0010
0000
0100
0001
1000
0001
,
0020
0000
0230
0000
2300
0000
3001
1000
,
0010
0000
0100
0000
0010
1000
0001
0000
,
1010
0100
0011
0100
,
0000
1000
0010
1000
0001
0001
1001
0000
,
0100
0001
0010
0100
1000
0000
0000
0001
,
0001
0100
1000
0000
0010
1000
0100
0000
,
1000
0000
0001
0000
0010
0001
0100
0000
,
0010
1000
0100
1000
0001
0000
0100
0010
,
1000
0000
0000
0001
0001
1000
0100
0000
,
0000
0010
0001
1000
0001
0100
0010
1000
,
0001
0000
0000
0100
0020
0000
1030
0000
,
1001
0000
0000
0000
;

//---------------dance-single - ----------------
#NOTES:
     dance-single:
     :
     Easy:
     6:
     0.220830,0.268359,0.188322,0.172629,0.000000,197.000000,173.000000,24.000000,22.000000,0.000000,0.000000,0.220830,0.268359,0.188322,0.172629,0.000000,197.000000,173.000000,24.000000,22.000000,0.000000,0.000000:
0000
0000
0000
0000
,
0000
0000
0000
0000
,
0000
0000
0000
0000
,
0000
0000
0000
0000
,
0000
0000
0000
0000
,
1000
0100
0000
0010
,
0000
0001
0000
1000
,
0000
0001
0000
0100
,
0000
0010
0000
1000
,
1001
0100
0001
0010
,
1000
0001
1000
0000
,
0010
1000
0100
0010
,
0001
1000
0001
0000
,
0100
0001
0010
0100
,
1000
0010
1000
0000
,
0010
0100
0010
1000
,
0100
1000
0001
0100
,
1001
0000
0000
0000
0000
0100
0010
0000
,
1000
1000
1000
0001
,
0011
1100
0002
2003
,
3020
0000
0130
0000
0000
0001
1000
0000
,
1001
0000
0000
0000
0000
0010
0100
0000
,
0001
0001
0001
1000
,
1100
0011
0200
0320
,
2030
3001
0000
0000
,
1001
0010
1000
0100
,
0001
1000
0001
0000
,
0010
0001
0100
0010
,
1000
0000
0110
0000
,
1001
0010
0100
0010
,
1000
0100
0001
0000
,
0010
0001
1000
0001
,
0100
0000
0010
1000
,
1001
0000
0000
0000
0000
1000
0100
0000
,
0010
0010
0010
0001
,
0101
1010
0002
2003
,
3200
0000
0310
0000
0000
0001
1000
0000
,
1001
0000
0000
0000
0000
0010
1000
0000
,
0001
0001
0001
0100
,
0110
1001
0200
0320
,
2030
3001
0000
0000
,
1001
0000
0000
0000
1000
0010
1000
0000
,
0002
0023
0032
2003
,
3020
0000
0000
0030
,
0100
0001
1000
0000
,
1001
0000
0000
0000
0001
0010
0001
0000
,
0200
0320
2030
3002
,
0203
0000
0000
0000
0000
0010
0310
0000
,
1010
0000
0011
0000
,
0000
1000
0100
1001
,
0010
0001
0100
0000
,
0001
0001
1000
1000
,
0010
0000
0000
0000
0000
1000
0100
0000
,
1000
0001
0010
0001
,
0101
0000
0000
0000
1000
0100
1000
0000
,
0000
0010
1000
0100
,
0001
0000
0110
0000
,
1001
0000
0000
0000
;

//---------------dance-single - ----------------
#NOTES:
     dance-single:
     :
     Beginner:
     3:
     0.134516,0.178906,0.109855,0.000000,0.000000,120.000000,106.000000,14.000000,0.000000,0.000000,0.000000,0.134516,0.178906,0.109855,0.000000,0.000000,120.000000,106.000000,14.000000,0.000000,0.000000,0.000000:
// measure 0
0000
0000
0000
0000
,  // measure 1
0000
0000
0000
0000
,  // measure 2
0000
0000
0000
0000
,  // measure 3
0000
0000
0000
0000
,  // measure 4
0000
0000
0000
0000
,  // measure 5
1000
0000
0000
0000
,  // measure 6
0001
0000
0000
0000
,  // measure 7
0100
0000
0000
0000
,  // measure 8
0010
0000
0000
0000
,  // measure 9
1001
0000
1000
0000
,  // measure 10
0100
0100
0000
0000
,  // measure 11
1000
1000
1000
0000
,  // measure 12
0001
0000
0000
0000
,  // measure 13
0010
0000
0001
0000
,  // measure 14
0100
0100
0000
0000
,  // measure 15
0010
0010
0010
0000
,  // measure 16
1000
0000
0001
0000
,  // measure 17
1001
0000
0000
0000
,  // measure 18
0100
0100
0100
0000
,  // measure 19
0001
0000
1000
0000
,  // measure 20
0010
0010
0000
0000
,  // measure 21
1001
0000
0000
0000
,  // measure 22
0010
0010
0010
0000
,  // measure 23
1000
0000
0001
0000
,  // measure 24
1000
1000
0000
0000
,  // measure 25
1001
0000
0100
0000
,  // measure 26
0001
0001
0000
0000
,  // measure 27
1000
1000
1000
0000
,  // measure 28
0010
0000
0110
0000
,  // measure 29
1001
0000
0100
0000
,  // measure 30
0010
0010
0010
0000
,  // measure 31
0100
0000
0001
0001
,  // measure 32
0001
0000
1000
0000
,  // measure 33
1001
0000
0000
0000
,  // measure 34
1000
1000
1000
0000
,  // measure 35
0100
0000
0010
0000
,  // measure 36
0001
0001
0000
0000
,  // measure 37
1001
0000
0000
0000
,  // measure 38
0010
0010
0010
0000
,  // measure 39
1000
0000
0100
0000
,  // measure 40
1000
1000
0000
0000
,  // measure 41
1001
0000
0010
0000
,  // measure 42
0100
0100
0100
0000
,  // measure 43
0001
0000
0000
0000
,  // measure 44
1000
0000
0000
0000
,  // measure 45
1001
0000
0010
0000
,  // measure 46
0100
0100
0100
0000
,  // measure 47
0001
0000
0000
0000
,  // measure 48
0110
0000
1001
0000
,  // measure 49
1000
0000
0001
0000
,  // measure 50
0100
0100
0100
0000
,  // measure 51
0010
0010
0010
0000
,  // measure 52
0110
0000
0000
1000
,  // measure 53
1000
0000
0001
0000
,  // measure 54
0010
0000
0100
0000
,  // measure 55
1000
0000
1000
0000
,  // measure 56
0001
0000
0100
0000
,  // measure 57
1001
0000
0000
0000
;
