#TITLE:West Shinjuku Cleaning Tune;
#ARTIST:SIMONMAN;
#BANNER:West Shinjuku Cleaning Tune-bn.png;
#BACKGROUND:West Shinjuku Cleaning Tune-bg.png;
#JACKET:West Shinjuku Cleaning Tune-jacket.png;
#MUSIC:West Shinjuku Cleaning Tune.ogg;
#OFFSET:0.125;
#SAMPLESTART:37.556;
#SAMPLELENGTH:20;
#DISPLAYBPM:140;
#BPMS:0=139.98;
#BGCHANGES:0.5=West Shinjuku Cleaning Tune.mp4=1=1=0=0=StretchNoLoop==CrossFade==,
;

//---------------dance-single - ----------------
#NOTES:
     dance-single:
     :
     Beginner:
     3:
     :
0000
0000
0000
0000
,
0000
0000
0000
0000
,
0000
0000
0000
0000
,
0000
0000
0000
0000
,
0010
0000
0010
0000
,
0100
0000
0100
0000
,
0001
0000
0001
0000
,
1000
0000
1000
0000
,
0001
0000
1000
0000
,
1001
0000
0000
0000
,
0000
0000
0000
0000
,
0000
0000
0000
0000
,
1000
0000
0000
0000
,
0001
0001
0001
0000
,
0100
0000
0010
0000
,
0100
0000
0001
0000
,
0010
0000
0100
0000
,
1000
0000
0010
0000
,
1000
0000
0001
0000
,
1000
0000
0100
0000
,
0010
0000
0001
0000
,
0100
0100
0100
0000
,
0001
0000
1000
0000
,
0001
0000
0010
0000
,
0100
0000
0100
0000
,
0010
0000
0100
0000
,
1000
0000
0010
0000
,
1000
0000
0001
0000
,
0010
0000
0001
0000
,
1000
1000
1000
0000
,
0010
0000
0100
0000
,
0010
0000
1000
0000
,
0001
0000
0010
0000
,
0001
0000
0100
0000
,
1000
0000
1000
0000
,
0001
0000
0001
0000
,
1000
0000
0001
0000
,
1000
0000
0000
0000
,
0010
0000
0000
0000
,
0100
0000
0000
0000
,
0001
0000
0000
0000
,
0010
0000
0000
0000
,
0100
0000
0000
0000
,
1000
0000
0000
0000
,
1001
0000
0000
0000
,
0000
0000
0001
0001
,
0001
0000
0100
0000
,
0010
0000
1000
0000
,
0001
0000
0010
0000
,
0100
0000
1000
0000
,
0010
0000
1000
0000
,
0001
0000
0100
0000
,
0010
0000
1000
0000
,
0001
0000
1000
0000
,
0100
0000
0010
0000
,
0001
0000
0001
0000
,
1000
0000
0001
0000
,
0100
0000
0010
0000
,
1000
0000
0001
0000
,
1000
0000
0010
0010
,
0010
0010
0000
0000
;

//---------------dance-single - ----------------
#NOTES:
     dance-single:
     :
     Easy:
     6:
     :
0000
0000
0000
0000
,
0000
0000
0000
0000
,
0000
0000
0000
0000
,
0000
0000
0000
0000
,
0010
1000
0001
0000
,
0010
0001
0100
1000
,
1010
0000
0101
0000
,
0011
0000
1100
0000
,
1001
0110
1001
0110
,
2002
0000
0000
0000
,
0000
0000
0000
0000
,
0000
0000
0000
3000
,
2000
0000
0000
0003
,
0001
0001
0001
3001
,
0010
0001
0100
0000
,
0001
0010
1000
0000
,
0100
0010
0100
0000
,
1000
0010
0001
0000
,
0100
0010
0100
0000
,
0001
0010
1000
0000
,
0101
0000
1100
0000
,
0001
0100
0010
1000
,
0100
0100
1000
0000
,
0001
0001
1000
0001
,
0010
0010
0100
0000
,
1000
0010
1000
0110
,
0001
0010
0001
0000
,
1000
0100
0010
0001
,
0010
0010
0100
0100
,
1000
0001
1000
0001
,
0100
0100
0100
0000
,
0010
0010
0010
0000
,
1000
1000
1000
0000
,
0001
0001
0001
0000
,
0011
0000
1100
0000
,
0101
0000
1010
0000
,
1001
0110
1001
0110
,
1000
0010
0001
0100
,
0001
0010
1000
0001
,
1000
0100
0001
0010
,
0100
0010
0100
1000
,
0010
0100
0010
1000
,
0001
0010
0001
0100
,
1000
0001
0110
0000
,
2002
0000
0000
0000
,
0000
0003
0001
0001
,
3001
0010
0001
1000
,
0000
0001
0100
1000
,
0010
0100
0010
0000
,
1000
0001
1000
0100
,
0010
0001
0000
0100
,
0010
0100
0001
0001
,
1000
1000
0010
1000
,
0001
1000
0100
0001
,
0000
0010
0001
0100
,
0001
0010
1000
0000
,
0100
0010
0100
1000
,
0001
0100
0000
0001
,
0010
1000
0001
0001
,
1000
1000
0010
0100
,
0110
1001
0000
0000
;

//---------------dance-single - ----------------
#NOTES:
     dance-single:
     :
     Medium:
     9:
     :
0000
0000
0000
0000
,
0000
0000
0000
0000
,
0000
0000
0000
0000
,
0000
0000
0000
0000
,
0010
0000
1000
0000
0100
0010
0001
0000
,
0100
0000
0001
0000
0010
0001
1000
0000
,
1010
0100
0101
0010
,
1100
0000
0001
0000
0100
0010
1000
0000
,
0101
0000
0011
0000
1100
0000
0001
1000
,
0020
0000
0000
0000
,
0000
0000
0000
0000
,
0000
0000
0000
0000
,
2000
0000
0000
0030
,
0001
0000
0001
0000
3001
0000
1000
0001
,
0010
0100
1000
0000
1100
0000
0011
0000
,
0001
0100
0010
0000
0110
0000
1001
0000
,
0010
0001
0100
0000
0101
0000
1010
0000
,
1000
0001
0010
0000
0011
0000
1100
0000
,
0001
0100
1000
0000
1010
0000
0101
0000
,
0010
0001
1000
0000
1001
0000
0110
0000
,
1000
0100
0001
0000
1000
0010
0001
0000
,
0011
1100
0101
1001
,
0010
0000
1000
0000
0100
0010
0001
0000
,
0100
0000
0001
0000
0010
0001
1000
0000
,
0001
0000
1000
0000
0010
1000
0100
0000
,
0010
0000
0001
0000
0100
0010
1000
0000
,
0100
0000
1000
0000
0010
0001
0100
0000
,
0001
0000
0010
0000
0001
0100
1000
0000
,
0101
0101
1100
1100
,
0011
1100
0101
1010
,
0001
0100
0010
0000
1001
0000
1100
0000
,
0010
0001
0100
0000
1001
0000
0010
1000
,
0100
0010
0001
0000
0101
0000
0110
0000
,
1000
0001
0010
0000
0001
0100
1000
0000
,
1010
0100
0011
0100
,
1100
0001
0101
1000
,
1001
0110
1001
0110
,
1000
0100
0010
0000
0001
0100
0010
0000
,
1000
0001
1000
0000
0001
0010
0100
0000
,
0010
0001
0100
0000
0001
0010
1000
0000
,
0100
0010
0001
0000
0100
0001
1000
0000
,
0001
0010
0100
0000
1000
0010
1000
0000
,
0001
1000
0010
0000
1000
0100
0001
0000
,
0010
0001
0100
0000
0010
1000
0001
0000
,
0202
0000
0000
0000
,
0000
0300
1000
1000
,
1003
0000
0001
0010
0100
0000
1000
0001
,
0100
0000
0001
0010
0100
0000
1100
0000
,
0010
1000
0001
0000
1000
0010
0100
0000
,
0001
0010
1000
0000
0110
0000
0001
0100
,
0001
0000
0010
0100
1000
0000
0010
1000
,
0001
1010
0101
1000
,
1010
0001
1100
0110
,
0011
0000
1000
0000
0001
0000
1000
0010
,
0100
0000
0001
0000
0010
0001
0100
0000
,
0001
0000
1000
0000
0100
0010
0001
0000
,
0100
0000
0010
1000
0001
0000
1000
0000
,
0001
0000
0010
0001
0100
0000
0010
0000
,
1000
0100
0001
0000
0011
0000
1100
0000
,
0101
1010
0110
1001
,
0010
1000
0100
0000
0000
0000
0000
0000
;

//---------------dance-single - ----------------
#NOTES:
     dance-single:
     :
     Hard:
     11:
     :
0000
0000
0000
0000
,
0000
0000
0000
0000
,
0000
0000
0000
0000
,
0000
0000
0000
0000
,
0010
0000
0000
0010
0000
0000
0001
0000
1000
0000
0100
0000
0100
0000
0000
0000
,
1000
0000
0000
1000
0000
0000
0001
0000
0010
0000
0001
0100
0001
0000
1000
0000
,
1100
0000
0000
0010
0100
0000
0001
0000
0011
0000
0000
0000
1000
0000
0000
0000
,
0101
0000
0000
0010
1000
0000
0001
0000
1000
0000
0100
0000
0100
0010
0000
0000
,
0011
0000
0000
0000
0101
0000
0000
0000
1010
0000
0000
0100
1000
0000
0001
0000
,
0202
0000
0000
0000
,
0000
0000
0000
0000
,
0000
0000
0000
0300
,
2000
0000
0000
0003
,
0001
0000
0001
0000
0001
0000
0000
0000
3001
0000
0000
0001
1000
0000
0100
0000
,
0010
0001
0100
0000
0010
1000
0110
0000
,
0001
0000
0010
0000
1000
0000
0000
0000
0100
0000
0000
1000
0001
0000
0000
0000
,
0100
0001
0010
0000
0100
1000
1001
0000
,
0010
0000
1000
0000
0001
0000
0000
1000
0100
0000
0010
0000
0011
0000
0000
0000
,
0100
0001
1000
0000
0010
1000
0110
0000
,
0001
0000
0010
0000
0100
0000
0000
1000
0001
0000
0000
1000
0100
0000
0000
0000
,
0011
1000
0001
0000
1010
0100
0001
0000
,
1001
0000
0000
0000
1100
0000
0000
0000
0101
0000
1000
0001
2000
0000
0000
0000
,
3010
0000
0000
0010
0000
0000
1000
0000
0001
0000
0100
0000
0100
0000
0000
0000
,
0001
0000
0000
0001
0000
0000
1000
0000
0010
0000
1000
0000
1000
0100
0000
0000
,
0010
0000
0000
0010
0000
0000
0001
0000
0100
0000
0010
0000
1001
0000
0000
0000
,
1000
0000
0000
1000
0000
0000
0100
0000
0010
0000
0001
0100
0002
0000
0000
0000
,
1003
0000
0000
0001
0000
0000
1000
0000
0010
0000
0100
0000
0100
0000
0000
0000
,
0001
0000
0000
1000
0000
0000
0010
0000
1000
0000
0001
0000
0001
0100
0000
0000
,
0110
1001
1010
0101
,
0011
0000
0000
0000
0110
0000
0000
0000
1100
0000
1000
0001
1000
0000
0000
0000
,
0001
0000
0100
0000
1000
0000
0000
0000
0001
0000
0000
0100
0010
0000
0000
0000
,
1000
0000
0100
0000
0001
0000
0000
0000
0010
0000
0000
0001
1000
0000
0100
0000
,
0010
0000
0001
0000
0100
0000
0000
0001
1000
0000
0000
0001
0100
0000
0010
0000
,
1000
0000
0100
0000
0001
0000
0000
0000
0010
0000
0000
0001
0100
0000
0000
0000
,
0101
0000
0000
1000
0100
0000
0000
0000
0011
0000
0000
0001
0100
0000
0000
0000
,
1010
0000
0000
0001
1000
0000
0000
0000
0101
0000
0000
0010
0100
0000
0000
0000
,
1001
0000
0000
0001
1000
0000
0000
1000
0001
0000
0000
0001
0100
0000
0010
0000
,
1000
0001
0100
0001
0010
0100
1000
0010
,
0100
1000
0010
1000
0001
0100
0010
0001
,
0100
0001
0010
1000
0100
1000
0010
0001
,
0100
1000
0010
0001
1000
0001
0100
0010
,
1000
0001
0100
0001
0010
0100
1000
0010
,
0001
1000
0100
1000
0010
0001
0100
0010
,
0001
0100
0001
1000
0010
0100
0010
1000
,
2200
0000
0000
0000
,
0000
0300
0001
0001
,
3001
0000
0000
0000
1000
0000
0100
0000
0010
0000
0000
0001
0100
0000
0010
0000
,
1001
0000
0000
0000
1000
0000
0100
0000
0001
0000
0000
0010
0100
0000
0000
0000
,
1000
0000
0001
0000
0010
0000
0000
0001
0100
0000
0010
0000
0101
0000
0000
0000
,
1000
0000
0100
0000
0001
0000
0010
0100
0020
0000
0000
0000
0031
0000
0100
0000
,
0010
0000
0000
1000
0100
0000
0010
0000
0011
0000
0000
0000
1000
0000
0001
0000
,
0010
0000
0000
1000
0100
0000
0000
0000
0110
0000
0001
0000
1000
0000
0000
0000
,
1001
0010
0100
0000
0101
0000
1100
0000
,
0101
0000
1000
0001
1000
0000
0000
0010
0000
0000
1000
0000
0001
0000
0100
0000
,
0100
0000
0000
0000
0001
0000
0000
0010
0000
0000
0100
0000
1000
0000
0001
0000
,
0001
0100
0000
0010
0000
0000
1000
0000
0001
0000
0010
0000
0010
0000
0000
0000
,
0100
0000
0000
1000
0000
0000
0001
0100
0001
0000
0000
0000
0010
0000
0000
0001
,
0000
0000
0100
0000
0001
0000
1000
0000
1000
0000
0000
0000
0010
0000
0000
1000
,
0100
0010
0001
1000
1000
0010
0100
0010
,
0001
0010
0100
0010
1000
0100
0001
0100
,
1000
0000
0010
0100
0010
0000
0000
0000
0000
0000
0000
0000
0000
0000
0000
0000
;
