#TITLE:West End Girls;
#SUBTITLE:;
#ARTIST:Pet Shop Boys;
#TITLETRANSLIT:;
#SUBTITLETRANSLIT:;
#ARTISTTRANSLIT:;
#GENRE:;
#CREDIT:;
#BANNER:West End Girls-bn.png;
#BACKGROUND:West End Girls-bg.png;
#LYRICSPATH:;
#CDTITLE:;
#MUSIC:West End Girls.ogg;
#OFFSET:0.000000;
#SAMPLESTART:27.552000;
#SAMPLELENGTH:20.000000;
#SELECTABLE:YES;
#DISPLAYBPM:113.000000;
#BPMS:0.000000=113.239998
;
#STOPS:
;
#BGCHANGES:;
#KEYSOUNDS:;
#ATTACKS:;

//---------------dance-single - ----------------
#NOTES:
     dance-single:
     :
     Hard:
     13:
     0.421056,0.516425,0.303160,0.101053,0.214739,350.000000,314.000000,36.000000,12.000000,0.000000,0.000000,0.421056,0.516425,0.303160,0.101053,0.214739,350.000000,314.000000,36.000000,12.000000,0.000000,0.000000:
0000
0000
0000
0000
,
0000
0000
0000
0000
,
0000
0000
0000
0000
,
0000
0000
0000
0000
,
0000
0000
0000
0000
,
0000
0000
0000
0000
,
0000
0000
0000
0000
,
0000
0000
0000
0000
,
0000
0000
1100
0101
,
1100
0000
0000
0000
0000
0000
0001
0100
0000
0010
1000
0000
0100
0000
0000
0000
,
0010
0001
0011
1010
,
0011
0000
0000
0000
0000
0000
1000
0001
0000
0100
0010
0000
1000
0000
0000
0000
,
0001
0100
0010
0100
,
0001
0000
1000
0000
1000
0000
0000
0000
0010
0100
0010
0000
1000
0000
0100
0000
,
1000
0001
1000
0000
0010
0000
0100
0000
0001
0010
0001
0010
0001
0000
0000
0000
,
0100
0010
0100
0000
0001
0010
0001
0000
,
1000
0100
1000
0000
0010
0000
0100
0000
0001
1000
0001
0000
0100
0000
0010
0000
,
0100
0001
0100
0000
0000
0000
0010
0000
1000
0000
1000
0000
1001
0000
0000
0000
,
0001
0000
0010
0000
0001
0000
0100
0000
0010
0000
1000
0100
1000
0000
0000
0000
,
0001
1000
0000
0100
0000
0000
0000
0000
1000
0000
0010
0000
0100
0000
0001
0000
,
0010
0000
0010
0000
0000
0000
0001
1000
0001
0000
0100
0000
0010
0000
1000
0000
,
0100
0000
1000
0000
0010
0000
0100
0000
0001
1000
0000
0000
0101
0000
0000
0000
,
0010
0000
1000
0000
0000
0000
0100
0010
0000
0010
0001
0000
1000
0000
0001
0000
,
0100
0010
0000
1010
0001
0100
1000
0000
,
0010
1000
0000
0001
0010
0000
0110
0100
,
1000
0000
0010
0000
0100
0000
0010
0000
1000
0001
0000
0000
0101
0000
0000
0000
,
0001
0000
1000
0000
0000
0000
0010
1000
0000
1000
0100
0000
0010
0000
0001
0000
,
0100
0010
0000
1010
0001
0100
1000
0000
,
0001
0010
0100
0000
1100
0000
0101
0000
,
1100
0000
0000
0000
0000
0000
1000
0100
0000
0010
0001
0000
0100
0000
0010
0000
,
1000
1000
1000
0000
0011
0000
1010
0000
,
0011
0000
0000
0000
0000
0000
0010
0100
0000
1000
0001
0000
0100
0000
0010
0000
,
1000
0000
1000
0000
1000
0000
0001
0100
0000
0100
0000
0000
0010
0000
1000
0001
,
1000
0000
0010
0100
0010
0000
1000
0000
0001
0100
0001
0000
0010
0000
0100
0000
,
1000
0010
1000
0000
0001
0000
1000
0000
0100
0000
0010
0001
0010
0000
0100
0000
,
1100
0101
1001
0110
,
1000
0000
0001
0000
0000
0000
0010
0000
0001
0000
0100
0000
0000
0000
0001
1000
,
0001
0100
0010
1000
0100
1000
1010
0100
,
0001
0000
0010
0000
0001
0000
0100
0010
0000
1000
0001
0000
0101
0000
0010
0000
,
0000
2000
0000
3002
0000
0023
0000
0230
,
1000
1300
0000
0001
0100
0000
0110
0010
,
1000
0000
0001
0000
1000
0000
0100
0000
0010
0001
0000
0000
0011
0000
0000
0000
,
1000
0000
0001
0000
0000
0000
1000
0100
0000
0100
0010
0000
0001
0000
1000
0000
,
0010
1000
0000
1100
0010
0001
0100
0000
,
0001
1000
0000
0100
0010
0000
1001
0100
,
0001
0000
0010
0000
0001
0000
0100
0000
0010
1000
0000
0000
0101
0000
0000
0000
,
0001
0000
0100
0000
0000
0000
0001
1000
0000
1000
0100
0000
0010
0000
0001
0000
,
0100
0010
0000
1010
0001
0100
1000
0000
,
0010
1000
0100
0000
1100
0000
0101
0000
,
1100
0000
0001
0000
0001
0000
1000
0100
0000
0100
0000
0010
0001
0000
1000
0000
,
0010
0010
0010
1000
1010
0000
0011
0000
,
1010
0000
0100
0000
0100
0000
0001
1000
0000
0001
0000
0010
0100
0000
1000
0001
,
1000
0000
0020
0000
0000
0230
0000
0000
0302
0000
0000
2003
0000
0000
3010
0000
,
2000
0000
0000
3200
0000
0000
0310
0000
0002
0000
0000
0000
2000
0000
0000
0000
,
0000
0000
0000
0000
,
0000
0000
0000
3003
;

//---------------dance-single - ----------------
#NOTES:
     dance-single:
     :
     Medium:
     9:
     0.306770,0.399056,0.303160,0.050527,0.000000,255.000000,219.000000,36.000000,6.000000,0.000000,0.000000,0.306770,0.399056,0.303160,0.050527,0.000000,255.000000,219.000000,36.000000,6.000000,0.000000,0.000000:
0000
0000
0000
0000
,
0000
0000
0000
0000
,
0000
0000
0000
0000
,
0000
0000
0000
0000
,
0000
0000
0000
0000
,
0000
0000
0000
0000
,
0000
0000
0000
0000
,
0000
0000
0000
0000
,
0000
0000
1100
0101
,
1100
0000
0000
0000
0001
1000
0100
0000
,
0010
0001
0011
1010
,
0011
0000
0000
0000
1000
0001
0100
0000
,
0010
1000
0001
1100
,
0000
0100
0010
0000
0001
0100
0001
0000
,
0010
0100
1000
0000
0010
0100
0001
0000
,
0010
0000
1001
0000
0100
0001
1000
0000
,
0001
0010
0001
0100
0001
1000
0100
0000
,
1000
0001
0000
0000
0100
0010
0100
0000
,
0001
0000
0110
0000
1000
0001
0100
0000
,
0001
0010
0100
0000
1000
0001
1000
0000
,
1010
0000
0001
0000
0100
0010
1000
0000
,
0001
0010
0001
0100
0010
0000
0110
0000
,
1000
0001
0000
0000
0010
0001
0100
0000
,
0001
1000
0000
1100
0000
0000
0000
0000
,
1000
0010
0000
0100
0001
0000
1001
0000
,
0010
0001
0100
0001
1000
0000
0110
0000
,
0001
0100
0000
0000
0001
1000
0010
0000
,
0100
0001
0000
0011
0000
0000
0000
0000
,
1000
0100
0000
0000
1100
0000
0101
0000
,
1100
0000
0000
0000
0001
0100
0010
0000
,
1000
0001
1000
0000
0011
0000
1010
0000
,
0011
0000
0000
0000
0100
0010
1000
0000
,
0001
0010
0001
0000
1000
0100
0001
0000
,
1000
0010
1000
0000
0001
0010
0001
0100
,
0001
1000
0001
0010
0100
1000
0001
0000
,
0101
1010
1100
0011
,
1000
0001
0000
0000
0010
0100
0000
0000
,
1000
0100
1000
0010
0100
0001
1000
0000
,
0001
0010
0001
0100
0010
1000
0001
0000
,
0000
0020
0000
0032
0000
2003
0000
3200
,
0000
0300
0000
0000
1000
0010
0100
0000
,
0001
1000
0001
0100
0010
0000
0110
0000
,
0010
1000
0000
0000
0100
0010
0001
0000
,
1000
0001
0000
0101
0000
0000
0000
0000
,
1000
0010
0000
0100
0001
0000
1001
0000
,
0001
0010
0100
1000
0010
0000
0110
0000
,
1000
0010
0000
0000
0100
0001
0100
0000
,
0001
1000
0000
1010
0000
0000
0000
0000
,
0100
0001
0000
0000
0101
0000
1100
0000
,
0101
0000
0000
0000
0010
1000
0100
0000
,
0010
0001
1000
0000
1010
0000
0011
0000
,
1010
0000
0000
0000
1000
0100
0001
0000
,
0000
0010
0000
0001
0000
0100
0000
0010
,
1000
0100
2000
0002
,
0000
0000
0000
0000
,
0000
0000
0000
3003
;

//---------------dance-single - ----------------
#NOTES:
     dance-single:
     :
     Easy:
     6:
     0.181656,0.305160,0.134738,0.016842,0.000000,151.000000,135.000000,16.000000,2.000000,0.000000,0.000000,0.181656,0.305160,0.134738,0.016842,0.000000,151.000000,135.000000,16.000000,2.000000,0.000000,0.000000:
0000
0000
0000
0000
,
0000
0000
0000
0000
,
0000
0000
0000
0000
,
0000
0000
0000
0000
,
0000
0000
0000
0000
,
0000
0000
0000
0000
,
0000
0000
0000
0000
,
0000
0000
0000
0000
,
0000
0000
1000
0001
,
1000
0000
0110
0000
,
0100
0000
0001
1000
,
0001
0000
0110
0000
,
0010
0000
1000
0000
,
0000
1001
0100
0001
,
0010
0001
0100
0010
,
1000
1000
0001
0001
,
0010
0001
0100
0010
,
1001
0000
0100
0100
,
0001
0010
0001
1000
,
0100
0000
0010
0000
,
0001
0000
1000
0001
,
0010
0001
0010
0100
,
1000
0000
0001
0100
,
0001
0000
1001
0000
,
0010
0000
1000
1000
,
0001
0100
0010
1000
,
0100
0000
1000
0001
,
0100
0000
0110
0000
,
0100
0000
0001
1000
,
0001
0000
0110
0000
,
1000
0000
0010
0100
,
0010
0000
1001
0000
,
0100
0000
0001
0000
,
0010
0100
1000
0001
,
1000
0010
1000
0001
,
1001
0110
1001
0110
,
1000
0000
0001
0000
,
0010
0010
0001
0100
,
0001
1000
0010
0100
,
0000
0001
0000
1000
,
0100
0000
1000
0001
,
0010
0010
0001
0100
,
0010
0000
1000
0001
,
0100
0000
0110
0000
,
0010
0000
1000
1000
,
0001
0010
0100
0010
,
0001
0000
0100
0010
,
1000
0000
1001
0000
,
0001
0000
0010
0100
,
0010
0000
0110
0000
,
0001
0000
0100
0010
,
0100
0000
1001
0000
,
0010
0000
1000
0000
,
0010
0100
0002
2000
,
0000
0000
0000
0000
,
0000
0000
0000
3003
;

//---------------dance-single - ----------------
#NOTES:
     dance-single:
     :
     Beginner:
     2:
     0.098647,0.158422,0.016842,0.000000,0.000000,82.000000,80.000000,2.000000,0.000000,0.000000,0.000000,0.098647,0.158422,0.016842,0.000000,0.000000,82.000000,80.000000,2.000000,0.000000,0.000000,0.000000:
// measure 0
0000
0000
0000
0000
,  // measure 1
0000
0000
0000
0000
,  // measure 2
0000
0000
0000
0000
,  // measure 3
0000
0000
0000
0000
,  // measure 4
0000
0000
0000
0000
,  // measure 5
0000
0000
0000
0000
,  // measure 6
0000
0000
0000
0000
,  // measure 7
0000
0000
0000
0000
,  // measure 8
0000
0000
1000
0000
,  // measure 9
1000
0000
0001
0000
,  // measure 10
0000
0000
0100
0000
,  // measure 11
0100
0000
0010
0000
,  // measure 12
0000
0000
0000
0000
,  // measure 13
1000
0000
1000
0000
,  // measure 14
0010
0000
0100
0000
,  // measure 15
0001
0000
0010
0000
,  // measure 16
0001
0000
1000
0000
,  // measure 17
0010
0000
0010
0000
,  // measure 18
1000
0000
0100
0000
,  // measure 19
1000
0000
0001
0000
,  // measure 20
0100
0000
0010
0000
,  // measure 21
1000
0000
1000
0000
,  // measure 22
0001
0000
0010
0000
,  // measure 23
0001
0000
0100
0000
,  // measure 24
0000
0000
0000
0000
,  // measure 25
0010
0000
0010
0000
,  // measure 26
1000
0000
0100
0000
,  // measure 27
1000
0000
0001
0000
,  // measure 28
0000
0000
0100
0000
,  // measure 29
0100
0000
0010
0000
,  // measure 30
1000
0000
0001
0000
,  // measure 31
0001
0000
0010
0000
,  // measure 32
0100
0000
1000
0000
,  // measure 33
0010
0000
0010
0000
,  // measure 34
0100
0000
0001
0000
,  // measure 35
1001
0000
0110
0000
,  // measure 36
1000
0000
0001
0000
,  // measure 37
0010
0000
0001
0000
,  // measure 38
0100
0000
0010
0000
,  // measure 39
1000
0000
1000
0000
,  // measure 40
1000
0000
0000
0000
,  // measure 41
0001
0000
0001
0000
,  // measure 42
0010
0000
0100
0000
,  // measure 43
1000
0000
0010
0000
,  // measure 44
0000
0000
0000
0000
,  // measure 45
0100
0000
0100
0000
,  // measure 46
0010
0000
1000
0000
,  // measure 47
0001
0000
0010
0000
,  // measure 48
0000
0000
0001
0000
,  // measure 49
0001
0000
1000
0000
,  // measure 50
0001
0000
0010
0000
,  // measure 51
0010
0000
0100
0000
,  // measure 52
1000
0000
0000
0000
,  // measure 53
0000
0000
0001
0001
;
