#TITLE:Welcome to the Mosh Pit;
#ARTIST:lapix;
#BANNER:Welcome to the Mosh Pit-bn.png;
#BACKGROUND:Welcome to the Mosh Pit-bg.png;
#JACKET:Welcome to the Mosh Pit-jacket.png;
#MUSIC:Welcome to the Mosh Pit.ogg;
#SAMPLESTART:22.326;
#SAMPLELENGTH:20;
#DISPLAYBPM:172;
#BPMS:0=172;
#BGCHANGES:;

//---------------dance-single - ----------------
#NOTES:
     dance-single:
     :
     Beginner:
     5:
     :
0000
0000
0000
0000
,
0000
0000
0000
0000
,
0000
0000
0000
0000
,
0000
0000
0000
0000
,
0001
0001
0000
1000
,
1000
0000
0000
0000
,
0010
0000
0100
0000
,
0001
0000
0000
0000
,
0100
0100
0000
0000
,
0001
0001
0001
0000
,
1000
1000
1000
0000
,
0001
0001
0001
0000
,
1000
1000
1000
0000
,
0001
0000
0010
0000
,
0001
0000
0100
0000
,
0010
0000
1000
0000
,
0100
0100
0100
0100
,
0000
1000
0000
0010
,
0000
1000
0000
0010
,
0000
0100
0000
0001
,
0001
0001
0001
0000
,
0100
0100
0000
0001
,
0000
1000
0000
0001
,
0001
0000
1000
0000
,
0010
0010
0000
0000
,
1000
0000
1000
0000
,
0001
0000
0001
0000
,
0010
0000
0010
0000
,
0100
0000
0100
0000
,
0010
0000
0001
0000
,
0100
0000
0001
0000
,
1000
0000
1000
0000
,
0010
0010
0010
0010
,
0010
0000
1000
0000
,
0010
0000
0100
0000
,
0001
0000
0010
0000
,
0001
0000
1000
0000
,
0100
0000
0100
0000
,
0010
0000
0010
0000
,
0110
0000
0000
1001
,
0000
0000
0110
0000
,
1001
0000
0000
0000
,
0000
0000
0000
0000
,
0001
0001
0000
0000
,
1000
0000
0001
0000
,
0100
0100
0000
0000
,
0010
0000
1000
0000
,
0100
0100
0000
0000
,
1000
0000
0001
0000
,
1001
0000
0000
0000
,
1000
0000
0100
0000
,
0001
0000
0000
0000
,
0000
0000
0000
0000
,
0110
0000
0010
0000
,
0001
0000
1000
0000
,
0010
0000
0000
0000
,
0100
0100
0100
0100
,
0100
0100
0100
0000
,
0010
0010
0010
0000
,
0100
0100
0100
0000
,
0010
0010
0010
0000
,
1000
0000
1000
0000
,
0001
0000
0001
0000
,
1000
0000
0100
0000
,
0010
0010
0010
0010
,
0010
0000
0001
0000
,
0010
0000
0001
0000
,
0010
0000
0100
0000
,
1000
1000
1000
0000
,
1000
0000
0001
0000
,
1000
0000
0001
0000
,
0100
0000
0100
0000
,
0010
0010
0010
0000
,
1000
0000
0100
0000
,
0001
0000
0100
0000
,
0010
0000
1000
0000
,
0010
0000
0001
0000
,
0010
0000
0001
0000
,
0100
0000
1000
0000
,
0001
0000
0001
0000
,
1000
0000
1000
0000
,
0010
0000
0000
0000
,
1000
1000
1000
1000
,
0000
0010
0000
1000
,
0000
0100
0000
0001
,
0001
0000
0000
0000
;

//---------------dance-single - ----------------
#NOTES:
     dance-single:
     :
     Easy:
     9:
     :
0000
0000
0000
0000
,
0000
0000
0000
0000
,
0000
0000
0000
0000
,
0000
0000
0000
0000
,
0001
1000
0001
1000
0000
0000
0010
0100
,
0001
0000
0000
0000
1000
0000
0010
0100
,
0000
0101
0000
1100
0000
0101
0000
1100
,
0000
0000
0000
0000
,
0001
1000
0001
1000
0000
0000
0000
0000
,
1001
1001
1001
0000
,
0110
0110
0110
0000
,
1001
1001
1001
0000
,
0110
0110
0110
0000
,
1000
1000
0001
0001
,
0100
0100
0010
0010
,
1000
0100
0010
0001
,
1000
0001
1000
0000
1010
0000
0101
0000
,
2100
3001
0100
0010
,
0102
1003
0010
0100
,
0120
1030
0100
0001
,
1000
0010
1000
0000
0001
0100
0001
0000
,
0021
0130
1000
0001
,
2010
3100
1000
0001
,
2000
0002
3000
0000
0100
0000
0103
0000
,
0001
1000
0001
1000
0000
0000
0000
0000
,
0010
1000
0000
0100
0000
1000
0000
0001
,
0000
0010
0000
0001
0000
0100
0000
0001
,
0000
0010
0000
0001
0000
0100
0000
1000
,
0010
0000
0100
0000
0001
0010
0100
0000
,
1000
0010
0000
1000
0000
0100
0000
0001
,
0000
0010
0000
0100
0000
0010
0000
0001
,
1000
0100
1000
0000
1001
0000
0110
0000
,
1000
0001
1000
0000
1100
0000
0011
0000
,
1001
0010
1000
0100
,
0001
0010
0001
1000
,
0010
0010
1000
1000
,
0100
0100
0001
0001
,
0010
0001
0010
1000
,
0100
0010
0100
1000
,
0001
0000
0000
0010
0000
0000
0001
0000
,
0000
1000
0000
0000
0010
0100
0010
0000
,
1000
0100
0001
0010
,
1000
0000
0100
0100
,
1000
0001
0000
0000
,
1100
0101
1100
0101
,
0010
0010
1000
0100
,
0001
0010
0001
1000
,
0001
0010
1000
0100
,
1000
0000
0010
0000
1000
0000
0100
0010
,
0001
0000
0000
0000
1000
0000
0010
1000
,
0000
0100
0000
1000
0000
0010
0000
0002
,
0000
0000
0000
0003
,
0000
0000
0001
0000
0100
0000
0001
1000
,
0100
0000
0000
0000
1000
0000
0001
0100
,
0000
0010
0000
0100
0000
0001
0000
1000
,
0000
0000
0000
0000
0100
1000
0001
0000
,
0100
0010
0100
0010
0100
0010
0100
0000
,
0101
0101
0101
0000
,
1100
1100
1100
0000
,
0011
0011
0011
0000
,
1010
1010
1010
0000
,
1000
1000
0100
0100
,
0001
0001
0010
0010
,
0001
0100
0010
1000
,
0001
0100
0001
0000
0101
0000
1100
0000
,
1001
0010
1001
0010
,
1100
0001
1100
0001
,
0011
0100
1010
0100
,
0001
0001
1000
0100
,
0110
0001
0110
1000
,
1010
0100
1010
0100
,
1001
0010
0110
1000
,
0010
0010
1000
0100
,
1000
0010
1000
0000
0001
0010
0001
0000
,
1000
0100
1000
0000
0001
0100
0001
0000
,
0010
0100
1000
0001
,
0100
0010
0100
0000
0001
1000
0001
0000
,
0010
0000
0010
0000
0001
0010
1000
0000
,
0100
1000
0100
0000
0001
0100
0001
0000
,
1000
0010
1000
0000
0100
0010
0001
0000
,
0100
0010
0100
0000
0001
0010
0100
1000
,
0002
2003
3020
0230
,
0301
1000
0001
0000
0110
0000
1001
0000
,
2100
3001
0100
1000
,
0012
0000
1003
0000
0010
0000
0001
1000
,
0002
0000
0000
0000
,
0000
0000
0000
0000
,
0000
0000
0000
0000
,
0003
0000
0000
0000
;

//---------------dance-single - ----------------
#NOTES:
     dance-single:
     :
     Medium:
     13:
     :
0000
0000
0000
0000
,
0000
0000
0000
0000
,
0000
0000
0000
0000
,
0000
0000
0000
0000
,
0001
0000
0010
0000
1000
0000
0100
0000
0000
0000
0000
0000
1000
0001
1000
0000
,
1001
0000
0000
0000
0000
0000
0000
0000
0010
0100
0010
0000
1000
0000
1100
0000
,
0000
0001
0000
0101
0000
0011
0000
1100
,
0000
0000
0000
0000
,
0001
1000
0001
0000
0100
0000
0010
0000
0000
0000
0000
0000
0000
0000
0000
0000
,
1001
0000
1001
0000
1001
0010
0100
0000
,
0110
0000
0110
0000
0110
0001
1000
0000
,
1001
0000
1001
0000
1001
0100
0010
0000
,
0110
0000
0110
0000
0110
1000
0001
0000
,
0010
0001
0100
0000
0010
1000
0100
0000
,
1000
0010
0001
0000
1000
0100
0001
0000
,
1000
0010
1000
0010
0100
0001
0100
0001
,
1000
0100
0001
0100
1000
0000
1001
0000
,
2020
0000
0000
3030
0000
0000
0101
0000
0000
0000
1000
0000
0100
0000
0000
0000
0000
0000
0010
0000
0000
0000
0000
0000
,
0022
0000
0000
0033
0000
0000
1100
0000
0000
0000
0001
0000
0100
0000
0000
0000
0010
0000
1000
0000
0000
0000
0000
0000
,
0220
0000
0000
0000
0000
0000
0330
0000
0000
0000
0000
0000
1001
0000
0000
0000
0000
0000
0000
0000
0010
0000
0000
0000
0100
0000
0000
0000
0000
0000
0000
0000
0000
0000
0000
0000
0001
0000
0000
1000
0000
0000
0001
0000
0000
1000
0000
0000
,
0001
0100
1000
0100
0001
0010
0100
0000
,
2200
0000
0000
3300
0000
0000
0101
0000
0000
0000
0010
0000
1000
0000
0000
0000
0000
0000
0101
0000
0000
0000
0010
0000
,
1000
0000
0000
0100
0000
0000
0001
0000
0000
0000
0010
0000
0100
0000
0000
0000
0000
0000
1100
0000
0000
0001
0000
0000
,
0200
0020
0300
1000
1030
0001
0100
0000
,
0001
1000
0001
0000
0100
0000
0010
0000
0000
0000
1000
0100
1000
0000
0001
0000
,
0010
0001
0100
0010
0000
1000
0100
1000
,
0000
0001
0100
0010
0000
1000
0100
0001
,
0010
0100
0010
0001
0000
1000
0010
0100
,
0000
0000
0010
0000
1000
0000
0001
0000
0100
0010
0100
0010
0100
0000
0000
0000
,
0001
0010
1000
0100
0000
1000
0010
1000
,
0000
0100
0010
0001
0000
0100
0001
1000
,
0010
0100
0010
0100
0001
1000
0001
1000
,
0001
0100
1000
0100
0001
0000
1001
0000
,
0010
0000
0000
1000
0000
0000
0001
0000
0000
0000
0010
0000
0001
0000
0100
0000
,
0001
0000
0000
0010
0000
0000
1000
0000
0000
0000
0100
0000
1000
0000
0001
0000
,
0010
0000
0000
0010
0000
0000
0010
0000
0001
0000
0000
0001
0000
0000
0001
0000
,
0100
0000
0000
0100
0000
0000
0100
0000
1000
0000
0000
1000
0000
0000
1000
0000
,
0010
0000
0000
1000
0000
0000
0010
0000
1000
0000
0000
0100
0000
0000
0010
0000
,
0001
0000
0000
0010
0000
0000
0100
0000
0010
0000
0000
0001
0000
0000
1000
0000
,
1010
0000
0000
0101
0000
0000
1010
0000
0000
0101
0000
0000
1100
0000
0000
0011
,
0000
0000
1100
0000
0000
0011
0000
0000
1000
0001
1000
0001
1000
0000
0000
0000
,
1001
0000
0000
0000
0010
0000
0000
0000
1000
0000
0000
0001
0000
0000
0100
0000
,
0000
0000
0000
0000
0000
0000
0000
0000
0100
0000
0000
0010
0000
0000
0100
0000
,
0001
1000
0000
0000
0001
0000
0000
0000
0000
0000
0000
0000
0000
0000
0000
0000
,
1100
0011
0101
1010
,
1000
0000
0100
0000
0001
0000
0000
0000
0010
0000
0000
0001
0000
0000
0100
0000
,
0000
0000
0000
0000
0000
0000
0000
0000
0010
0000
0000
1000
0000
0000
0100
0000
,
1000
0001
0000
0000
1000
0000
0000
0000
0001
0000
0100
0000
0010
0000
0000
0000
,
1000
0000
0100
0000
1000
0000
0100
0000
1000
0000
0100
0000
1000
0001
1000
0000
,
0010
0000
0000
0000
0000
0000
0000
0000
0100
0001
0100
0000
0010
0000
2000
0000
,
0000
3200
0000
2300
0000
3002
0000
0023
,
0000
0001
1000
0031
,
0010
0000
0000
0000
0100
0000
0000
0000
1000
0000
0000
0000
0001
0100
0001
0000
,
2000
0000
0000
0000
3100
0000
0000
0000
1000
0001
1000
0000
0010
0000
0200
0000
,
0000
0302
0000
0023
0000
0031
1000
0100
,
0010
0000
0000
0000
0010
0000
0001
1000
0001
0000
0100
0000
0010
0000
0000
0000
,
1000
0100
1000
0000
0001
0000
0100
0000
0010
0000
0100
0000
0001
0000
0000
0000
,
0011
0000
0011
0000
0011
0100
1000
0000
,
1010
0000
1010
0000
1010
0001
0100
0000
,
0101
0000
0101
0000
0101
0010
1000
0000
,
1100
0000
1100
0000
1100
0010
0001
0000
,
1000
0100
0010
0000
0001
0100
0010
0000
,
1000
0001
0100
0000
0001
0010
1000
0000
,
0001
0010
0001
0010
0100
1000
0100
1000
,
0001
0100
1000
0100
0001
0000
1001
0000
,
0010
1000
0010
0100
0010
1000
0010
0100
,
0001
0010
0001
1000
0001
0010
0001
1000
,
0100
0010
0100
0010
0001
1000
0001
1000
,
0010
0000
0000
0010
0000
0000
0010
0000
0000
0000
1000
0000
0100
0000
0001
0000
,
0010
0100
0010
0001
0010
0100
0010
0001
,
1000
0001
0100
0001
1000
0001
0100
0001
,
1000
0100
0010
0100
1000
0100
0010
0100
,
1000
0000
0000
1000
0000
0000
1000
0000
0001
0000
0100
0000
0010
0000
1000
0000
,
0001
0100
0001
0100
0000
0000
0000
0000
0010
1000
0010
1000
0000
0000
0000
0000
,
0100
1000
0100
1000
0000
0000
0000
0000
0001
0010
0001
0010
0000
0000
0000
0000
,
0001
0000
0000
0100
0000
0000
0010
0000
0000
1000
0100
0000
1000
0000
0001
0100
,
0001
0010
0100
1000
0010
0100
0001
1000
,
0100
0000
0000
0100
0000
0000
1000
0000
0000
0001
0000
0000
0100
0000
0000
0000
,
0010
1000
0010
0000
0100
0001
1000
0000
,
0001
1000
0010
0100
0010
1000
0001
0100
,
0001
0100
0010
1000
0010
0001
1000
0100
,
0010
0001
0100
0001
0010
0001
0100
0001
,
1000
0100
0001
0100
1000
0000
1001
0000
,
2020
0000
0000
3030
0000
0000
0101
0000
0000
0000
1000
0000
0001
0000
0000
0000
0000
0000
0100
0000
0000
0000
0000
0000
,
0022
0000
0000
0000
0000
0000
0033
0000
0000
0000
0000
0000
1100
0000
0000
0000
0000
0000
0000
0000
0001
0000
0000
0000
1000
0000
0000
0000
0000
0000
0000
0000
0000
0000
0000
0000
0001
0000
0000
0100
0000
0000
0001
0000
0000
0100
0000
0000
,
0002
0000
0000
0000
,
0000
0000
0000
0000
,
0000
0000
0000
0000
,
0003
0000
0000
0000
;

//---------------dance-single - ----------------
#NOTES:
     dance-single:
     :
     Hard:
     17:
     :
0000
0000
0000
0000
,
0000
0000
0000
0000
,
0000
0000
0000
0000
,
0000
0000
0000
0000
,
0001
1000
0001
0000
0100
0000
0010
0000
0000
0000
0000
0000
1000
0100
1000
0100
,
0010
0000
0000
0000
0000
0000
0000
0000
0001
1000
0001
1000
0001
0000
0110
0000
,
0000
0010
1000
0101
0000
0011
0100
1100
,
0000
0000
0000
0000
0000
0000
0000
0000
0000
0000
0000
0000
0001
0010
0100
1000
,
0010
0100
0010
0000
1000
0000
0001
0000
0000
0000
0100
0010
0100
0000
0000
0000
,
1001
0010
1001
0010
1001
0010
0100
0000
,
0110
0001
0110
0001
0110
0001
1000
0000
,
1100
0010
1100
0010
1100
0010
0100
0000
,
0101
0000
1000
0000
0101
0000
1000
0000
0101
0000
1000
0000
0001
0100
0001
0100
,
0001
0010
0001
0010
1000
0010
1000
0010
,
0001
0100
0001
0100
1000
0100
1000
0100
,
0001
0010
1000
0010
0001
0100
1000
0100
,
0001
0001
0001
0001
0001
0000
1001
0000
,
2200
0000
0000
0000
0000
0000
3300
0000
0000
0000
0000
0000
0101
0000
0000
0000
0000
0000
0000
0000
0010
0000
0000
0000
1000
0000
0000
0000
0000
0000
0001
0000
0000
1000
0000
0000
0100
0000
0000
0000
0000
0000
0000
0000
0000
0000
0000
0000
,
0022
0000
0000
0000
0000
0000
0033
0000
0000
0000
0000
0000
1010
0000
0000
0000
0000
0000
0000
0000
1000
0000
0000
0000
0100
0000
0000
0000
0000
0000
0000
0000
0000
1000
0000
0000
0001
0000
0000
0100
0000
0000
0010
0000
0000
0000
0000
0000
,
0220
0000
0000
0000
0000
0000
0330
0000
0000
0000
0000
0000
1001
0000
0000
0000
0000
0000
0000
0000
0010
0000
0000
0000
0100
0000
0000
0000
0000
0000
0000
0000
0000
0000
0000
0000
0001
0000
0000
1000
0000
0000
0001
0000
0000
1000
0000
0000
,
0010
0000
0010
0000
0010
0000
0010
0000
0010
0000
1000
0000
0001
1000
0100
0000
,
0022
0000
0033
0000
1001
0000
0010
1000
0100
0000
0000
0000
0110
0000
0001
1000
,
0001
0000
0100
0010
1000
0000
0100
0010
0001
0000
1000
0001
0100
0000
0010
0000
,
2000
0200
0000
3000
0310
0001
0010
0100
1000
0000
0001
0000
0001
0000
0000
0000
,
0100
0001
0100
0000
0010
0000
1000
0000
0100
0000
1000
0001
1000
0000
0010
0000
,
0100
1000
0100
0001
0100
0010
0100
0001
,
0100
0000
1000
0000
0100
0000
0001
0000
0100
0010
1000
0000
0100
0010
0001
0000
,
0100
0000
0010
0000
0100
0000
1000
0000
0100
0001
0100
1000
0100
0000
0010
0000
,
1000
0001
1000
0000
0100
0000
0010
0000
0001
0100
0001
0100
0010
1000
0001
0100
,
0010
0000
0001
0000
0010
0000
1000
0000
0010
0100
0010
0100
0010
0000
0001
0000
,
0010
0000
1000
0000
0010
0000
0001
0000
0010
1000
0100
0000
0010
0001
0100
0000
,
0010
1000
0010
1000
0001
0100
0001
0100
0001
0010
0001
0010
0100
1000
0100
1000
,
0010
0010
0010
0010
0010
0000
1001
0000
,
0101
0000
0000
0010
0000
0000
1000
0000
0000
0100
1000
0100
1000
0010
0100
0001
,
0010
0000
0000
0001
0000
0000
1000
0000
0000
0001
0100
0001
0010
0100
1000
0010
,
0100
0000
0000
0001
0000
0000
1000
0000
0010
1000
0001
0000
0010
0100
0010
0001
,
1000
0000
0010
0100
0000
0010
0100
0000
0001
0000
0010
0100
0000
0010
0100
0000
,
1000
0000
0001
0100
0000
0001
0100
0000
0010
0000
1000
0100
0000
1000
0100
0000
,
0010
0000
0001
1000
0000
0001
1000
0000
0010
0000
1000
0001
0000
1000
0001
0000
,
0100
0010
0100
0001
1000
0001
0100
0010
0100
0001
1000
0001
0100
0010
0100
0001
,
1000
0001
0100
0010
0100
0001
1000
0001
0100
0010
1000
0001
0100
0000
0000
0000
,
1000
0001
0000
0000
0100
0000
0000
0000
0010
0000
0000
0010
0000
0000
0010
0000
,
0000
0000
0000
0000
0000
0000
0000
0000
1000
0000
0000
1000
0000
0000
0001
0000
,
1000
0010
0000
0000
0100
0001
0000
0000
0000
0000
0000
0000
0000
0000
0000
0000
,
1000
0100
0000
0100
1000
0100
0000
0100
1000
0100
0000
0100
1000
0000
0000
0000
,
0001
1000
0001
0000
0100
0000
0010
1000
0010
0000
0000
0100
0000
0000
0001
0000
,
0010
0000
0100
0000
1000
0000
0001
0100
0001
0000
0000
1000
0000
0000
0010
0000
,
1000
0100
1000
0000
0001
0000
0010
0001
0100
0000
0010
0000
1000
0000
0001
0100
,
0001
0000
0010
0000
0100
0000
1000
0000
0010
0000
0100
0000
0001
1000
0001
1000
,
0100
0000
0000
0000
0000
0000
0000
0000
1000
0010
1000
0010
1000
0000
0002
0000
,
0000
0013
0001
0200
0000
0301
0010
2000
,
0000
0000
0000
0000
3000
0000
0000
0100
1000
0000
0010
0000
0100
0001
1000
0000
,
0000
0000
0010
0100
0001
0000
0010
0000
0001
0000
1000
0000
0010
0100
0001
0100
,
0010
0000
1000
0000
0200
0000
0000
0000
1300
0001
1000
0001
0010
0000
0100
0000
,
1000
0010
1000
0001
1000
0010
1000
0001
,
0100
0000
0000
0000
0100
0000
0001
1000
0001
0000
0100
0000
0010
0000
1000
0100
,
1000
0001
0010
0001
0100
0000
0001
0100
0010
0000
0100
0010
1000
0000
0001
1000
,
0100
0000
0110
1000
0110
0001
0100
0010
,
0101
1000
0101
0010
0101
1000
0010
0000
,
1100
0000
0001
0000
1100
0000
0010
0000
1100
0000
0001
0000
0100
0010
0100
0000
,
1001
0000
0010
0000
1001
0000
0100
0000
1001
0000
0010
0000
1000
0100
1000
0100
,
0010
0001
0010
0001
0010
1000
0010
1000
,
0010
0001
0010
1000
0010
0001
0010
1000
,
0010
0010
0001
0001
1000
1000
0010
0010
,
0100
0100
0100
0100
0100
0000
1001
0000
,
0110
0000
1000
0001
0000
0000
0010
0100
1000
0000
0001
0100
0000
0000
0010
1000
,
0100
0000
1000
0001
0000
0000
0010
0001
0100
0000
0001
1000
0000
0000
0010
1000
,
0100
0000
0010
0001
0000
0001
0100
0000
0010
0000
1000
0001
0000
0001
0100
0000
,
1010
0000
0000
0101
0000
0000
1100
0000
0000
0001
0010
0100
1000
0100
0010
0001
,
0100
0000
0010
1000
0000
0000
0100
1000
0001
0000
0010
0001
0000
0000
1000
0001
,
0010
0000
0001
0100
0000
0000
0001
1000
0100
0000
0010
0100
0000
0000
1000
0001
,
0100
0000
0001
0010
0000
0001
0010
0000
0100
0000
1000
0001
0000
1000
0001
0000
,
0011
0000
0000
0110
0000
0000
1100
0000
0000
0010
0100
0010
1000
0100
0010
0001
,
0100
0010
0100
0010
0000
0000
1000
0100
0010
0001
0010
0001
0000
0000
1000
0010
,
1000
0000
0100
0010
0000
0010
0001
0000
0100
0000
0001
1000
0000
1000
0010
0000
,
1000
0100
1000
0100
0000
0000
0010
0001
1000
0001
0100
0010
0100
0000
0001
1000
,
0100
0010
0001
0100
0001
0000
0010
0100
1000
0000
0010
0100
0001
0000
1000
0100
,
1000
0000
0001
0100
0000
0001
0010
0000
0100
1000
0000
1000
0001
0000
0100
0010
,
1000
0100
1000
0000
0010
0100
0010
1000
0100
0010
0001
0000
0100
0001
1000
0001
,
0010
0100
0010
0100
0000
1000
0001
0000
1000
0010
0100
0001
1000
0100
0010
0001
,
0100
0010
0100
0001
0000
0000
1000
0100
1000
0100
0010
0001
0010
0100
1000
0000
,
1001
0000
0010
0100
0001
0100
0010
0100
,
0001
0000
0001
0000
0001
0000
0001
0000
0001
0000
1000
0001
0100
0000
0000
0000
,
0202
0000
0000
0000
0000
0000
0303
0000
0000
0000
0000
0000
1100
0000
0000
0000
0000
0000
0000
0000
1000
0000
0000
0000
0001
0000
0000
0000
0000
0000
0010
0000
0000
0001
0000
0000
0100
0000
0000
0000
0000
0000
0000
0000
0000
0000
0000
0000
,
2020
0000
0000
0000
0000
0000
3030
0000
0000
0000
0000
0000
0011
0000
0000
0000
0000
0000
0000
0000
1000
0000
0000
0000
0010
0000
0000
0000
0000
0000
0000
0000
0000
0000
0000
0000
0001
0000
0000
0100
0000
0000
0001
0000
0000
0100
0000
0000
,
0002
0000
0000
0000
,
0000
0000
0000
0000
,
0000
0000
0000
0000
,
0003
0000
0000
0000
;

//---------------dance-single - ----------------
#NOTES:
     dance-single:
     :
     Challenge:
     18:
     :
0000
0000
0000
0000
,
0000
0000
0000
0000
,
0000
0000
0000
0000
,
0000
0000
0000
0000
,
0001
0000
0010
0000
1000
0000
0100
0000
0000
0000
0010
0100
1000
0001
1000
0001
,
0100
0000
0000
0000
0010
0000
0000
0000
1000
0100
1000
0100
0010
0000
1001
0000
,
0000
0010
1000
0101
0000
0011
0100
1100
,
0000
0000
0000
0000
0001
1000
0001
1000
0001
0000
0100
0000
0010
1000
0010
1000
,
0100
0010
0001
0000
0100
0000
1010
0000
0000
0000
0001
0100
0001
0000
1000
0000
,
1001
0010
1001
0010
1001
0010
0000
1000
,
0110
0001
0110
0001
0110
0001
0100
0100
,
0010
1000
0010
1000
0010
0100
0010
0100
0010
1000
0010
0100
0001
0000
1000
0000
,
1000
0100
0010
0100
1000
0010
0100
0010
1000
0100
0010
0100
1000
0000
0000
0000
,
0001
0001
0100
0100
0010
0010
1000
1000
,
0100
0100
0010
0010
0001
0001
1000
1000
,
0010
1000
0100
1000
0020
0000
0000
0000
0130
0001
0010
0001
0100
0000
0010
0000
,
1010
1010
1001
0101
0101
0000
1100
0000
,
0022
0000
0000
0000
0000
0000
0033
0000
0000
0000
0000
0000
1010
0000
0000
0000
0000
0000
0000
0000
0010
0000
0000
0000
0100
0000
0000
0000
0000
0000
0000
0000
0000
0001
0000
0000
1000
0000
0000
0000
0000
0000
0000
0000
0000
0000
0000
0000
,
2200
0000
0000
0000
0000
0000
3300
0000
0000
0000
0000
0000
0101
0000
0000
0000
0000
0000
0000
0000
0010
0000
0000
0000
1000
0000
0000
0000
0000
0000
0000
0000
0000
0100
0000
0000
0010
0000
0000
0001
0000
0000
1000
0000
0000
0000
0000
0000
,
0220
0000
0000
0000
0000
0000
0330
0000
0000
0000
0000
0000
1001
0000
0000
0000
0000
0000
0000
0000
0010
0000
0000
0000
0100
0000
0000
0000
0000
0000
0000
0000
0000
0000
0000
0000
0001
0000
0000
1000
0000
0000
0001
0000
0000
1000
0000
0000
,
0100
0000
0100
0000
0010
0000
0010
0000
0001
0000
0100
0010
1000
0001
0100
0000
,
2020
0000
3030
0000
0101
0000
0010
1000
0100
0000
1000
0000
0001
0000
0100
0010
,
2000
0000
3001
0000
1001
0000
0010
1000
0001
0000
1000
0010
0100
0000
0001
0000
,
0010
0001
0000
0000
0010
0100
1000
0010
0100
0000
0001
1000
0010
0000
0000
0000
,
1000
0100
1000
0000
0001
0000
0001
0000
0010
0000
0001
0100
0001
0000
1000
0000
,
0020
0000
1030
0000
0200
0000
0310
0000
0001
0100
0001
0010
0100
1000
0001
0000
,
2000
0000
3010
0000
0002
0000
0103
0000
0001
0010
0001
1000
0010
0100
0001
0000
,
0110
0000
0110
0000
1000
0000
0001
0000
0010
0001
0010
0100
1000
0001
0100
0000
,
0010
1000
0010
0000
0100
0000
0100
0000
0100
0001
0010
0100
1000
0001
1000
0001
,
1000
0000
0010
1000
0001
0000
0100
0000
0010
0000
1000
0000
0100
0000
0001
0000
,
0010
0000
0000
0000
0001
0000
0000
0000
1000
0000
0000
0000
0010
0000
0000
0000
0000
0000
0100
0000
0000
0000
0000
0000
0001
0000
0000
0000
0000
0000
1000
0000
0000
0010
0000
0000
0100
0000
0000
0000
0000
0000
0001
0000
0000
0000
0000
0000
,
0010
0100
0010
0001
1000
0010
1000
0100
0010
0001
1000
0001
0100
0001
1000
0100
,
0010
0010
0010
0010
0010
0000
1001
0000
,
1010
0000
0001
0100
0000
0010
1000
0000
0100
1000
0010
0100
0010
1000
0001
0100
,
0010
0000
1000
0001
0000
0010
0001
0000
0010
0100
1000
0010
1000
0100
0010
0001
,
0100
0000
0010
1000
0000
0010
0100
0000
0001
0010
0001
1000
0000
0001
1000
0100
,
0010
0000
0001
0100
0000
0100
0010
0000
1000
0100
1000
0001
0000
1000
0100
0000
,
0010
0000
0001
1000
0000
1000
0010
0000
0100
0000
0010
0100
0000
0100
0001
0000
,
0010
0000
1000
0100
0000
0100
0001
0000
0010
0000
0001
0100
0000
0100
1000
0000
,
0001
0010
1000
0001
0100
1000
0001
0010
1000
0001
0100
1000
0001
0010
1000
0001
,
0100
1000
0001
0010
1000
0001
0100
1000
0001
0100
0010
0100
0001
0000
1000
0000
,
0100
1000
0100
0000
0010
0000
0000
0000
0001
0000
0000
1000
0000
0000
0001
0000
,
0000
0000
0100
0000
0100
0000
0010
1000
0010
0000
0000
0100
0000
0000
0001
0000
,
1000
0100
0000
0010
0001
0000
0100
0010
0100
0000
0000
0000
0001
0000
0000
0000
,
1000
0100
0000
0100
1000
0100
0000
0100
1000
0100
0000
0100
1000
0000
0000
0000
,
0001
1000
0001
0000
0100
0000
0010
1000
0010
0000
0100
0001
0000
0100
0001
0000
,
0010
0100
0010
0000
0001
0000
1000
0100
1000
0000
0010
0100
0000
0010
0100
0000
,
0001
0010
0000
0100
1000
0000
0010
0100
0010
0000
1000
0000
0001
0000
0100
0000
,
0001
0000
0010
0100
1000
0000
0010
0100
0001
0000
0010
0100
1000
0001
1000
0001
,
0100
0000
0000
0000
0010
0000
0000
0000
1000
0100
1000
0100
1000
0000
0002
0000
,
0000
0013
0001
0200
0000
0310
1000
0001
,
0100
0000
0010
0000
0100
0001
0010
1000
,
0000
0000
0100
1000
0001
0000
0100
0000
0010
0000
1000
0000
0100
0010
0001
0000
,
1000
0000
0000
0000
0001
0000
0000
0000
0010
0001
0010
0001
1000
0000
0010
0000
,
0100
1000
0100
0001
0010
1000
0010
0001
,
1000
0000
0010
0000
1000
0000
0010
0100
0001
0000
1000
0000
0001
0000
0100
0010
,
1000
0001
0100
0010
1000
0001
0100
0010
1000
0001
0100
0010
1000
0001
0100
0010
,
1000
0100
0011
0100
0011
0100
0000
1000
,
0101
0000
0010
0000
0101
0000
0010
0000
0101
0000
0010
0000
1000
0001
1000
0001
,
1000
0000
0010
0000
1100
0000
0001
0000
1100
0000
0001
0000
0100
0010
0100
0010
,
1000
0000
0100
0000
1001
0000
0010
0000
1001
0000
0100
0000
0010
0001
1000
0010
,
0100
0100
0001
0001
0010
0010
1000
1000
,
0001
0001
1000
1000
0010
0010
0100
0100
,
0010
1000
0001
0100
1000
0100
0001
0010
0100
1000
0010
0001
0010
1000
0001
0100
,
0010
0010
0010
0010
0010
0000
1001
0000
,
0110
0000
0001
0010
0000
1000
0100
1000
0001
0000
0010
0001
0000
0100
0001
1000
,
0010
0000
0100
0010
0000
0010
1000
0100
0001
0000
1000
0001
0000
0010
0001
0100
,
0010
0000
1000
0001
0000
0010
0001
0100
0010
0000
1000
0100
0000
1000
0100
0001
,
0010
0000
0001
0100
0000
0010
1000
0000
0100
0001
1000
0010
1000
0010
0100
0001
,
0010
0000
0001
0100
0000
0001
0010
1000
0100
0000
0010
0100
0000
0010
0001
1000
,
0010
0000
1000
0100
0000
1000
0100
0010
0001
0000
0100
0001
0000
0100
0010
1000
,
0001
0000
0010
1000
0000
0100
0010
0100
1000
0000
0001
0010
0000
0100
0001
1000
,
0010
0000
1000
0001
0000
1000
0001
0000
0010
0001
0100
1000
0010
1000
0100
0001
,
1000
0100
0010
0001
0010
0100
1000
0000
0001
0010
0100
1000
0100
0010
0001
0000
,
1000
0010
0100
0010
1000
0010
0100
0000
0001
0010
0100
0010
0001
0010
0100
0000
,
1000
0010
0100
0001
0010
0001
0100
0000
0001
1000
0010
1000
0100
0010
0001
0000
,
1000
0010
0100
0010
1000
0100
0010
0100
0001
0100
0010
0100
0001
0010
0100
0010
,
0001
1000
0010
1000
0100
0010
0001
0000
0100
0010
0000
0100
0010
1000
0001
0100
,
0000
0001
0010
0100
0010
0100
1000
0100
1000
0100
0010
0100
0010
0001
1000
0000
,
0010
1000
0010
1000
0010
1000
0010
0000
0100
0001
0100
0001
0100
0001
0100
0000
,
0001
0010
0100
1000
0000
0010
0100
0010
1000
0100
0010
0100
0001
0010
1000
0001
,
0100
0010
1010
1000
1010
0100
1010
0001
,
0011
0011
0110
1100
1100
0000
1001
0000
,
2200
0000
0000
0000
0000
0000
3300
0000
0000
0000
0000
0000
0101
0000
0000
0000
0000
0000
0000
0000
0010
0000
0000
0000
1000
0000
0000
0000
0000
0000
0100
0000
0000
1000
0000
0000
0001
0000
0000
0000
0000
0000
0000
0000
0000
0000
0000
0000
,
0022
0000
0000
0000
0000
0000
0033
0000
0000
0000
0000
0000
1010
0000
0000
0000
0000
0000
0000
0000
0001
0000
0000
0000
1000
0000
0000
0000
0000
0000
0000
0000
0000
0000
0000
0000
0010
0000
0000
0100
0000
0000
0010
0000
0000
0100
0000
0000
,
0002
0000
0000
0000
,
0000
0000
0000
0000
,
0000
0000
0000
0000
,
0003
0000
0000
0000
;
