#VERSION:0.83;
#TITLE:We Will Live Together;
#SUBTITLE:;
#ARTIST:Happy CoreMAN;
#TITLETRANSLIT:;
#SUBTITLETRANSLIT:;
#ARTISTTRANSLIT:;
#GENRE:;
#ORIGIN:;
#CREDIT:;
#BANNER:We Will Live Together-bn.png;
#BACKGROUND:We Will Live Together-bg.png;
#PREVIEWVID:;
#JACKET:We Will Live Together-jacket.png;
#CDIMAGE:;
#DISCIMAGE:;
#LYRICSPATH:;
#CDTITLE:;
#MUSIC:We Will Live Together.ogg;
#OFFSET:0.000000;
#SAMPLESTART:56.229000;
#SAMPLELENGTH:20.000000;
#SELECTABLE:YES;
#DISPLAYBPM:175.000000;
#BPMS:0.000=175.000;
#STOPS:;
#DELAYS:;
#WARPS:;
#TIMESIGNATURES:0.000=4=4;
#TICKCOUNTS:0.000=4;
#COMBOS:0.000=1;
#SPEEDS:0.000=1.000=0.000=0;
#SCROLLS:0.000=1.000;
#FAKES:;
#LABELS:0.000=Song Start;
#BGCHANGES:;
#KEYSOUNDS:;
#ATTACKS:
;

//---------------dance-single - ----------------
#NOTEDATA:;
#CHARTNAME:;
#STEPSTYPE:dance-single;
#DESCRIPTION:;
#CHARTSTYLE:;
#DIFFICULTY:Beginner;
#METER:2;
#RADARVALUES:0.110922,0.165707,0.047345,0.000000,0.000000,82.000000,77.000000,5.000000,0.000000,0.000000,0.000000,0.000000,0.000000,0.000000,0.110922,0.165707,0.047345,0.000000,0.000000,82.000000,77.000000,5.000000,0.000000,0.000000,0.000000,0.000000,0.000000,0.000000;
#CREDIT:;
#NOTES:
0000
0000
0000
0000
,
0000
0000
0000
0000
,
0000
0000
0000
0000
,
0000
0000
0000
0000
,
0000
0000
0000
0000
,
0000
0000
0000
0000
,
0001
0000
0000
0000
,
1000
0000
0000
0000
,
1000
0000
1000
0000
,
0010
0000
0000
0000
,
1000
0000
0000
0000
,
0000
0000
0000
0000
,
1000
0000
1000
0000
,
0100
0000
0000
0000
,
0001
0000
0000
0000
,
0000
0000
0000
0000
,
0001
0000
0001
0000
,
0010
0000
0000
0000
,
0001
0000
0000
0000
,
0000
0000
0000
0000
,
0001
0000
0001
0000
,
0100
0000
0000
0000
,
1000
0000
0000
0000
,
0000
0000
0000
0000
,
1000
0000
0010
0000
,
0010
0000
1000
0000
,
0100
0000
0000
0000
,
0010
0000
0000
0000
,
0001
0000
0010
0000
,
0010
0000
0001
0000
,
0100
0000
0000
0000
,
0010
0000
0000
0000
,
1000
0000
0100
0000
,
1000
0000
0100
0000
,
0010
0000
0000
0000
,
0000
0000
0000
0000
,
0001
0000
0100
0000
,
0001
0000
0100
0000
,
0010
0000
0000
0000
,
0000
0000
0000
0000
,
1001
0000
0000
0000
,
0001
0000
0000
0000
,
0010
0000
0000
0000
,
0100
0000
1000
0000
,
0100
0000
0000
0000
,
1000
0000
0000
0000
,
0010
0000
0000
0000
,
0100
0000
0001
0000
,
0100
0000
0000
0000
,
0001
0000
0100
0000
,
0010
0000
0000
0000
,
1001
0000
0000
0000
,
0000
0000
0000
0000
,
1000
0000
0100
0000
,
0010
0000
0000
0000
,
1001
0000
0000
0000
,
0000
0000
0000
0000
,
0001
0000
0001
0000
,
0010
0000
0000
0000
,
0100
0000
0010
0000
,
1000
0000
0000
0000
,
1000
0000
1000
0000
,
0010
0000
0000
0000
,
0100
0000
0010
0000
,
0001
0000
0000
0000
,
1001
0000
0000
0000
,
0000
0000
0000
0000
,
0010
0000
0010
0000
,
0100
0000
0100
0000
,
0000
0000
0000
0000
,
1001
0000
0000
0000
,
0000
0000
0000
0000
;

//---------------dance-single - ----------------
#NOTEDATA:;
#CHARTNAME:;
#STEPSTYPE:dance-single;
#DESCRIPTION:;
#CHARTSTYLE:;
#DIFFICULTY:Easy;
#METER:5;
#RADARVALUES:0.202907,0.272707,0.104159,0.094690,0.000000,150.000000,139.000000,11.000000,10.000000,0.000000,0.000000,0.000000,0.000000,0.000000,0.202907,0.272707,0.104159,0.094690,0.000000,150.000000,139.000000,11.000000,10.000000,0.000000,0.000000,0.000000,0.000000,0.000000;
#CREDIT:;
#NOTES:
0000
0000
0000
0000
,
0000
0000
0000
0000
,
0000
0000
0000
0000
,
0000
0000
0000
0000
,
0000
0000
0000
0000
,
0000
0000
0000
0000
,
1000
0000
0010
0000
,
0100
0000
0001
0000
,
1000
0100
1000
0000
,
0001
0100
0001
0000
,
0010
0000
0010
0000
,
0110
0000
0000
0000
,
1000
0010
1000
0000
,
0001
0010
0001
0000
,
0100
0000
0100
0000
,
0110
0000
0000
0000
,
0001
0010
0100
0000
,
0010
0100
1000
0000
,
0001
0000
1000
0000
,
1001
0000
0000
0000
,
1000
0010
0100
0000
,
0010
0100
0001
0000
,
1000
0000
0001
0000
,
1001
0000
0000
0000
,
1000
0000
0100
1000
,
0020
0000
0030
0000
,
1000
0010
1000
0010
,
0200
0000
0300
0000
,
0001
0000
0100
0001
,
0020
0000
0030
0000
,
0001
0010
0001
0010
,
0200
0000
0300
0000
,
1000
0000
0001
0000
,
0100
0010
0100
0000
,
0001
0000
1000
0000
,
0100
0010
0100
0000
,
1000
0000
0001
1000
,
0100
0000
1000
0001
,
0100
0000
0010
0000
,
2002
0000
0000
0000
,
3003
0000
0000
0000
,
0001
1000
0010
0100
,
0001
0000
0000
0000
,
1000
0000
1000
0000
,
1001
0000
0000
0000
,
1000
0100
0010
0001
,
1000
0000
0000
0000
,
0001
0000
0001
0000
,
1001
0000
0000
0000
,
0001
0100
0001
0000
,
1000
0100
0010
0000
,
0001
0000
1000
0000
,
1001
0000
0000
0000
,
1000
0010
1000
0000
,
0001
0100
0010
0000
,
1000
0000
0001
0000
,
1001
0000
0000
0000
,
1000
0010
0100
0010
,
1000
0001
1000
0000
,
0001
0100
0010
0000
,
1001
0000
0000
0000
,
0001
0100
0010
0100
,
0001
1000
0001
0000
,
1000
0010
0100
0000
,
0001
0100
0001
1000
,
0002
0000
0000
0000
,
0003
0000
0000
0000
,
2000
0000
0000
0000
,
3000
0000
0000
0000
,
0000
0000
0000
0000
,
2002
0000
0000
0000
,
0000
0000
0000
0000
,
3003
0000
0000
0000
,
0000
0000
0000
0000
;

//---------------dance-single - ----------------
#NOTEDATA:;
#CHARTNAME:;
#STEPSTYPE:dance-single;
#DESCRIPTION:;
#CHARTSTYLE:;
#DIFFICULTY:Medium;
#METER:10;
#RADARVALUES:0.411224,0.545413,0.160973,0.160973,0.000000,304.000000,287.000000,17.000000,17.000000,0.000000,0.000000,0.000000,0.000000,0.000000,0.411224,0.545413,0.160973,0.160973,0.000000,304.000000,287.000000,17.000000,17.000000,0.000000,0.000000,0.000000,0.000000,0.000000;
#CREDIT:;
#NOTES:
0000
0000
0000
0000
,
0000
0000
0000
0000
,
0000
0000
0000
0000
,
0000
0000
0000
0000
,
0000
0000
0000
0000
,
0000
0000
0000
0000
,
0001
0100
0001
0100
,
0010
0000
1000
0010
0000
0000
1001
0000
,
1000
0100
0010
0001
,
0100
0000
0010
0000
1000
0001
1000
0000
,
0001
0001
0010
0010
,
0100
1000
0100
0000
1000
0010
1000
0000
,
0020
1030
1010
1000
,
0002
0103
0101
0100
,
0001
0000
0010
0100
2000
0000
0000
0000
,
3001
0010
0010
1001
,
0001
0010
0100
1000
,
0010
0000
0100
0000
0001
1000
0001
0000
,
1000
1000
0100
0100
,
0010
0001
0010
0000
0001
0100
0001
0000
,
0200
0301
0101
0001
,
2000
3010
1010
0010
,
1000
0000
0100
0010
0002
0000
0000
0000
,
1003
0000
0010
0100
0002
0000
0000
0000
,
1003
1000
0010
0010
,
0100
0001
0100
0000
0001
0100
0001
0000
,
0010
0010
0100
0100
,
1000
0010
1000
0000
0010
1000
0010
0000
,
1000
0100
0010
0001
,
0011
0000
0001
0010
0001
0000
0011
0000
,
1100
0000
1000
0100
1000
0000
1100
0000
,
2002
0000
0000
3003
,
0001
0001
1000
1000
,
0010
0100
0010
0000
0100
0010
0100
0000
,
0001
0010
0100
1000
,
0001
1000
0001
0000
1000
0001
1000
0000
,
0001
0100
0010
1010
,
0001
0010
0100
1100
,
0001
0010
0001
0000
1000
0010
0100
0000
,
2002
0000
0000
0000
,
3003
1000
0001
1001
,
1000
0010
1000
0100
1000
0001
1000
0000
,
0001
0010
0100
0000
1000
0010
0100
0000
,
0001
0100
1000
0100
,
0002
0000
0000
0003
,
0001
0010
0001
0100
0001
1000
0001
0000
,
1000
0010
0100
0000
0001
0010
0100
0000
,
1000
0100
0001
0100
,
2000
0000
0000
3000
,
0001
0100
0010
0100
0001
0010
0100
0000
,
1000
0001
0100
0000
0010
1000
0001
0000
,
1000
0010
0001
0010
,
2000
0000
0000
3000
,
1000
0100
0010
0100
1000
0010
0100
0000
,
0001
1000
0100
0000
0010
0001
1000
0000
,
0001
0010
1000
0010
,
0002
0000
0000
0003
,
1000
0001
0100
0010
1000
0001
0010
0100
,
1000
0000
0001
1000
0001
0000
0010
0000
,
0001
0100
1000
0000
0100
0000
0001
0000
,
1000
0000
1001
0000
,
0001
1000
0100
0010
0001
1000
0010
0100
,
0001
0000
1000
0001
1000
0000
0010
0000
,
1000
0100
0001
0000
0100
0000
1000
0000
,
0001
0010
0100
1000
,
0001
0000
0100
0000
0010
1000
0100
0000
,
1000
0000
0100
0000
0010
0001
0100
0000
,
0001
0010
0001
0000
1000
0010
1000
0000
,
0010
0000
0100
0010
0000
0100
0010
0000
,
0000
0000
0000
0000
,
2002
0000
0000
0000
,
0000
0000
0000
0000
,
3003
0000
0000
0000
,
0000
0000
0000
0000
;

//---------------dance-single - ----------------
#NOTEDATA:;
#CHARTNAME:;
#STEPSTYPE:dance-single;
#DESCRIPTION:;
#CHARTSTYLE:;
#DIFFICULTY:Hard;
#METER:14;
#RADARVALUES:0.696646,0.749943,0.416635,0.236724,0.388228,515.000000,471.000000,44.000000,25.000000,0.000000,0.000000,0.000000,0.000000,0.000000,0.696646,0.749943,0.416635,0.236724,0.388228,515.000000,471.000000,44.000000,25.000000,0.000000,0.000000,0.000000,0.000000,0.000000;
#CREDIT:;
#NOTES:
0000
0000
0000
0000
,
0000
0000
0000
0000
,
0000
0000
0000
0000
,
0000
0000
0000
0000
,
0000
0000
0000
0000
,
0000
0000
0000
0000
,
0001
0100
0001
0000
1000
0100
1000
0000
,
0010
0000
0100
2002
0000
0000
3003
0000
,
1000
0010
1000
0010
0100
0001
0010
0001
,
1000
0000
0000
1000
0010
0000
0000
0010
0100
0000
0000
0100
0001
0000
0000
0001
,
2000
0000
3100
0010
0002
0000
1003
0000
,
0001
1000
0002
0000
0023
0000
2030
0000
,
3010
0001
0100
0010
0110
0000
1000
0001
,
1001
0000
0000
1000
0001
0000
0000
0001
0010
0000
0000
0010
0100
0000
0000
0100
,
2000
0000
3010
0001
0020
0000
1030
0100
,
0010
0001
0011
0000
0101
0000
1001
0000
,
1010
0010
0100
1001
0000
0011
0001
0100
,
0010
0000
0000
0010
1000
0000
0000
1000
0001
0000
0000
0001
0100
0000
0000
0100
,
0010
0000
1000
0010
2020
0000
3030
0000
,
1000
0100
1000
0100
0010
0100
1100
0000
,
1001
0000
0001
0100
0011
0000
1000
0100
,
1010
0000
0000
1000
0001
0000
0000
0001
0010
0000
0000
0010
0100
0000
0000
0100
,
1000
0010
1010
0100
0001
0100
0101
0001
,
0010
0001
0011
1000
0100
1000
1001
0000
,
0002
0023
2030
3020
,
0031
0100
0010
1000
0100
0010
0001
0000
,
2000
3020
0032
0023
,
2030
0100
0001
3100
,
1000
0001
0100
0000
0001
1000
0100
0000
,
0010
0001
0010
0011
0000
0000
1001
0000
,
1000
0010
1000
1010
0000
0000
0110
0000
,
2002
0000
0000
0000
3003
0000
1001
0001
,
1000
0010
0100
0001
0010
0001
0100
0010
,
1010
0001
0100
0001
0000
1000
1001
0000
,
0001
1000
0100
0010
0001
1000
0100
0010
,
0011
0000
1000
1010
0000
0001
1001
0000
,
1000
0000
0000
1000
0010
0000
0000
0010
0100
0000
0001
0000
0010
0001
0010
0000
,
0001
0000
0000
0001
1000
0000
0000
1000
0010
0000
0100
0000
0001
1000
0001
0000
,
0010
0000
0000
0010
1000
0000
0000
1000
0001
0000
0000
0001
0100
0000
0000
0100
,
2000
0000
0000
0000
0010
0000
0000
0000
3001
1000
0001
1000
0001
1000
0001
0000
,
0100
1001
1001
1001
,
1000
0000
0010
0000
0100
0000
0001
0000
1000
0001
1000
0001
1000
0000
0001
0000
,
0010
0000
0100
0000
1000
0000
0010
0000
0100
0001
0100
0001
0100
0000
0010
0000
,
1000
0000
0000
1000
0100
0000
0000
0100
0010
0000
0000
0010
0001
0000
0000
0001
,
1000
0000
0010
0100
0010
0000
0000
0000
0001
0000
0010
0100
0010
0000
0000
0000
,
0001
0000
0010
0000
0100
0000
1000
0000
0010
0100
0010
0100
0010
0000
0100
0000
,
0001
0000
0100
0000
0010
0000
1000
0000
0100
1000
0100
1000
0100
0000
0010
0000
,
0001
0000
0000
0001
0100
0000
0000
0100
1000
0000
0000
1000
0100
0000
0000
0100
,
0001
0100
0010
1010
1001
0000
1001
1000
,
0001
0000
0100
0000
0010
0000
1000
0000
0001
1000
0001
1000
0001
0000
1000
0000
,
0100
0000
0010
0000
0001
0000
0100
0000
0010
1000
0010
1000
0010
0000
0100
0000
,
0001
0000
0000
0001
0010
0000
0000
0010
0100
0000
0000
0100
1000
0000
0000
1000
,
0001
0000
1000
0010
1000
0000
0001
0000
0010
0000
0100
1000
0100
0000
0000
0000
,
1000
0000
0100
0000
0010
0000
0001
0000
0100
0010
0100
0010
0100
0000
0010
0000
,
1000
0000
0010
0000
0100
0000
0001
0000
0010
0001
0010
0001
0010
0000
0100
0000
,
1000
0000
0000
1000
0010
0000
0000
0010
0001
0000
0000
0001
0010
0000
0000
0010
,
1000
0000
0010
0000
0100
0000
0001
0000
1000
0001
1000
0001
1000
0000
0000
0000
,
0001
0000
1000
0000
0010
0000
1000
0000
0001
1000
0001
1000
0001
0000
0010
0000
,
0100
0000
1000
0000
0010
0000
0100
0000
0001
0010
0001
0010
0001
0000
1000
0000
,
0010
0000
0000
0010
0001
0000
0000
0001
1000
0000
0000
1000
0100
0000
0000
0100
,
0001
0100
0101
0000
1000
0100
1100
0000
,
0001
0000
0010
0000
0001
0000
1000
0000
0010
0000
1000
0000
0010
0100
0010
0000
,
1000
0000
0100
0000
1000
0000
0001
0000
0100
0000
0001
0000
0100
0010
0100
0000
,
0001
0010
1000
0000
0001
0100
1000
0000
,
1010
0010
0110
0000
0011
0010
0110
0000
,
1000
0100
1000
0100
0010
0001
1000
0001
,
0100
0001
0100
0001
1000
0010
1000
0001
,
1000
0100
0010
0001
0100
0010
1000
0100
,
0110
0000
0001
0000
1000
0000
1001
0000
0001
1000
0001
1000
0001
1000
0001
0000
,
0000
0000
0000
0000
0000
0000
0000
0000
1000
0010
1000
0000
0001
0010
0001
0000
,
2002
0000
0000
0000
,
0000
0000
0000
0000
,
3003
0000
0000
0000
,
0000
0000
0000
0000
;

//---------------dance-double - ----------------
#NOTEDATA:;
#CHARTNAME:;
#STEPSTYPE:dance-double;
#DESCRIPTION:;
#CHARTSTYLE:;
#DIFFICULTY:Easy;
#METER:5;
#RADARVALUES:0.198849,0.272707,0.094690,0.094690,0.000000,147.000000,137.000000,10.000000,10.000000,0.000000,0.000000,0.000000,0.000000,0.000000,0.198849,0.272707,0.094690,0.094690,0.000000,147.000000,137.000000,10.000000,10.000000,0.000000,0.000000,0.000000,0.000000,0.000000;
#CREDIT:;
#NOTES:
00000000
00000000
00000000
00000000
,
00000000
00000000
00000000
00000000
,
00000000
00000000
00000000
00000000
,
00000000
00000000
00000000
00000000
,
00000000
00000000
00000000
00000000
,
00000000
00000000
00000000
00000000
,
00000001
00000000
00001000
00000000
,
00000001
00000000
00000100
00000000
,
00000010
00001000
00000010
00000000
,
00010000
00001000
00010000
00000000
,
00001000
00000000
00001000
00000000
,
00011000
00000000
00000000
00000000
,
00001000
01000000
00001000
00000000
,
00100000
00010000
00100000
00000000
,
01000000
00000000
01000000
00000000
,
01100000
00000000
00000000
00000000
,
10000000
01000000
00100000
00000000
,
01000000
00100000
00010000
00000000
,
00100000
00000000
00001000
00000000
,
00011000
00000000
00000000
00000000
,
00010000
00000100
00001000
00000000
,
00000100
00001000
00000010
00000000
,
00000100
00000000
00000001
00000000
,
00001001
00000000
00000000
00000000
,
00000001
00000000
00001000
00000010
,
00002000
00000000
00003000
00000000
,
00000100
00010000
00001000
00010000
,
00002000
00000000
00003000
00000000
,
01000000
00000000
00010000
00100000
,
00020000
00000000
00030000
00000000
,
10000000
01000000
00100000
01000000
,
20000000
00000000
30000000
00000000
,
10000000
00000000
00010000
00000000
,
01000000
00001000
01000000
00000000
,
00001000
00000000
00010000
00000000
,
00000100
00001000
00000100
00000000
,
00000010
00000000
00000001
00000100
,
00000010
00000000
00001000
00000100
,
00010000
00000000
00001000
00000000
,
00022000
00000000
00000000
00000000
,
00033000
00000000
00000000
00000000
,
00010000
00001000
00100000
00010000
,
10000000
00000000
00000000
00000000
,
00100000
00000000
00100000
00000000
,
10010000
00000000
00000000
00000000
,
10000000
01000000
00100000
00001000
,
00010000
00000000
00000000
00000000
,
00001000
00000000
00001000
00000000
,
00011000
00000000
00000000
00000000
,
00010000
00000100
00001000
00000001
,
00000100
00000000
00000000
00000000
,
00000001
00000000
00000001
00000000
,
00001001
00000000
00000000
00000000
,
00000001
00000100
00001000
00000000
,
00001000
00010000
00100000
00000000
,
10000000
00000000
00010000
00000000
,
10010000
00000000
00000000
00000000
,
10000000
01000000
10000000
01000000
,
00100000
00001000
00010000
00000000
,
00001000
00010000
00000100
00001000
,
00000010
00000000
00000000
00000000
,
00000001
00000100
00000001
00000100
,
00000010
00010000
00001000
00000000
,
00010000
00001000
01000000
00010000
,
00100000
00000000
00000000
00000000
,
20000000
00000000
00000000
00000000
,
30000000
00000000
00000000
00000000
,
00020000
00000000
00000000
00000000
,
00030000
00000000
00000000
00000000
,
00000000
00000000
00000000
00000000
,
00022000
00000000
00000000
00000000
,
00000000
00000000
00000000
00000000
,
00033000
00000000
00000000
00000000
,
00000000
00000000
00000000
00000000
;

//---------------dance-double - ----------------
#NOTEDATA:;
#CHARTNAME:;
#STEPSTYPE:dance-double;
#DESCRIPTION:;
#CHARTSTYLE:;
#DIFFICULTY:Medium;
#METER:10;
#RADARVALUES:0.423399,0.511325,0.208318,0.189380,0.000000,313.000000,291.000000,22.000000,20.000000,0.000000,0.000000,0.000000,0.000000,0.000000,0.423399,0.511325,0.208318,0.189380,0.000000,313.000000,291.000000,22.000000,20.000000,0.000000,0.000000,0.000000,0.000000,0.000000;
#CREDIT:;
#NOTES:
00000000
00000000
00000000
00000000
,
00000000
00000000
00000000
00000000
,
00000000
00000000
00000000
00000000
,
00000000
00000000
00000000
00000000
,
00000000
00000000
00000000
00000000
,
00000000
00000000
00000000
00000000
,
00000001
00001000
00000001
00001000
,
00000010
00000000
00000100
00000010
00000000
00000000
00001001
00000000
,
00000001
00000100
00001000
00010000
,
00100000
00000000
10000000
00000000
00010000
10000000
00010000
00000000
,
00100000
00100000
01000000
01000000
,
10000000
00100000
10000000
00000000
00010000
00100000
00010000
00000000
,
00200000
00301000
00101000
00001000
,
00020000
00030100
00010100
00000100
,
00001000
00000000
00000100
00000010
00000002
00000000
00000000
00000000
,
00001003
00000010
00000010
00001001
,
00000001
00000010
00001000
00010000
,
01000000
00000000
10000000
00000000
00010000
10000000
00010000
00000000
,
01000000
01000000
00100000
00100000
,
10000000
01000000
10000000
00000000
00010000
01000000
00010000
00000000
,
00200000
00301000
00011000
00001000
,
00000020
00000130
00000110
00000100
,
00001001
00000000
00000001
00000010
00000002
00000000
00000003
00000000
,
00001001
00000000
00001000
00000010
00002000
00000000
00003000
00000000
,
00000001
00000001
00000010
00000010
,
00001000
00010000
00001000
00000000
00010000
00001000
00010000
00000000
,
00100000
00100000
10000000
10000000
,
00010000
01000000
00010000
00000000
10000000
01000000
10000000
00000000
,
01000000
00100000
00010000
00100000
,
00001000
00000000
00010000
00001000
00010000
00000000
00011000
00000000
,
00000100
00000000
00000010
00000100
00000010
00000000
00000110
00000000
,
00002002
00000000
00000000
00003003
,
00001000
00001000
00000010
00000010
,
00010000
00001000
00010000
00000000
00001000
00010000
00001000
00000000
,
01000000
00010000
00100000
01000000
,
10000000
00010000
10000000
00000000
00010000
10000000
00010000
00000000
,
10000000
01000000
00100000
00110000
,
00001000
00010000
00000100
00001100
,
00000001
00000010
00000001
00000000
00001000
00000100
00000010
00000000
,
00002002
00000000
00000000
00000000
,
00003003
00001000
00000001
00001001
,
00000001
00000100
00000001
00000100
00000010
00001000
00000010
00001000
,
00000100
00010000
00001000
00010000
,
00100000
01000000
00100000
00000000
10000000
00010000
10000000
00000000
,
00020000
00000000
00000000
00030000
,
10000000
01000000
10000000
01000000
00100000
00010000
00100000
00010000
,
01000000
00001000
00010000
00001000
,
00000010
00000100
00000010
00000000
00000001
00001000
00000001
00000000
,
00002000
00000000
00000000
00003000
,
00000001
00000100
00000010
00000100
00001000
00010000
00001000
00100000
,
00010000
00110000
10000000
10100000
,
00010000
01000000
10000000
01000000
,
00020000
00000000
00000000
00030000
,
10000000
01000000
00100000
01000000
00010000
00001000
00010000
00000010
,
00001000
00001010
00000001
00000011
,
00001000
00000100
00000001
00000100
,
00002000
00000000
00000000
00003000
,
00000001
00000100
00000001
00000010
00000001
00000100
00001000
00000100
,
00001000
00010000
00001000
00000000
01000000
00010000
01000000
00000000
,
00100000
10000000
01000000
00000000
00100000
00010000
01000000
00000000
,
10010000
00000000
01100000
00000000
,
10000000
01000000
10000000
00100000
10000000
01000000
00010000
01000000
,
00010000
00001000
00010000
00000000
00000100
00001000
00000100
00000000
,
00000010
00000001
00000100
00000000
00000010
00001000
00000100
00000000
,
00000002
00000203
00002300
00003001
,
00000100
00000000
00000010
00000000
00001000
00000100
00001000
00000000
,
00000010
00000000
00010000
00000000
00001000
00100000
00010000
00000000
,
01000000
00100000
01000000
00000000
00010000
10000000
00010000
00000000
,
10000000
00000000
01000000
00100000
00000000
00001000
00010000
00000000
,
00000000
00000000
00000000
00000000
,
00022000
00000000
00000000
00000000
,
00000000
00000000
00000000
00000000
,
00033000
00000000
00000000
00000000
,
00000000
00000000
00000000
00000000
;

//---------------dance-double - ----------------
#NOTEDATA:;
#CHARTNAME:;
#STEPSTYPE:dance-double;
#DESCRIPTION:;
#CHARTSTYLE:;
#DIFFICULTY:Hard;
#METER:14;
#RADARVALUES:0.635774,0.715855,0.246193,0.160973,0.279335,470.000000,444.000000,26.000000,17.000000,0.000000,0.000000,0.000000,0.000000,0.000000,0.635774,0.715855,0.246193,0.160973,0.279335,470.000000,444.000000,26.000000,17.000000,0.000000,0.000000,0.000000,0.000000,0.000000;
#CREDIT:;
#NOTES:
00000000
00000000
00000000
00000000
,
00000000
00000000
00000000
00000000
,
00000000
00000000
00000000
00000000
,
00000000
00000000
00000000
00000000
,
00000000
00000000
00000000
00000000
,
00000000
00000000
00000000
00000000
,
00000001
00000100
00000010
00000000
00001000
00000100
00000010
00000000
,
00000001
00000000
00001000
00000002
00000000
00000000
00000003
00000000
,
00000001
00000100
00000001
00000100
00001000
00010000
00001000
00010000
,
00100000
00000000
00000000
00100000
10000000
00000000
00000000
10000000
00010000
00000000
00000000
00010000
01000000
00000000
00000000
01000000
,
00100000
10000000
01000000
00000000
00100000
00010000
01000000
00000000
,
00100000
10000000
01000000
00010000
01000000
00010000
00001000
00000000
,
00000010
00000001
00000010
00000001
00000100
00000001
00000100
00000001
,
00001000
00000000
00000000
00001000
00000010
00000000
00000000
00000010
00010000
00000000
00000000
00010000
00001000
00000000
00000000
00001000
,
00100000
00010000
01000000
00010000
00200000
00000000
00300000
00000000
,
11000000
10000000
01010000
00010000
,
10000000
01000000
00100000
00010000
01000000
00100000
00010000
00001000
,
00000100
00000000
00000000
00000100
00000001
00000000
00000000
00000001
00001000
00000000
00000000
00001000
00000010
00000000
00000000
00000010
,
00010000
00000000
00001000
00010000
00022000
00000000
00000000
00000000
,
00033000
00000000
00001000
00010000
01000000
00010000
01000000
00000000
,
11000000
00000000
00010000
01000000
01010000
00000000
10000000
01000000
,
11000000
00000000
00000000
01000000
00010000
00000000
00000000
00010000
00001000
00000000
00000000
00001000
00000010
00000000
00000000
00000010
,
00000001
00000100
00000101
00000001
00001000
00000010
00010010
00010000
,
00001000
00100000
00101000
00001000
01000000
00010000
10010000
00000000
,
20000000
32000000
03020000
00032000
,
00003010
00001000
00010000
00100000
00010000
00001000
00010000
00000000
,
00200000
00320000
00032000
00003200
,
00000301
00000010
00000100
00000000
00001000
00000010
00000100
00000000
,
00000001
00000000
00000100
00001000
00000100
00000000
00001000
00010000
,
00001000
00000000
00010000
00100000
00000000
00000000
10100000
00000000
,
10010000
00000000
10000000
01000000
00000000
00000000
00010000
00000000
,
00022000
00000000
00000000
00000000
00033000
00000000
00011000
00010000
,
00000100
00001000
00000010
00000100
00000001
00000010
00000100
00001000
,
00000100
00010000
00001000
00011000
00000000
00000000
00011000
00001000
,
01000000
00010000
00100000
01000000
10000000
00100000
01000000
10000000
,
01000000
00000000
00010000
00110000
00000000
00000000
10010000
00000000
,
10000000
00000000
00000000
10000000
00100000
00000000
00000000
00100000
01000000
00000000
00010000
00000000
00100000
00001000
00100000
00000000
,
00001000
00000000
00000000
00001000
00010000
00000000
00000000
00010000
00000100
00000000
00001000
00000000
00000100
00000010
00000100
00000000
,
00000010
00000000
00000000
00000010
00000001
00000000
00000000
00000001
00000100
00000000
00000000
00000100
00001000
00000000
00000000
00001000
,
00020000
00000000
00000000
00000000
00000000
00000000
00000000
00000000
00031000
00010000
00001000
00010000
00001000
00010000
00001000
00000000
,
00010000
00011000
00011000
00011000
,
00001000
00010000
00100000
01000000
00001000
00010000
01000000
00100000
,
00010000
10000000
00100000
00010000
00001000
00010000
01000000
00100000
,
00010000
10000000
00100000
00010000
00001000
00010000
01000000
10000000
,
00100000
00000000
00000000
00100000
00010000
00000000
00000000
00010000
00001000
00000000
00000000
00001000
00000010
00000000
00000000
00000010
,
00001000
00010000
01000000
00010000
00001000
00000010
00000100
00000010
,
00001000
00010000
00000010
00000100
00001000
00000100
00000010
00010000
,
00001000
00000000
00000000
00001000
01000000
00000000
00000000
01000000
00010000
00000000
00000000
00010000
00100000
00000000
00000000
00100000
,
01000000
10000000
01000000
00010000
00000000
00001000
00011000
00000000
,
00010000
00001000
00000010
00000100
00010000
00001000
00000100
00000010
,
00001000
00000001
00000010
00001000
00010000
00001000
00000100
00000010
,
00001000
00000001
00000010
00001000
00010000
00001000
00000100
00000001
,
00000010
00000000
00000000
00000010
00001000
00000000
00000000
00001000
00010000
00000000
00000000
00010000
00100000
00000000
00000000
00100000
,
00010000
00001000
00000100
00001000
00010000
00100000
01000000
00100000
,
00010000
00001000
00100000
01000000
00010000
01000000
00100000
00001000
,
00010000
00000000
00000000
00010000
00000100
00000000
00000000
00000100
00001000
00000000
00000000
00001000
00000010
00000000
00000000
00000010
,
00000100
00000001
00000100
00001000
00000000
00010000
00011000
00000000
,
00001000
00000000
00100000
00000000
00010000
00000000
00100000
00000000
01000000
10000000
01000000
00000000
00100000
00000000
00010000
00000000
,
10000000
00000000
00100000
00000000
01000000
00000000
00010000
00000000
00100000
00001000
00100000
00000000
00001000
00000000
00010000
00000000
,
00001000
00000000
00000000
00001000
00000010
00000000
00000000
00000010
00000001
00000000
00000000
00000001
00001000
00000000
00000000
00001000
,
00000100
00010000
00010100
00000000
00001000
01000000
01001000
00000000
,
00010000
10000000
00100000
00010000
00001000
00100000
00010000
00001000
,
00000100
00010000
00001000
00000100
00000010
00001000
00000100
00000010
,
00000001
00000100
00001000
00000000
00000001
00000010
00001000
00000000
,
00000001
00000000
00000000
00000001
00000100
00000000
00000000
00000100
00010000
00000000
00000000
00010000
01000000
00000000
00000000
01000000
,
00100000
10000000
00100000
10000000
00000000
01000000
00100000
01000000
,
00010000
00001000
00010000
00001000
00000000
00000010
00000100
00000010
,
00000001
00001000
00000001
00001000
00000001
00000010
00000001
00000100
,
00001000
00000000
00010000
00000000
00100000
00000000
10000000
00000000
00100000
10000000
00100000
00000000
10000000
00010000
10000000
00000000
,
00000000
00000000
00000000
00000000
00000000
00000000
00000000
00000000
10000000
01000000
00100000
00000000
00010000
01000000
00100000
00000000
,
02200000
00000000
00000000
00000000
,
00000000
00000000
00000000
00000000
,
03300000
00000000
00000000
00000000
,
00000000
00000000
00000000
00000000
;

//---------------dance-single - ----------------
#NOTEDATA:;
#CHARTNAME:;
#STEPSTYPE:dance-single;
#DESCRIPTION:;
#CHARTSTYLE:;
#DIFFICULTY:Challenge;
#METER:17;
#RADARVALUES:1.014534,0.980986,0.350352,0.018938,0.994243,750.000000,713.000000,37.000000,2.000000,0.000000,0.000000,0.000000,0.000000,0.000000,1.014534,0.980986,0.350352,0.018938,0.994243,750.000000,713.000000,37.000000,2.000000,0.000000,0.000000,0.000000,0.000000,0.000000;
#CREDIT:;
#DISPLAYBPM:175.000000;
#NOTES:
// measure 0
0000
0000
0000
0000
,  // measure 1
0000
0000
0000
0000
,  // measure 2
0000
0000
0000
0000
,  // measure 3
0000
0000
0000
0000
,  // measure 4
1010
0000
0000
0000
0001
0000
0010
0100
1000
0001
1000
0010
0100
0001
0010
0100
,  // measure 5
1000
0000
0010
0000
0100
0000
0001
1000
0001
0010
0100
1000
0010
0100
0001
1000
,  // measure 6
0100
0000
0010
0000
0001
0000
0100
0001
1000
0010
1000
0100
0010
0001
0100
0010
,  // measure 7
1000
0000
0001
0000
0010
0000
0001
0100
0010
1000
0100
0010
0100
1000
0001
0100
,  // measure 8
0010
0000
1000
0001
1000
0000
0001
0100
0001
0000
0010
0100
1000
0000
0001
0100
,  // measure 9
0010
0000
1000
0100
1000
0000
0001
0000
1000
0000
0010
0000
0100
0000
0001
0000
,  // measure 10
0101
0000
0000
0000
0010
0000
1000
0001
1000
0000
0100
0010
0100
0000
1000
0000
,  // measure 11
0001
0000
0010
0100
1000
0000
0001
1000
0010
0000
0100
0000
0001
0000
1000
0000
,  // measure 12
1100
0000
0000
0000
0010
0000
0001
0100
0001
0000
0010
0100
1000
0000
0001
1000
,  // measure 13
0100
0000
0010
0001
0100
0000
0000
0000
0010
0000
1000
0001
1000
0000
0100
0000
,  // measure 14
0010
0000
0001
0000
0100
0000
0001
1000
0001
0000
0100
0010
1000
0000
0001
0100
,  // measure 15
0001
0011
1100
0101
,  // measure 16
1010
0000
0000
0000
0100
0000
0001
0010
0001
0000
1000
0010
1000
0000
0100
0000
,  // measure 17
0001
0000
0010
0001
0100
0000
0010
0000
1000
0000
0100
0010
0001
0000
1000
0000
,  // measure 18
0110
0000
0000
0000
0100
0000
0001
0010
0001
0000
1000
0010
0100
0000
0001
0000
,  // measure 19
1000
0000
0100
1000
0001
0000
0100
0010
0100
0000
0001
0010
0100
0000
1000
0000
,  // measure 20
1001
0000
0010
0100
0001
0000
1000
0000
0100
0000
1000
0010
0100
0000
0001
0000
,  // measure 21
0010
0000
0100
0010
0001
0000
1000
0000
0001
0000
0100
0001
0010
0000
1000
0000
,  // measure 22
1100
0000
0010
0001
0100
0000
1000
0000
0001
0000
1000
0001
0100
0000
0110
0000
,  // measure 23
1001
0000
0010
1000
0100
0000
0110
0000
1001
0000
0001
1000
0010
0000
0100
0000
,  // measure 24
0101
0000
0000
0000
1000
0000
0100
0010
0001
0000
1000
0001
0100
0000
0010
1000
,  // measure 25
0100
0000
0010
0001
1000
0000
0001
0100
0001
0000
0010
0100
1000
0000
0001
0000
,  // measure 26
0100
0000
0010
1000
0001
0000
0010
0001
0100
0000
0010
1000
0100
0000
0001
0000
,  // measure 27
0010
0000
0001
1000
0001
0000
0100
0000
0010
0000
1000
0100
0010
0000
0001
0100
,  // measure 28
1000
0000
0000
0000
1010
0000
0010
0100
0001
0000
1000
0010
0001
0000
0100
0000
,  // measure 29
0010
0000
1000
0100
0010
0000
0001
0100
0001
0000
0010
0100
1000
0000
0010
0000
,  // measure 30
0100
0000
0000
0000
0010
0000
1000
0100
1000
0000
0010
0100
0001
0000
1000
0000
,  // measure 31
0001
0000
0010
0001
0100
0000
0010
1000
0100
0000
1000
0010
0001
0000
0100
0000
,  // measure 32
1001
0000
0100
0000
0001
0000
0010
0100
1000
0000
0001
0000
0010
0000
0001
0100
,  // measure 33
1000
0000
0010
1000
0001
0000
0100
0001
0010
0000
0100
0000
1000
0000
0001
0000
,  // measure 34
0100
0000
1000
0000
0100
0000
0001
0010
0001
0000
0100
0000
0001
0000
1000
0100
,  // measure 35
0010
0000
0001
1000
0001
0000
0100
0000
0010
0000
1000
0100
1000
0000
0001
0000
,  // measure 36
0011
0000
0000
0000
0100
0000
1000
0010
0100
0000
0001
0010
1000
0000
0001
0100
,  // measure 37
0010
0000
0000
0000
1000
0000
0100
1000
0001
0000
0010
0001
1000
0000
0100
0000
,  // measure 38
0110
0000
0000
0000
1001
0000
0100
0001
0010
0000
0001
0100
1000
0000
0010
0000
,  // measure 39
1010
0000
0000
0000
0101
0000
0000
0000
1000
0010
0100
0001
0010
0100
1000
0001
,  // measure 40
0100
0000
0000
0000
1001
0000
0000
0000
1000
0010
0100
0001
0010
0100
1000
0000
,  // measure 41
1100
0000
0000
0000
0101
0000
1000
0000
0010
0100
0001
0010
0100
1000
0001
0000
,  // measure 42
0010
0000
0001
0100
0010
1000
0100
1000
0010
0100
0001
0010
0100
0000
1000
0000
,  // measure 43
0010
0000
0100
0000
0001
0000
0010
1000
0100
0010
0100
1000
0001
0000
0100
0010
,  // measure 44
1000
0000
0001
0000
0010
0000
0100
1000
0010
0100
0001
0010
1000
0000
0100
0010
,  // measure 45
0001
0000
0000
0000
1010
0000
0001
1000
0001
0100
0010
1000
0100
0000
1000
0010
,  // measure 46
0001
0000
0100
0010
1000
0000
0001
0010
0100
0000
1000
0001
1000
0000
0010
0000
,  // measure 47
0110
0000
0000
0000
1001
0000
0100
0001
0010
0100
1000
0001
0100
0000
0010
0000
,  // measure 48
1010
0000
0001
0000
1000
0000
0001
0010
0001
0100
0010
1000
0100
0010
0001
0100
,  // measure 49
1000
0000
0001
0100
0001
0000
0010
0001
1000
0100
0010
0001
0100
0000
0010
1000
,  // measure 50
0010
0000
0100
0000
0001
0000
0010
0100
1000
0010
1000
0001
0100
0010
1000
0000
,  // measure 51
0001
0000
0010
0000
1000
0000
0100
0010
0001
1000
0001
0100
0010
0000
1000
0000
,  // measure 52
0100
0000
1000
0000
0001
0000
0010
0001
0100
0010
1000
0001
0010
0000
0100
0000
,  // measure 53
1100
0000
0001
0000
0100
0000
0010
1000
0001
0000
0010
0001
0100
0000
1000
0000
,  // measure 54
0010
0000
0100
0000
0001
0000
1000
0010
1000
0000
0100
0010
0001
0000
1000
0000
,  // measure 55
1010
0000
0010
0000
0100
0000
0001
0010
0001
0100
0010
1000
0001
0000
1000
0100
,  // measure 56
0001
0000
0010
0001
0100
0000
0001
0010
0100
1000
0010
1000
0100
0010
0001
0000
,  // measure 57
0101
0000
0000
0000
0011
0000
1000
0001
1000
0010
0100
0001
0010
0100
1000
0001
,  // measure 58
0100
0000
0010
1000
0100
0000
0001
0000
1000
0001
0010
0100
1000
0000
0001
0000
,  // measure 59
0100
0000
1000
0000
0100
0000
0001
0010
0001
1000
0010
1000
0100
0000
0001
0010
,  // measure 60
0100
0000
1000
0000
0010
0000
0100
0001
0010
0001
1000
0001
0100
0000
0010
0000
,  // measure 61
1001
0000
0100
0000
0001
0000
0010
0100
1000
0010
0100
0001
1000
0100
1000
0000
,  // measure 62
1100
0000
0001
0010
1000
0000
0100
0000
0010
0001
1000
0001
0100
0010
1000
0000
,  // measure 63
0101
0000
0001
0000
0010
0000
0100
1000
0010
1000
0001
0010
0001
0100
0010
1000
,  // measure 64
0100
0000
1000
0000
0001
0000
0010
0100
1000
0010
0001
0010
1000
0000
0100
0010
,  // measure 65
0001
0000
0000
0000
1000
0000
0001
0000
0010
0001
0100
0010
1000
0001
0100
0001
,  // measure 66
0010
0000
0100
0000
1000
0000
0001
0100
0010
0100
0001
0010
0100
1000
0001
1000
,  // measure 67
0010
0000
0100
0000
0001
0000
1000
0100
0001
0100
1000
0010
0100
0001
0010
1000
,  // measure 68
0100
0000
1000
0010
1000
0000
0001
0000
0010
0001
0100
0010
1000
0001
0010
0100
,  // measure 69
1000
0000
0000
0000
0001
0000
0100
0000
0010
1000
0100
0000
0010
0001
0100
0000
,  // measure 70
2020
0000
0000
0000
,  // measure 71
0000
0000
0000
0000
,  // measure 72
3000
0000
0000
0000
,  // measure 73
0000
0000
0000
0000
,  // measure 74
0030
0000
0000
0000
;
