#VERSION:0.83;
#TITLE:We get it together;
#SUBTITLE:;
#ARTIST:Mickey Masashi;
#TITLETRANSLIT:;
#SUBTITLETRANSLIT:;
#ARTISTTRANSLIT:;
#GENRE:;
#ORIGIN:;
#CREDIT:;
#BANNER:We get it together-bn.png;
#BACKGROUND:We get it together-bg.png;
#PREVIEWVID:;
#JACKET:We get it together-jacket.png;
#CDIMAGE:;
#DISCIMAGE:;
#LYRICSPATH:;
#CDTITLE:;
#MUSIC:We get it together.ogg;
#OFFSET:0.000000;
#SAMPLESTART:16.917999;
#SAMPLELENGTH:20.000000;
#SELECTABLE:YES;
#DISPLAYBPM:124.000000;
#BPMS:0.000=124.000;
#STOPS:32.000=0.950;
#DELAYS:;
#WARPS:;
#TIMESIGNATURES:0.000=4=4;
#TICKCOUNTS:0.000=4;
#COMBOS:0.000=1;
#SPEEDS:0.000=1.000=0.000=0;
#SCROLLS:0.000=1.000;
#FAKES:;
#LABELS:0.000=Song Start;
#BGCHANGES:;
#KEYSOUNDS:;
#ATTACKS:
;

//---------------dance-single - ----------------
#NOTEDATA:;
#CHARTNAME:;
#STEPSTYPE:dance-single;
#DESCRIPTION:;
#CHARTSTYLE:;
#DIFFICULTY:Hard;
#METER:13;
#RADARVALUES:0.521561,0.593687,0.205570,0.197347,0.962068,444.000000,419.000000,25.000000,24.000000,0.000000,0.000000,0.000000,0.000000,0.000000,0.521561,0.593687,0.205570,0.197347,0.962068,444.000000,419.000000,25.000000,24.000000,0.000000,0.000000,0.000000,0.000000,0.000000;
#CREDIT:;
#DISPLAYBPM:124.000000;
#NOTES:
0000
0000
0000
0000
,
0000
0000
0000
0000
,
0000
0000
0000
0000
,
0000
0000
0000
0000
,
1000
0000
0001
0000
0010
0000
0001
0000
0100
0000
1000
0000
,
0010
0000
1000
0000
0100
0000
0010
0000
0001
0000
1000
0000
,
0001
0000
0010
0000
1000
0000
0100
0000
0010
0000
0001
0000
,
0100
0000
0010
0000
1000
0000
0001
1000
0010
0100
0000
0100
,
2002
0000
0000
3003
0000
0000
1000
0000
0000
0000
0000
0000
0010
0000
0100
0000
0002
0000
0000
0000
0000
0000
1003
0000
,
0100
0000
0100
0010
0000
0000
0001
1000
0200
0000
0000
1300
,
0001
0000
0001
0100
0000
0000
0001
1000
0020
0000
0000
0130
,
0010
0000
0010
1000
0000
0000
0001
0100
2000
0000
0000
3010
,
1000
0000
1000
0100
0000
0000
1000
0010
1000
0001
0000
1000
,
0100
0000
0100
0010
0000
0000
0001
0100
0001
0010
0000
0100
,
1000
0000
1000
0001
0000
0000
1000
0001
0100
0010
0000
1000
,
0010
0000
0100
0001
0000
0000
0010
0001
1000
0000
0001
0100
,
0010
1000
0001
0010
0000
0001
0200
0000
0320
0000
0000
1030
,
0002
0000
0203
0000
0010
0000
1300
0000
0100
0020
0000
0000
,
0130
0000
0001
0000
1000
0100
0110
0000
0000
0000
0000
0001
,
0010
0100
2000
0000
0000
3001
0100
0001
0010
0100
1000
0001
,
1000
0000
0010
0100
0000
0001
2000
0000
3200
0000
0000
0310
,
0002
0000
2003
0000
0010
0000
3100
0000
1000
0002
0000
0000
,
0103
0000
0010
0000
0100
0001
1001
0000
0000
0000
0000
0010
,
1000
0001
0200
0000
0000
0301
0100
0010
0100
0001
1000
0100
,
0010
0000
0010
0001
0000
0000
1100
0000
0000
0101
0000
1000
,
0100
0000
0010
0001
0000
0000
0101
0000
0100
0010
0000
1000
,
0000
0000
0100
1000
0000
0000
0110
0000
0000
1001
0000
0000
,
1000
0000
0002
0000
0000
0103
0010
1000
0001
0010
0100
0010
,
0001
0000
1000
0010
0000
0000
1010
0000
0100
0001
0000
1000
,
0000
0000
0100
0010
0000
0000
0011
0000
0000
1000
0000
0001
,
0000
0000
0200
0010
0000
0000
0301
0000
0000
1000
0100
0001
,
0010
0000
0002
0000
0000
1003
0001
0100
0010
1000
0000
0001
,
1000
0000
0100
0010
0000
0010
0001
0000
1000
0001
0000
0100
,
0000
0000
0010
1000
0000
0100
1000
0000
0001
1000
0000
0010
,
0000
0000
0001
1000
0000
0010
1000
0000
0002
0000
0000
0103
,
0010
0000
2000
0000
0000
3001
1000
0001
0100
0000
0000
0010
,
1000
0000
1000
0001
0000
0000
0011
0000
0000
1010
0000
0100
,
0001
0000
1000
0100
0000
0100
0010
0000
0000
0001
0000
1000
,
0001
0000
0100
0010
0000
1000
0010
0000
0200
0000
0000
0301
,
0010
0100
1000
0000
0000
0001
0010
0100
1000
0010
1000
0001
,
1000
0100
0010
0001
0000
0000
0101
0000
0100
0010
0000
0000
,
1010
0000
1000
0100
0000
0100
0001
0000
0001
0010
0000
0010
,
0100
0000
0100
1000
0000
0000
1100
0000
0001
0100
0000
0000
,
1001
0000
0010
1000
0000
0001
1000
0000
1000
0010
0000
0010
,
0100
0000
0100
0001
0000
0000
0011
0000
1000
0001
0000
0000
,
0101
0000
0100
0010
0000
1000
0100
0000
0100
0010
0001
1000
,
0001
0000
0100
0010
0000
0000
0110
0000
1000
0001
0000
0000
,
1100
0000
0100
0010
0000
0010
0001
0000
0001
0100
0000
0100
,
1000
0000
1000
0001
0000
0000
1010
0000
1000
0001
0000
0000
,
0110
0000
0100
0001
0000
0001
0010
0000
0010
1000
0000
1000
,
0100
0000
0100
0010
0000
0001
1000
0000
1000
0100
0000
1000
,
0010
0000
0010
0001
0000
0001
0100
0000
0100
0001
0000
1000
,
0001
0000
0010
0100
1000
0001
1000
0010
0100
0001
0010
0100
,
0010
0001
1000
0010
1000
0100
1000
0001
0010
0100
1000
0001
,
0100
0000
0010
0000
0000
1000
0100
0010
0001
1000
0000
0001
,
0100
0000
0001
1000
0100
0010
0001
0100
0001
1000
0010
0100
,
0001
0000
0001
0000
1000
0010
0100
0000
0010
0000
0001
1000
,
0001
0000
0100
0010
1000
0010
0100
0000
0001
0000
0000
1000
,
1100
0000
0000
0000
0010
0001
1000
0000
0001
0000
0100
0010
,
1000
0000
0001
1000
0000
0010
1000
0100
0001
0010
0100
1000
,
1001
0000
0110
0000
0000
0000
0000
0000
0000
0000
0000
0000
;

//---------------dance-single - ----------------
#NOTEDATA:;
#CHARTNAME:;
#STEPSTYPE:dance-single;
#DESCRIPTION:;
#CHARTSTYLE:;
#DIFFICULTY:Medium;
#METER:9;
#RADARVALUES:0.388821,0.420528,0.180902,0.263130,0.600265,331.000000,309.000000,22.000000,32.000000,0.000000,0.000000,0.000000,0.000000,0.000000,0.388821,0.420528,0.180902,0.263130,0.600265,331.000000,309.000000,22.000000,32.000000,0.000000,0.000000,0.000000,0.000000,0.000000;
#CREDIT:;
#DISPLAYBPM:124.000000;
#NOTES:
0000
0000
0000
0000
,
0000
0000
0000
0000
,
0000
0000
0000
0000
,
0000
0000
0000
0000
,
1000
0000
0010
0000
0100
0000
0001
0000
0000
0101
0000
0000
,
0001
0000
0010
0000
0100
0000
1000
0000
0000
1100
0000
0000
,
0010
0000
1000
0000
0001
0000
0100
0000
0000
0110
0000
0000
,
1000
0000
0000
1001
0000
0000
0010
0100
0000
0001
0000
1000
,
0200
0000
0000
0310
0000
0000
0001
0000
0000
1000
0000
1000
,
0010
0000
0010
0100
0000
0000
0001
0000
0000
1000
0000
1000
,
0100
0000
0100
0010
0000
0000
0100
0000
0000
1000
0000
1000
,
0001
0000
0001
0100
0000
0000
0001
0000
0000
0100
0000
0100
,
0010
0000
0010
1000
0000
0000
1100
0000
0000
0001
0000
0001
,
0100
0000
0100
0010
0000
0000
1010
0000
0000
0001
0000
0001
,
1000
0000
1000
0100
0000
0000
0110
0000
0000
0010
0000
0010
,
0001
0000
0001
1000
0000
0000
0010
0000
0100
0000
0001
0000
,
1000
0000
0001
0100
0000
0010
2000
0000
0002
3000
0000
0000
,
0023
0000
0200
0030
0000
0000
0300
0000
1000
0002
0000
0000
,
1003
0000
0001
0000
0000
0000
0101
0000
0000
0000
0000
0010
,
1000
0010
0100
0000
0000
0001
0010
0000
0001
1000
0000
0001
,
1000
0000
0100
0000
0000
0010
0002
0000
2000
0003
0000
0000
,
3020
0000
0200
0030
0000
0000
0300
0000
0001
2000
0000
0000
,
3001
0000
1000
0000
0000
0000
1010
0000
0000
0000
0000
0001
,
1000
0001
0100
0000
0000
0001
0010
0000
0001
1000
0000
0010
,
1000
0000
0100
0010
0000
0000
1001
0000
0000
0100
0000
0100
,
0010
0000
0000
0101
0000
0000
1100
0000
0000
0001
0000
1000
,
0000
0000
0001
0100
0000
0000
0010
0000
0000
1000
0000
0000
,
0001
0000
0010
0000
0000
0100
1000
0000
0010
1000
0000
0001
,
1000
0000
0100
0010
0000
0000
0011
0000
0000
1000
0000
0001
,
0000
0000
0100
0010
0000
0000
1010
0000
0000
1000
0000
0100
,
0000
0000
0020
0000
0000
0000
0031
0000
0000
1000
0001
0100
,
0000
0000
0010
0000
0000
1000
0010
0000
1000
0010
0000
0100
,
0001
0000
1000
0100
0000
0000
0110
0000
0000
0001
0000
1000
,
0000
0000
0010
1000
0000
0000
0101
0000
0000
1000
0000
0001
,
0000
0000
0100
0000
0000
0010
0100
0000
0002
0000
0000
0000
,
1003
0000
1000
0000
0000
0001
1000
0000
0100
0000
0000
0010
,
0001
0000
0001
0100
0000
0000
1010
0000
0000
0001
0000
1000
,
0000
0000
0011
0000
0000
1000
0100
0000
0000
1000
0000
0001
,
0000
0000
0010
0000
0000
0001
0100
0000
2000
0000
0000
0000
,
3010
0000
0010
0000
0000
1000
0001
1000
0001
0100
0000
0200
,
0000
0000
0000
0320
0000
0000
0000
0000
2030
0000
0000
0000
,
3001
0000
1000
0001
0000
0000
0101
0000
0000
1000
0000
1000
,
0100
0000
0000
0020
0000
0000
0000
0000
0032
0000
0000
0000
,
1003
0000
1000
0010
0000
0000
1001
0000
0000
0001
0000
0001
,
0100
0000
0000
0020
0000
0000
0000
0000
0230
0000
0000
0000
,
0301
0000
1000
0100
0000
1000
0001
0000
0200
0000
0000
0320
,
0000
0000
0000
2030
0000
0000
0000
0000
3002
0000
0000
0000
,
0013
0000
0001
0100
0000
0000
0010
0000
1000
0010
0000
1000
,
0100
0000
0000
0020
0000
0000
0000
0000
0032
0000
0000
0000
,
0103
0000
0001
1000
0000
0000
1100
0000
0000
0001
0000
1000
,
0100
0000
0000
2000
0000
0000
0000
0000
3020
0000
0000
0000
,
1030
0000
1000
0100
0000
0100
0010
0000
0000
0001
0000
1000
,
0001
0000
0100
0000
0000
0010
1000
0000
0010
1000
0000
0001
,
1000
0000
0100
0010
0000
0001
1000
0001
1000
0010
0000
0020
,
0000
0000
0000
0030
0000
0100
0001
0100
0001
1000
0000
1000
,
0000
0000
0010
1000
0000
1000
0100
0000
0100
0010
0000
0010
,
0002
0000
0000
0000
0103
0000
0010
0000
1000
0000
0100
0000
,
1000
0000
0001
0000
0000
1000
0010
1000
0010
0100
0000
0200
,
0000
0000
0000
0000
0301
0000
1000
0000
0100
0000
1000
0000
,
0010
0000
0100
0000
0000
0001
0010
0000
0001
1000
0000
0010
,
0100
0000
0110
0000
0000
0000
0000
0000
0000
0000
0000
0000
;

//---------------dance-single - ----------------
#NOTEDATA:;
#CHARTNAME:;
#STEPSTYPE:dance-single;
#DESCRIPTION:;
#CHARTSTYLE:;
#DIFFICULTY:Easy;
#METER:6;
#RADARVALUES:0.237287,0.271353,0.180902,0.098674,0.032891,202.000000,180.000000,22.000000,12.000000,0.000000,0.000000,0.000000,0.000000,0.000000,0.237287,0.271353,0.180902,0.098674,0.032891,202.000000,180.000000,22.000000,12.000000,0.000000,0.000000,0.000000,0.000000,0.000000;
#CREDIT:;
#DISPLAYBPM:124.000000;
#NOTES:
0000
0000
0000
0000
,
0000
0000
0000
0000
,
0000
0000
0000
0000
,
0000
0000
0000
0000
,
1000
0001
1000
0010
,
0100
0001
0010
0100
,
1000
0010
1000
0001
,
0100
0000
0000
0010
0000
0000
0000
1000
0000
0001
0000
1000
,
0000
0001
0010
1000
,
0100
1000
0001
1000
,
0010
0100
0001
0010
,
0100
0010
0001
0100
,
1000
0001
0010
1000
,
0100
1000
0001
1000
,
0010
0100
0010
0100
,
0001
0010
1000
0100
,
0001
0000
1010
0000
,
0101
0000
0000
1000
,
0001
0000
1001
0000
,
0110
0000
1000
0100
,
0001
0000
0011
0000
,
1100
0000
0000
0010
,
0100
0000
0110
0000
,
1001
0000
0001
0010
,
1000
0100
0100
0010
,
0100
1000
0001
0001
,
0000
0010
0001
0010
,
0100
1000
0001
1000
,
0010
0100
0101
1100
,
0000
0001
0010
1000
,
0000
0100
0010
0001
,
0100
1000
0001
1000
,
0010
1001
0100
0001
,
0000
0010
0010
0010
,
0000
0001
0100
0000
,
1010
0000
0001
0000
,
1000
0110
1000
0001
,
0000
0010
0010
0010
,
0000
0001
0100
0000
,
0101
0000
1000
0010
,
0100
0000
0000
0002
0000
0000
0000
0000
2003
0000
0000
0000
,
3010
1000
0100
0001
,
0000
0000
0000
0020
0000
0000
0000
0000
0230
0000
0000
0000
,
1300
0010
1000
0001
,
0000
0000
0000
2000
0000
0000
0000
0000
3200
0000
0000
0000
,
0310
0001
0100
0001
,
1000
0000
0000
0002
0000
0000
0000
0000
0023
0000
0000
0000
,
0130
0010
0001
1000
,
0000
0000
0000
0002
0000
0000
0000
0000
0203
0000
0000
0000
,
0301
0010
1000
0100
,
0000
0000
0000
2000
0000
0000
0000
0000
3020
0000
0000
0000
,
1030
0001
0100
1000
,
0010
1000
0100
0010
,
0001
0100
0110
1001
,
0000
0000
0001
1000
,
1100
0001
0100
0010
,
1000
0000
0001
0000
,
1000
0000
0011
1100
,
0000
0000
0010
0000
,
0100
0000
0110
1001
,
0110
0000
0000
0000
;

//---------------dance-single - ----------------
#NOTEDATA:;
#CHARTNAME:;
#STEPSTYPE:dance-single;
#DESCRIPTION:;
#CHARTSTYLE:;
#DIFFICULTY:Beginner;
#METER:3;
#RADARVALUES:0.129216,0.148010,0.032891,0.032891,0.000000,110.000000,106.000000,4.000000,4.000000,0.000000,0.000000,0.000000,0.000000,0.000000,0.129216,0.148010,0.032891,0.032891,0.000000,110.000000,106.000000,4.000000,4.000000,0.000000,0.000000,0.000000,0.000000,0.000000;
#CREDIT:;
#DISPLAYBPM:124.000000;
#NOTES:
// measure 0
0000
0000
0000
0000
,  // measure 1
0000
0000
0000
0000
,  // measure 2
0000
0000
0000
0000
,  // measure 3
0000
0000
0000
0000
,  // measure 4
0000
1000
0000
1000
,  // measure 5
0000
0010
0000
0010
,  // measure 6
0000
0100
0000
0100
,  // measure 7
0000
0001
0000
0001
,  // measure 8
0000
0000
0010
0000
,  // measure 9
0001
0000
0010
0000
,  // measure 10
0100
0000
1000
0000
,  // measure 11
0001
0000
1000
0000
,  // measure 12
0010
0000
1000
0000
,  // measure 13
0100
0000
0010
0000
,  // measure 14
0001
0000
0100
0000
,  // measure 15
0001
0000
1000
0000
,  // measure 16
0100
0000
0010
0000
,  // measure 17
0010
0000
0000
0001
,  // measure 18
0001
0000
1001
0000
,  // measure 19
0100
0000
0000
0000
,  // measure 20
0000
0000
1000
0000
,  // measure 21
1000
0000
0000
0010
,  // measure 22
0010
0000
0110
0000
,  // measure 23
0001
0000
0000
0000
,  // measure 24
0000
0010
0000
0010
,  // measure 25
0000
0001
0000
0001
,  // measure 26
0000
1000
0000
0001
,  // measure 27
0000
0200
0000
0300
,  // measure 28
0000
0010
0010
0010
,  // measure 29
0000
1000
0000
0100
,  // measure 30
0000
1000
0000
0001
,  // measure 31
0000
0020
0000
0030
,  // measure 32
0000
0001
0000
1000
,  // measure 33
0000
0010
0000
0010
,  // measure 34
0000
2000
0000
3000
,  // measure 35
0000
0002
0000
0003
,  // measure 36
0000
0100
0000
0001
,  // measure 37
0000
0100
0000
0010
,  // measure 38
0000
1000
1000
0000
,  // measure 39
0000
0000
0001
0001
,  // measure 40
0000
0010
0000
0010
,  // measure 41
0000
0001
0000
1000
,  // measure 42
0000
0001
0000
0100
,  // measure 43
0000
0010
0000
0100
,  // measure 44
0000
0010
0000
1000
,  // measure 45
0000
0100
0000
0001
,  // measure 46
0000
1000
0000
0001
,  // measure 47
0000
0100
0100
0100
,  // measure 48
0000
0010
0000
0100
,  // measure 49
0000
0001
0001
0001
,  // measure 50
0000
0010
0000
0100
,  // measure 51
0000
1000
0000
0001
,  // measure 52
0000
0100
0000
0000
,  // measure 53
0000
0000
0010
0010
,  // measure 54
0000
0000
1000
0000
,  // measure 55
1001
0000
0001
0000
,  // measure 56
0100
0000
0010
0000
,  // measure 57
0010
0000
1000
0000
,  // measure 58
1000
0000
0100
0000
,  // measure 59
1000
0000
0001
0000
,  // measure 60
0110
0000
0000
0000
;
