#TITLE:We Can Win The Fight;
#ARTIST:D-crew feat. Matt Tucker;
#BANNER:We Can Win The Fight.png;
#BACKGROUND:We Can Win The Fight-bg.png;
#JACKET:We Can Win The Fight-jacket.png;
#MUSIC:We Can Win The Fight.ogg;
#SAMPLESTART:14.118;
#SAMPLELENGTH:20;
#DISPLAYBPM:119;
#BPMS:0=119;
#BGCHANGES:;

//---------------dance-single - ----------------
#NOTES:
     dance-single:
     :
     Beginner:
     2:
     :
0000
0000
0000
0000
,
0000
0000
0000
0000
,
0000
0000
0000
0000
,
0000
0000
0000
0000
,
0000
0000
0000
0000
,
0001
0000
0000
0000
,
1000
0000
1000
1000
,
1000
0000
0000
0000
,
0010
0000
0010
0000
,
1000
0000
0000
0000
,
0001
0000
0001
0000
,
0100
0000
0000
0000
,
0001
0000
0001
0000
,
1000
0000
0000
0000
,
0010
0000
0010
0000
,
0100
0000
0000
0001
,
0001
0000
0000
1000
,
1000
0000
0000
0001
,
0001
0000
0000
1000
,
1000
0000
0100
0000
,
0010
0000
0001
0000
,
0010
0000
0100
0000
,
1000
0000
0000
0000
,
0001
0000
0010
0000
,
0100
0000
1000
0000
,
0100
0000
0010
0000
,
0001
0000
0000
0000
,
0001
0000
0001
0000
,
0002
0000
0003
0000
,
1000
0000
1000
0000
,
2000
0000
3000
0000
,
0010
0000
0010
0000
,
0020
0000
0030
0000
,
0100
0000
0100
0000
,
0001
0000
1000
0000
,
2002
0000
0000
0000
,
3003
0000
0000
0000
,
0001
0001
0000
0001
,
0001
0000
0000
0000
,
1000
1000
0000
1000
,
1000
0000
0000
0000
,
0010
0010
0000
0010
,
0010
0000
0000
0000
,
0100
0100
0000
0100
,
0100
0000
0000
0000
,
0001
0001
0001
0000
,
0020
0000
0030
0000
,
1000
1000
1000
0000
,
0002
0000
0003
0000
,
0100
0100
0100
0000
,
2000
0000
3000
0000
,
0010
0000
0100
0000
,
0001
0000
1000
0000
,
2002
3003
0000
0000
,
0000
0000
0000
0000
;

//---------------dance-single - ----------------
#NOTES:
     dance-single:
     :
     Easy:
     5:
     :
0000
0000
0000
0000
,
0000
0000
0000
0000
,
0000
0000
0000
0000
,
0000
0000
0000
0000
,
0000
0000
0000
0000
,
0001
0010
0001
0100
,
0010
1000
0000
1000
,
1000
0010
0000
0010
,
1000
0001
1000
0010
,
0100
0001
0000
0001
,
0001
1000
0100
1000
,
0001
0010
0000
0010
,
0001
1000
0001
0010
,
0100
1000
0000
1000
,
1000
0001
0100
0001
,
0010
0010
0100
0100
,
1000
1000
0001
0000
,
1001
0000
1000
0001
,
0000
0001
1000
0010
,
1010
0000
1000
0001
,
1001
0000
0001
0010
,
0011
0000
0001
1000
,
0001
0010
0100
1000
,
0001
0000
0001
1000
,
0010
0100
0001
0100
,
0010
1000
0010
0100
,
0010
0000
0110
0000
,
1000
0001
1000
0001
,
2000
0000
3000
0000
,
0010
1000
0010
1000
,
0020
0000
1030
0000
,
0001
1000
0001
1000
,
0002
0000
0003
0000
,
0010
0001
0010
0001
,
0020
0030
0001
1000
,
2002
0000
0000
0000
,
0000
3003
0000
0000
,
1000
0010
0000
0010
,
1000
0100
0010
0001
,
0100
0010
0000
0010
,
0100
0001
0010
0100
,
1000
0001
0000
0001
,
0100
0010
1000
0001
,
2000
0000
3002
0000
,
0203
0000
0320
0000
,
1030
0000
0001
0000
,
0002
0000
1000
0000
,
1003
0000
0010
0000
,
2000
0000
0001
0000
,
3001
0000
0100
0000
,
0020
0000
1000
0000
,
1030
0000
0001
0000
,
0100
0000
0001
1000
,
2002
3003
0000
0000
,
0000
0000
0000
0000
;

//---------------dance-single - ----------------
#NOTES:
     dance-single:
     :
     Medium:
     8:
     :
0000
0000
0000
0000
,
0000
0000
0000
0000
,
0000
0000
0000
0000
,
0000
0000
0000
0000
,
0000
0000
0000
0000
,
0001
0000
0010
0001
0000
0001
0010
0000
,
0100
0000
0010
0000
0000
0000
0001
1000
,
0001
0100
1000
0100
,
0001
0010
0100
1000
0000
1000
0100
0000
,
1000
0010
0001
0010
,
1000
0001
0010
0100
0000
0100
0010
0000
,
0001
0100
0101
0000
0100
0000
0010
0000
,
1000
0100
1100
0000
0100
0000
0010
0000
,
0001
0100
1000
0001
,
0010
1000
0001
0100
,
0001
0100
1000
0000
0100
0000
0102
0000
,
1003
0100
0001
0000
0100
0000
2100
3000
,
2002
0000
3003
0000
0001
0100
1000
0000
,
1000
0010
1000
0100
,
0110
0010
0000
0000
1000
0100
0010
0000
,
0110
0100
0000
0000
0100
0010
0001
0000
,
0011
0010
0000
0000
0010
0001
0100
0000
,
0001
0010
1000
0000
0010
0001
1000
0000
,
0001
0100
1000
0000
0001
0000
0010
0000
,
1000
0100
0001
0000
1000
0000
0010
0000
,
0001
0010
1000
0000
0001
0000
0100
0000
,
1000
0010
0001
0010
0000
0000
1000
0000
,
0000
0000
0001
1000
0001
0010
0001
1000
,
0002
0100
1003
0001
,
1000
0001
1000
0100
2000
0000
3001
0000
,
0001
0010
0001
0020
0000
0000
0030
0000
,
0001
0000
1000
0001
1000
0010
1000
0001
,
2000
0100
3001
1000
,
0001
1000
0001
0100
0002
0000
2003
0000
,
3010
0000
0100
0001
0000
0000
1000
0002
,
2000
0000
0000
0000
,
3003
0011
0000
0000
,
1000
0010
0100
0000
0110
0000
0000
0000
,
0001
0010
0100
0000
0110
0000
0110
0000
,
1000
0100
0001
0000
0001
0000
0010
0000
,
0001
0100
0110
1001
,
0001
0000
1000
0100
0001
0100
2000
0000
,
3001
0000
0001
0100
1000
0100
0002
0000
,
1003
0000
0001
1000
0010
0010
0110
0000
,
1000
0001
0010
0001
0010
0010
0110
0000
,
1000
0010
0001
0000
1000
0000
0100
0000
,
0001
0010
1000
0000
0001
0000
0100
0000
,
1000
0100
0001
0000
1000
0000
0010
0000
,
0001
0100
1000
0000
0001
0000
0010
0000
,
0000
0000
1000
0000
0020
0100
1030
0000
,
1000
0000
0001
0000
0200
1000
0310
0000
,
1000
0100
0001
0000
0100
0000
0110
0000
,
0001
0100
1000
0000
0100
0000
0110
0000
,
2002
3003
0000
0000
,
0000
0000
0000
0000
;

//---------------dance-single - ----------------
#NOTES:
     dance-single:
     :
     Hard:
     11:
     :
0000
0000
0000
0000
,
0000
0000
0000
0000
,
0000
0000
0000
0000
,
0000
0000
0000
0000
,
0000
0000
0000
0000
,
0011
0000
0010
0001
0000
1000
0010
0000
,
0100
0000
0001
0000
0010
0000
0100
0000
0000
0000
1000
0001
1000
0001
0010
0000
,
0000
0001
1000
0100
0010
0100
1000
1100
,
0000
1000
0010
0100
0001
0100
0101
0101
,
0000
0001
0010
0001
1000
1000
1000
0000
,
0100
1000
0010
0100
0001
0001
0001
0010
,
0011
0000
0110
0000
0001
1000
0010
0000
,
1010
0110
0100
1001
,
0001
0010
1000
0001
0100
1000
0002
0000
,
1003
0010
0001
1000
0100
0001
2000
0000
,
3100
0010
0001
0000
0011
0000
1001
0000
,
0001
0100
0010
0000
1010
0000
0110
0000
,
2002
0000
3003
0001
1000
0010
0100
0000
,
0010
1000
0100
0001
0010
0001
0100
0000
,
1000
0010
1000
0000
0000
0000
0000
0000
0110
0000
0000
0000
0101
0000
0000
0000
,
0001
0100
0001
0000
0000
0000
0000
0000
0011
0000
0000
0000
1001
0000
0000
0000
,
1000
0001
1000
0000
0000
0000
0000
0000
0001
0000
0100
0000
0020
0000
0000
0000
,
1030
0100
0010
0001
0100
0010
0200
0000
,
0310
1000
0001
0000
1001
0001
1000
0000
,
0001
0010
1000
0001
0100
1000
0001
0100
,
0010
0001
1000
0100
0001
0010
1000
0001
,
0100
1000
0000
1001
0000
0001
1000
0100
,
0000
0000
1000
0010
1000
0001
1000
0010
,
0200
0010
0001
0010
0300
0100
0001
1000
,
0001
0010
0001
1000
0002
0003
0010
0010
,
0200
0010
1000
0010
0300
0100
0010
0000
,
1001
0000
1000
0010
1000
0001
1000
0010
,
0200
0000
0301
2000
0000
3001
1000
0100
,
0001
0100
1000
0010
0001
0010
1000
0001
,
0002
0000
1003
2000
0000
3020
0230
0302
,
2000
0000
0000
0000
,
3003
0110
0000
0000
,
0001
0000
1000
0000
1001
0000
0000
0001
0000
1000
0000
0000
0000
0000
1000
0000
,
0100
0000
0010
0000
0110
0000
0000
0100
0000
0010
0000
0000
0011
0000
0000
0000
,
0010
0001
0100
1000
0010
1000
0100
0000
,
0001
0001
0010
0100
0010
0001
0001
0011
,
0000
0001
0100
1000
0100
0001
0101
0101
,
0000
1001
1000
0100
0001
0100
1000
1100
,
0000
0100
0010
0001
2000
0000
0020
3030
,
0010
0100
0010
1000
0002
0000
0020
0033
,
0001
0000
0010
0000
0100
0000
1000
0000
0001
0000
0000
0001
0000
0000
0001
0000
,
1000
0000
0010
0000
0100
0000
0001
0000
1000
0000
0000
1001
0000
0000
0000
0000
,
1000
0000
0001
0000
1000
0000
0100
0000
1100
0000
0000
1000
0000
0100
0000
0000
,
0001
0000
0100
0000
1000
0000
0010
0000
1010
0000
0000
1000
0000
0010
0000
0000
,
1000
0100
0010
0001
1000
0010
0200
0000
,
0301
0100
0010
1000
0001
0010
0200
0000
,
1300
0001
1001
0000
0001
0100
1000
0000
,
0100
0010
0110
0000
1000
0100
0001
0100
,
2002
3003
0000
0000
,
0000
0000
0000
0000
;

//---------------dance-single - ----------------
#NOTES:
     dance-single:
     :
     Challenge:
     15:
     :
0000
0000
0000
0000
,
0000
0000
0000
0000
,
0000
0000
0000
0000
,
0000
0000
0000
0000
,
0000
0000
0000
0000
,
0001
0000
0010
0000
0100
0000
1000
0010
1000
0010
1000
0000
0001
0000
0000
0000
,
0100
0000
0010
0000
1000
0000
0001
0000
0000
0000
0010
0100
0010
0100
0010
0000
,
0000
0001
1000
0010
1000
0100
0010
0001
0100
0000
0010
1000
0010
0100
0001
0000
,
0000
1000
0100
0010
0001
0000
0100
0010
1000
0000
0001
0010
0100
0000
1000
0000
,
0000
0001
1000
0001
1000
0100
0010
0000
0001
0000
0100
0010
0000
0010
0000
1000
,
0100
0010
0001
0100
0001
1000
0000
1000
0010
0000
0100
0001
1000
0000
0001
0010
,
0100
1000
0001
0000
1000
0100
0000
0000
0000
0010
0001
0010
0100
1000
0001
0000
,
0100
0010
1000
0000
0010
1000
0001
0000
0000
0010
0001
1000
0001
0100
0010
0000
,
0000
1000
0100
1000
0010
1000
0001
0010
0100
1000
0000
0001
0000
0001
0000
0100
,
0001
0010
0001
0000
1000
0010
1000
0001
0100
0000
0010
1000
0000
0100
0000
0000
,
0000
0010
0001
1000
0001
0000
0100
0010
1000
0001
1000
0000
0100
0000
0000
0000
,
0000
0010
0001
0100
0001
0000
1000
0010
0000
0010
0000
0010
0100
0000
0000
0001
,
1000
0000
0100
0000
0000
0010
0001
1000
0000
0001
1000
0010
0100
0000
0000
0000
,
0000
0001
0000
0001
0010
0100
1000
0010
1000
0001
0100
0000
0010
0000
0000
1000
,
0010
1000
0010
0000
0000
0100
0001
1000
0000
0001
0000
0010
0100
0000
0000
1000
,
0100
0010
0001
0000
0000
1000
0010
1000
0001
0010
0000
0100
1000
0000
0000
0001
,
1000
0001
0010
0000
0000
0100
1000
0010
0000
1000
0001
0100
0010
0000
0000
0100
,
0001
0010
1000
0010
0001
0000
0100
0010
1000
0100
0001
0100
1000
0000
0000
0001
,
1000
0100
0000
1000
0001
0010
0000
0000
0100
1000
0010
0100
0000
0001
1000
0001
,
0000
0010
0100
0010
0001
1000
0010
0000
1000
0100
0010
0001
0100
0010
1000
0001
,
1000
0010
0100
0010
1000
0000
0001
0000
0010
0100
0010
0100
0000
1000
0001
1000
,
0010
0100
0001
0000
0000
0000
1001
0000
0000
0000
1000
0100
0001
0100
1000
0000
,
0010
0000
1000
0000
0100
0000
0010
0001
1000
0001
0100
0000
0010
0000
1000
0000
,
0001
0000
0010
0000
0001
0000
0100
0010
0000
0000
1000
0000
1000
0000
1000
0000
,
0100
0000
0001
0000
0100
0000
1000
0010
0100
0010
1000
0000
0001
0000
0100
0000
,
0010
0000
1000
0000
0001
0000
0010
0100
0000
0000
1100
0000
1100
0000
0000
0000
,
0001
0000
0010
0000
0100
0000
1000
0010
0100
0001
1000
0000
0010
0000
0100
0000
,
0001
0000
1000
0000
0100
0000
1000
0010
0000
0000
0100
0000
0100
0000
0100
0000
,
0001
0000
0010
0000
1000
0000
0010
0100
0010
0001
1000
0000
0010
0000
0100
0000
,
0001
0000
0010
0000
1000
0000
0100
0010
0001
0000
1000
0000
0010
0000
0100
0000
,
0202
0000
0000
0000
0300
1000
0000
0100
,
0103
0010
0100
0010
0100
0000
0000
0000
0000
0000
0000
0000
0001
1000
0001
0000
,
1000
0000
0100
0000
1000
0010
0000
0100
0000
0001
0000
0000
0000
0010
0100
1000
,
0000
0001
0100
0001
1000
0000
0000
1010
0000
1010
0000
0100
0001
1000
0010
0000
,
0000
0000
1000
0100
0010
0100
0010
0001
0000
1000
0010
0100
0001
1000
0000
0100
,
1000
0001
1000
0000
0010
0000
0100
0001
1000
0000
0001
0010
0100
0000
1000
0000
,
0000
0000
0010
0100
0010
0000
1000
0001
0010
0100
0000
1000
0001
0000
0100
0000
,
0000
0000
0110
0000
1000
0001
0010
0100
1000
0001
0000
0100
0001
0100
0010
0000
,
0000
1000
0100
0010
0001
0000
0100
0000
0110
0000
1001
0000
0110
0000
0000
0010
,
1000
0100
0001
0100
1000
0000
0010
0100
0001
0000
0001
0000
0001
0000
0000
0000
,
0000
1000
0100
1000
0010
0100
0001
0010
0001
0100
0010
1000
0000
0000
0001
0000
,
0000
1000
0100
0010
0001
0000
0100
0001
0010
0100
1000
0010
0000
0000
0100
0000
,
0100
0010
1000
0001
1000
0000
0010
1000
0001
0000
0100
0010
0000
0100
0000
0000
,
0001
0010
0100
1000
0001
0000
1000
0000
0010
0000
0100
0001
0000
1000
0000
0000
,
0010
1000
0010
0100
0001
0000
1000
0000
0001
0000
0010
0100
0000
0000
1000
0010
,
1000
0000
0001
0010
0001
0100
0010
0000
1000
0000
0001
0100
0000
0000
0010
0000
,
0010
1000
0001
1000
0100
0010
0000
0001
0100
0001
1000
0010
0000
0000
1000
0100
,
1000
0001
0100
0010
0000
0000
1000
0000
0010
0000
0100
0001
0000
1000
0001
0100
,
0010
0000
0000
0000
;

//---------------dance-double - ----------------
#NOTES:
     dance-double:
     :
     Easy:
     6:
     :
00000000
00000000
00000000
00000000
,
00000000
00000000
00000000
00000000
,
00000000
00000000
00000000
00000000
,
00000000
00000000
00000000
00000000
,
00000000
00000000
00000000
00000000
,
00011000
00010000
00100000
10000000
,
01000000
00010000
00000000
00010000
,
00001000
00000010
00000000
00000010
,
00000100
00010000
00000100
00000010
,
00000001
00001000
00000000
00001000
,
00000001
00000100
00001000
00010000
,
01000000
10000000
00000000
10000000
,
00100000
00010000
00100000
10000000
,
00010000
01000000
00000000
01000000
,
00010000
00100000
00001000
00010000
,
00000000
00010000
00000100
00010100
,
00000000
00000010
00000100
00000110
,
00001001
00000000
00000001
00000100
,
00000000
00000100
00001000
00010000
,
00011000
00000000
00001000
01000000
,
01001000
00000000
01000000
00100000
,
01100000
00000000
10000000
00010000
,
10000000
01000000
00100000
00010000
,
10000000
00000000
10000000
00100000
,
01000000
00100000
00010000
00001000
,
00000010
00000001
00000010
00000100
,
00000010
00000000
00000110
00000000
,
00000000
00000001
00001000
00010000
,
20000000
00000000
30000000
01000000
,
10000000
00100000
01000000
00010000
,
00200000
00000000
02000000
03300000
,
00000000
10000000
00010000
00001000
,
00000002
00000000
00000003
00000100
,
00000001
00000010
00000100
00001000
,
00000002
00000003
00000100
00001000
,
00022000
00000000
00000000
00000000
,
00000000
00033000
00000000
00000000
,
00001000
00100000
00000000
00100000
,
00010000
01000000
00100000
01000000
,
10000000
01000000
00000000
01000000
,
00010000
00001000
00000100
00000001
,
00000100
00000010
00000000
00000010
,
00000001
00000100
00001000
00000100
,
00000002
00000000
00002003
00000000
,
00023000
00000000
20030000
00000000
,
30100000
01000000
00010000
00000000
,
00200000
00000000
00001000
00010000
,
00301000
00000000
00001000
00010000
,
00000200
00000000
00001000
00000010
,
00001300
00000000
00001000
00000010
,
00000200
00000000
00001000
00000010
,
00001300
00000000
00011000
00000000
,
00100000
00000000
01000000
00100000
,
20020000
30030000
00000000
00000000
,
00000000
00000000
00000000
00000000
;

//---------------dance-double - ----------------
#NOTES:
     dance-double:
     :
     Medium:
     9:
     :
00000000
00000000
00000000
00000000
,
00000000
00000000
00000000
00000000
,
00000000
00000000
00000000
00000000
,
00000000
00000000
00000000
00000000
,
00000000
00000000
00000000
00000000
,
00001000
00000000
00100000
00001000
00000000
00001000
00010000
00000000
,
00000010
00000000
00010000
00000000
00000000
00000000
00001000
00010000
,
00001000
00100000
01000000
00100000
,
00001000
00010000
00100000
01000000
00000000
01000000
00100000
00000000
,
10000000
01000000
00010000
01000000
,
10000000
00010000
01000000
00001000
00000000
00001000
01000000
00000000
,
00001000
00010000
00011000
00000000
00001000
00000000
00000010
00000000
,
00000001
00000100
00000101
00000000
00000100
00001000
00010000
00000000
,
01000000
00000000
10000000
00000000
00010000
01000000
10000000
00000000
,
00010000
00100000
10000000
00010000
,
00001000
00000010
00000001
00000000
00000010
00000000
00002010
00000000
,
00003001
00000100
00001000
00000000
00010000
00000000
00011000
00000000
,
02200000
00000000
03300000
00000000
10000000
01000000
00010000
00000000
,
00010000
00100000
00010000
01000000
,
01100000
01000000
00000000
00000000
10000000
01000000
00010000
00000000
,
00011000
00010000
00000000
00000000
00001000
00000010
00000100
00000000
,
00000110
00000100
00000000
00000000
00010000
00001000
00011000
00000000
,
00010000
00100000
10000000
00000000
00100000
01000000
01100000
00000000
,
10000000
01000000
00010000
00000000
10000000
00000000
00100000
00000000
,
00001000
00000010
00000001
00000000
00000100
00000000
00000001
00000000
,
00001000
00000100
00000001
00000000
00001000
00000000
00000010
00000000
,
00000001
00000100
00001000
00010000
00000000
00000000
00011000
00000000
,
00000000
00000000
00001000
00010000
00001000
00000010
00001000
00010000
,
00002000
00100000
01003000
00001000
,
00100000
00010000
00100000
00001000
00200000
00000000
00310000
00000000
,
10000000
01000000
10000000
02000000
00000000
00000000
03100000
00000000
,
00011000
00000000
00010000
00001000
00010000
00100000
00010000
00001000
,
00020000
00000010
00030100
00010000
,
00001000
00000010
00001000
00010000
00002000
00000000
02003000
00000000
,
03001000
00000000
00010000
00000100
00000000
00000000
00010000
00002000
,
00020000
00000000
00000000
00000000
,
00033000
00101000
00000000
00000000
,
00001000
00100000
01000000
00000000
01100000
00000000
00000000
00000000
,
10000000
00100000
00010000
00000000
00011000
00000000
00010010
00000000
,
00000010
00000100
00001000
00000000
00001000
00000000
00000010
00000000
,
00001000
00010000
00011000
10010000
,
00000000
00000000
10000000
01000000
00010000
01000000
20000000
00000000
,
30010000
00000000
00010000
01000000
10000000
01000000
00020000
00000000
,
00130000
00000000
00100000
00001000
00000010
00000010
00000110
00000000
,
00000001
00000100
00001000
00100000
00010000
00010000
00110000
00000000
,
00010000
01000000
10000000
00000000
00010000
00000000
00100000
00000000
,
10000000
00010000
00001000
00000001
,
00001000
00000100
00000001
00000000
00001000
00000000
00000010
00000000
,
00000001
00001000
00010000
10000000
,
00010000
00000000
00100000
00000000
00002000
00010000
00003010
00000000
,
00000010
00000000
00000100
00000000
00020000
00001000
00130000
00000000
,
00010000
00100000
10000000
00000000
01000000
00000000
01100000
00000000
,
01000000
00010000
00001000
00000000
00000010
00000000
00001000
00000000
,
00022000
00033000
00000000
00000000
,
00000000
00000000
00000000
00000000
;

//---------------dance-double - ----------------
#NOTES:
     dance-double:
     :
     Hard:
     11:
     :
00000000
00000000
00000000
00000000
,
00000000
00000000
00000000
00000000
,
00000000
00000000
00000000
00000000
,
00000000
00000000
00000000
00000000
,
00000000
00000000
00000000
00000000
,
00011000
00000000
00000010
00001000
00000000
00010000
00100000
00000000
,
00010000
00000000
00000100
00000000
00000010
00000000
00001000
00000000
00000000
00000000
00010000
00001000
00010000
00001000
00010000
00000000
,
00000000
00001000
00100000
01000000
00100000
00010000
01000000
01010000
,
00000000
00010000
01000000
10000000
01000000
00001000
01001000
01001000
,
00000000
00001000
00000010
00000100
00000001
00000001
00000001
00000000
,
00000100
00001000
00000001
00000100
00001000
00001000
00001000
00000000
,
01001000
00000000
01100000
00000000
00000000
10000000
00010000
00100000
,
01100000
00000000
00101000
00000000
00001000
00000010
00000001
00000101
,
00000000
00000001
00000010
00001000
00010000
00100000
20000000
00000000
,
30010000
10000000
01000000
00010000
00001000
00000100
00000002
00000000
,
00000013
00000001
00001000
00000000
00001010
00000000
00000110
00000000
,
00010000
00001000
00100000
00000000
00110000
00000000
01100000
00000000
,
20020000
00000000
30030000
10000000
00010000
01000000
00100000
00000000
,
10000000
01000000
00010000
00100000
00010000
01000000
00100000
00000000
,
00001000
00010000
00001000
00000000
00000000
00000000
00000000
00000000
00011000
00000000
00000000
00000000
00001001
00000000
00000000
00000000
,
00000001
00000100
00000001
00000000
00000000
00000000
00000000
00000000
00011000
00000000
00000000
00000000
10010000
00000000
00000000
00000000
,
10000000
01000000
10000000
00000000
00000000
00000000
00000000
00000000
00010000
00000000
01000000
00000000
00200000
00000000
00000000
00000000
,
10300000
01000000
00100000
00010000
01000000
10000000
02000000
00000000
,
03010000
01000000
00001000
00000000
00000010
00000100
00000110
00000000
,
00000001
00000100
00001000
00000001
00000010
00001000
00000001
00000100
,
00001000
00010000
00100000
10000000
00010000
00100000
10000000
00010000
,
01000000
10000000
00000000
10010000
00000000
10000000
01000000
00010000
,
00000000
00000000
00011000
00001000
00000010
00001000
00010000
00000010
,
00000200
00000010
00000001
00000010
00000300
00000001
00001000
00000001
,
00000010
00001000
00100000
00001000
00020000
00030000
00001000
00100000
,
02000000
00100000
10000000
00100000
03000000
01000000
00100000
00000000
,
00011000
00000000
00010000
00100000
10000000
00100000
00010000
00001000
,
00000020
00000000
00000031
00001002
00000000
00001003
00000001
00000100
,
00001000
00010000
01000000
10000000
00100000
00010000
10000000
01000000
,
00020000
00000000
00130000
00200000
00000000
00302000
00003020
00002030
,
00020000
00000000
00000000
00000000
,
00033000
01100000
00000000
00000000
,
00010000
00000000
10000000
00000000
10010000
00000000
00000000
00010000
00000000
10000000
00000000
00000000
00000000
00000000
01000000
00000000
,
00010000
00000000
00001000
00000000
00011000
00000000
00000000
00010000
00000000
00001000
00000000
00000000
00000110
00000000
00000000
00000000
,
00000001
00000100
00001000
00000010
00001000
00000100
00000001
00000000
,
00001000
00001000
00000010
00000001
00000010
00001000
00000010
00010010
,
00000000
00010000
00100000
10000000
01000000
10000000
11000000
11000000
,
00000000
10010000
10000000
00100000
00010000
00100000
10000000
10100000
,
00000000
10000000
01000000
00010000
00002000
00000000
00020000
00033000
,
00001000
00000100
00000001
00001000
00000020
00000000
00000200
00000330
,
00000001
00000000
00000010
00000000
00000100
00000000
00001000
00000000
00000010
00000000
00000000
00000010
00000000
00000000
00000010
00000000
,
00000100
00000000
00001000
00000000
00010000
00000000
00100000
00000000
01000000
00000000
00000000
01100000
00000000
00000000
00000000
00000000
,
10000000
00000000
00010000
00000000
10000000
00000000
01000000
00000000
11000000
00000000
00000000
01000000
00000000
01000000
00000000
00000000
,
00010000
00000000
00001000
00000000
00000100
00000000
00000001
00000000
00000101
00000000
00000000
00000100
00000000
00000100
00000000
00000000
,
00000001
00000010
00000100
00000010
00001000
00000000
00020000
00000000
,
00031000
00010000
00100000
01000000
00001000
00010000
00002000
00000000
,
00103000
01000000
01100000
00000000
10000000
00100000
00010000
00000000
,
00000010
00000100
00000110
00000000
00000001
00000010
00001000
00010000
,
00022000
00033000
00000000
00000000
,
00000000
00000000
00000000
00000000
;
