#TITLE:Waverer (Slide Mix);
#ARTIST:AKIRA YAMAOKA;
#BANNER:Waverer (Slide Mix).png;
#BACKGROUND:Waverer (Slide Mix)-bg.png;
#JACKET:Waverer (Slide Mix)-jacket.png;
#MUSIC:Waverer (Slide Mix).ogg;
#SAMPLESTART:67.12;
#SAMPLELENGTH:20;
#DISPLAYBPM:160;
#BPMS:0=160.011;
#BGCHANGES:;

//---------------dance-single - ----------------
#NOTES:
     dance-single:
     :
     Beginner:
     3:
     :
0000
0000
0000
0000
,
0000
0000
0000
0000
,
0000
0000
0000
0000
,
0000
0000
0000
0000
,
0000
0000
0000
0000
,
0010
0000
0000
0000
,
0100
0000
0000
0000
,
0001
0000
0000
0000
,
1000
0000
0000
0000
,
0010
0000
0000
0000
,
0100
0000
0000
0000
,
0110
0000
0000
0000
,
0001
0000
1000
0000
,
1000
0000
0100
0000
,
0010
0000
1000
0000
,
0001
0000
0010
0000
,
1000
0000
0100
0000
,
0110
0000
1001
0000
,
0010
0000
0100
0000
,
1001
0000
0110
0000
,
0001
0000
1000
0000
,
1000
0000
0010
0000
,
1000
0000
0010
0000
,
1001
0000
0110
0000
,
0010
0000
0100
0000
,
0110
0000
0110
0000
,
0100
0000
0010
0000
,
0110
0000
1001
0000
,
0001
0000
0010
0000
,
0010
0000
0000
0000
,
1000
0000
0000
0000
,
0001
0000
0000
0000
,
0100
0000
0000
0000
,
0010
0000
0000
0000
,
0100
0000
0000
0000
,
0001
0000
0000
0000
,
0100
0000
0000
0000
,
0110
0000
1001
0000
,
0001
0000
1000
0000
,
0110
0000
1001
0000
,
1000
0000
0100
0000
,
1001
0000
0110
0000
,
1000
0000
0010
0000
,
1000
0000
0001
0000
,
0110
0000
0000
0000
,
0110
0000
0110
0000
,
1000
0000
1000
0000
,
1001
0000
0110
0000
,
0010
0000
0010
0000
,
1001
0000
0110
0000
,
0100
0000
0001
0000
,
0110
0000
1001
0000
,
0010
0000
0100
0000
,
1000
0000
0110
0000
,
1000
0000
0001
0000
,
0110
0000
0110
0000
,
0100
0000
0010
0000
,
0110
0000
1001
0000
,
0001
0000
0001
0000
,
1001
0000
0110
0000
,
0001
0000
1000
0000
,
1000
0000
0000
0000
,
0001
0000
0000
0000
,
0100
0000
0000
0000
,
1001
0000
0000
0000
;

//---------------dance-single - ----------------
#NOTES:
     dance-single:
     :
     Easy:
     5:
     :
0000
0000
0000
0000
,
0000
0000
0000
0000
,
0000
0000
0000
0000
,
0000
0000
0000
0000
,
0000
0000
0000
0000
,
0020
0000
0000
0000
0000
0030
0000
0000
,
0200
0000
0000
0000
0000
0300
0000
0000
,
0002
0000
0000
0000
0000
0003
0000
0000
,
2000
0000
0000
0000
0000
3000
0000
0000
,
0020
0000
0000
0000
0000
0030
0000
0000
,
0200
0000
0000
0000
0000
0300
0000
0000
,
0110
0000
0000
0000
,
0001
0000
1000
0001
,
1000
0000
0100
0000
,
0010
0000
1000
0000
,
0001
0000
0010
0000
,
1000
0000
0100
0000
,
0110
0000
1001
0000
,
0010
0000
0100
0000
,
1001
0000
0110
0000
,
0001
0000
1000
0001
,
1000
0000
0010
0000
,
1000
0001
0010
0000
,
1001
0000
0110
0000
,
0010
1000
0100
0000
,
0101
0000
1100
0000
,
0100
0010
0010
0000
,
0110
0000
1001
0000
,
0001
0000
0010
0100
,
0020
0000
0000
0000
0000
0030
0000
0000
,
2000
0000
0000
0000
0000
3000
0000
0000
,
0002
0000
0000
0000
0000
0003
0000
0000
,
0200
0000
0000
0000
0000
0300
0000
0000
,
0020
0000
0000
0000
0000
0030
0000
0000
,
0200
0000
0000
0000
0000
0300
0000
0000
,
0002
0000
0000
0000
0000
0003
0000
0000
,
0200
0000
0000
0000
0000
0300
0000
0000
,
0110
0000
1001
0000
,
0001
0000
1000
0000
,
0110
0000
1001
0000
,
1000
0000
0100
0000
,
0011
0000
1100
0000
,
1000
0000
0010
0000
,
1000
1000
0001
0001
,
0220
0000
0000
0330
,
0101
0000
1100
0000
,
1000
0001
1000
0000
,
1001
0000
0110
0000
,
0010
0100
0010
0000
,
0011
0000
1100
0000
,
0100
1000
0001
0000
,
0110
0000
1001
0000
,
0010
0000
0100
0001
,
1000
0000
0110
0000
,
1000
0100
0001
0000
,
0101
0000
1100
0000
,
0100
1000
0010
0000
,
0110
0000
1001
0000
,
0001
1000
0001
0000
,
1010
0000
0101
0000
,
0001
0000
1000
0001
,
2000
0000
0000
0000
0000
3000
0000
0000
,
0002
0000
0000
0000
0000
0003
0000
0000
,
0200
0000
0000
0000
0000
0300
0000
0000
,
1001
0000
0000
0000
;

//---------------dance-single - ----------------
#NOTES:
     dance-single:
     :
     Medium:
     8:
     :
0000
0000
0000
0000
,
0000
0000
0000
0000
,
0000
0000
0000
0000
,
0000
0000
0000
0000
,
0000
0000
0000
0000
,
0020
0000
0000
0100
0000
0130
0000
0000
,
2000
0000
0000
0001
0000
3001
0000
0000
,
0200
0000
0000
0010
0000
0310
0000
0000
,
0002
0000
0000
1000
0000
1003
0000
0000
,
0020
0000
0000
0100
0000
0130
0000
0000
,
2000
0000
0000
0100
0000
3100
0000
0000
,
1001
0000
0000
0000
,
0001
0100
0000
0000
0001
0100
0001
0100
,
0001
0000
1001
0000
,
0010
1000
0100
0000
0100
0000
0000
0000
,
1100
0000
0101
0000
,
0010
0001
0100
0000
0100
0000
0000
0000
,
0101
0000
1100
0000
,
1000
0100
0001
0000
0001
0000
0000
0000
,
1001
0000
0110
0000
,
0001
0100
0000
0000
1000
0000
0001
0000
,
1001
0000
0110
0000
,
1000
0001
0100
0000
0100
0000
0000
0000
,
1100
0000
0011
0000
,
0010
0001
1000
0000
1000
0000
0000
0000
,
1100
0000
1010
0000
,
0100
0001
0010
0000
0010
0000
0000
0000
,
1001
0000
0000
0000
,
1000
0100
0000
0000
1000
0100
1000
0100
,
2000
0000
0000
0001
0000
3001
0000
0000
,
0200
0000
0000
0001
0000
0301
0000
0000
,
0020
0000
0000
1000
0000
1030
0000
0000
,
0002
0000
0000
0100
0000
0103
0000
0000
,
0020
0000
0000
1000
0000
1030
0000
0000
,
0200
0000
0000
0010
0000
0310
0000
0000
,
0002
0000
0000
0010
0000
0013
0000
0000
,
2000
0000
0000
0001
0000
3001
0000
0000
,
0020
0000
1030
0100
0000
0200
0000
0000
,
0302
0000
0103
1000
0000
2000
0000
0000
,
3200
0000
0000
0000
0310
0000
0001
0000
0000
0000
0002
0000
0000
0000
0000
0003
,
2000
0000
3010
0100
0000
0200
0000
0000
,
0301
0000
1000
0010
0000
0020
0000
0000
,
2030
0000
3100
0001
0000
0002
0000
0000
,
0203
0000
1300
0100
0000
0200
0000
0000
,
0302
0000
0103
1000
0000
2000
0000
0000
,
3010
0000
1001
0000
,
0100
0001
0010
0000
0010
0000
0000
0000
,
0011
0000
1010
0000
,
0100
1000
0010
0000
0010
0000
0000
0000
,
1010
0000
0011
0000
,
0001
0010
1000
0000
1000
0000
0000
0000
,
1001
0000
0000
0000
,
1000
0010
0000
0000
0001
0000
1000
0000
,
1001
0000
0110
0000
,
0001
1000
0010
0000
0010
0000
0000
0000
,
0011
0000
1100
0000
,
0100
1000
0001
0000
0001
0000
0000
0000
,
0011
0000
0101
0000
,
0010
1000
0100
0000
0100
0000
0000
0000
,
1001
0000
0000
0000
,
0001
0100
0000
0000
0001
0100
0001
0100
,
0002
0000
0000
1000
0000
1003
0000
0000
,
0020
0000
0000
1000
0000
1030
0000
0000
,
0200
0000
0000
0001
0000
0301
0000
0000
,
1001
0000
0000
0000
;

//---------------dance-single - ----------------
#NOTES:
     dance-single:
     :
     Hard:
     11:
     :
0000
0000
0000
0000
,
0000
0000
0000
0000
,
0000
0000
0000
0000
,
0000
0000
0000
0000
,
0000
0000
0000
0000
,
0220
0000
0000
0330
,
2200
0000
0000
3300
,
0202
0000
0000
0303
,
2002
0000
0000
3003
,
0010
0000
0001
0010
0000
0001
0010
0010
,
1000
0000
1000
0010
0000
0010
0001
0001
,
1000
0000
0000
0000
0001
0100
0000
0000
,
1000
0100
0000
0000
0001
0100
0100
0000
,
0010
1000
1000
1000
0100
0001
0100
1000
,
0010
0100
0100
0100
0000
0000
0000
0000
,
0010
0001
0001
0001
0100
1000
0100
0001
,
0010
0100
0100
0100
0000
0000
0000
0000
,
1000
0001
0001
0001
1000
0100
0010
0001
,
0100
1000
1000
1000
0000
0000
0000
0000
,
0001
0000
0000
0000
0010
0001
0000
0000
,
0010
1000
0000
0000
0010
0001
0001
0000
,
1000
0100
0100
0100
0001
0100
1000
0100
,
0001
0100
0100
0100
0000
0000
0000
0000
,
0001
0010
0010
0010
1000
0010
0001
0010
,
1000
0010
0010
0010
0000
0000
0000
0000
,
0010
0001
0001
0001
0100
0010
1000
0010
,
0100
0001
0001
0001
0000
0000
0000
0000
,
0100
0000
0000
0000
1000
0100
0000
0000
,
0001
0100
0000
0000
1000
0100
0100
0000
,
0010
0000
0100
0010
0000
0020
0000
0000
,
0031
0000
1000
0001
0000
0002
0000
0000
,
1003
0000
0010
1000
0000
2000
0000
0000
,
3100
0000
0010
0100
0000
0200
0000
0000
,
0310
0000
0001
0010
0000
0020
0000
0000
,
0031
0000
1000
0001
0000
0002
0000
0000
,
1003
0000
0100
1000
0000
2000
0000
0000
,
3100
0000
0001
0100
0000
0200
0000
0000
,
1300
0000
1000
0100
0000
0100
0010
0010
,
0001
0000
0001
0100
0000
0200
0000
0000
,
0301
0000
0001
0100
0000
0100
0010
0010
,
1000
0000
1000
0100
0000
0200
0000
0000
,
0310
0000
0010
0001
0000
0001
1000
1000
,
0100
0000
0100
0010
0000
0020
0000
0000
,
0130
0000
0100
1000
0000
1000
0001
0001
,
0010
0000
0010
0100
0000
0200
0000
0000
,
1300
0001
0001
0001
0100
0010
1000
0001
,
0100
0010
0010
0010
0000
0000
0000
0000
,
0010
1000
1000
1000
0100
0010
0001
0010
,
0100
1000
1000
1000
0000
0000
0000
0000
,
0100
0010
0010
0010
0001
1000
0001
0010
,
0100
1000
1000
1000
0000
0000
0000
0000
,
0001
0000
0000
0000
0001
0100
0000
0000
,
1000
0100
0000
0000
0001
0100
0100
0000
,
1000
0001
0001
0001
0010
1000
0010
0001
,
1000
0100
0100
0100
0000
0000
0000
0000
,
0001
0010
0010
0010
0001
0100
1000
0100
,
0001
0100
0100
0100
0000
0000
0000
0000
,
0010
1000
1000
1000
0010
0100
0001
1000
,
0100
0010
0010
0010
0000
0000
0000
0000
,
0010
0000
0000
0000
0010
0001
0000
0000
,
0010
1000
0000
0000
0010
0001
0001
0000
,
0010
0000
0100
0010
0000
0020
0000
0000
,
0031
0000
1000
0001
0000
0002
0000
0000
,
1003
0000
0010
1000
0000
2000
0000
0000
,
3001
0000
0000
0000
;

//---------------dance-single - ----------------
#NOTES:
     dance-single:
     :
     Challenge:
     13:
     :
0000
0000
0000
0000
,
0000
0000
0000
0000
,
0000
0000
0000
0000
,
0000
0000
0000
0000
,
0000
0000
0000
0000
,
0001
0100
1000
0001
0100
0010
1000
0000
,
0001
0010
0001
0100
1000
0010
0001
0000
,
0010
0001
1000
0001
0010
0100
1000
0000
,
0010
0100
0010
1000
0100
0001
1000
0000
,
0100
0010
0100
1000
0010
0100
0001
0000
,
0010
0001
1000
0010
0100
0001
1000
0000
,
1010
0001
1000
0010
1000
0100
0001
0000
,
0101
0010
0100
0001
1000
0010
1000
1000
,
1000
0100
0001
0001
0001
0010
0001
0100
,
2000
0010
3010
0100
0002
0010
0013
0100
,
1000
0010
0100
0001
0000
0010
0001
1000
,
0100
1000
0010
0001
0010
1000
0100
0000
,
0010
0001
1000
0010
0100
0001
1000
0000
,
0100
0010
0001
0100
1000
0001
0010
0000
,
0001
1000
0001
0010
1000
0100
0001
0000
,
0010
0001
1000
0001
0010
0100
1000
1000
,
1000
0010
0100
0100
0100
0001
1000
0100
,
0002
1000
1003
0010
2000
0100
3100
0010
,
0001
0000
0100
0100
0001
1000
0100
0100
,
1000
0001
0010
0100
1000
0010
0001
0000
,
0100
0010
1000
1000
0100
0010
0001
0001
,
0100
0010
0100
0001
0010
1000
0100
0000
,
1001
0010
1000
1000
0001
0100
0010
0010
,
1000
0001
0010
0010
0001
0100
1000
0100
,
0001
0000
0010
0002
0003
2000
3000
0000
,
0100
0000
1000
0020
0030
0200
0301
1000
,
0010
0000
1000
0200
0300
0020
0030
0000
,
0001
0000
1000
0020
0030
2000
3000
0001
,
0100
0010
0100
0002
0003
2000
3000
0000
,
0010
1000
0100
0020
0030
0002
1003
0100
,
1000
0000
0010
0200
0300
0002
1003
0100
,
0010
0000
0001
2000
3000
0020
0130
0100
,
0110
0000
0001
0100
1000
1000
0001
0100
,
1000
1000
0010
0100
0001
0010
1000
0000
,
1100
0000
0010
1000
0001
0001
0010
0001
,
1000
1000
0100
0010
0001
0100
0001
0000
,
0101
0010
1000
0001
0010
0010
0001
0100
,
1000
1000
0010
1000
0100
0010
0001
0000
,
0011
0000
0100
0100
1000
0001
0100
0100
,
0001
1000
0010
0200
0300
0020
1030
1000
,
1000
0000
0001
0001
0001
0010
0001
0100
,
2000
0001
3001
0010
0002
0100
0103
0010
,
1000
0100
1000
0001
0000
0010
0001
0100
,
1000
0001
1000
0010
0100
0001
1000
0000
,
1100
0010
1000
0001
0010
0001
0100
0000
,
0001
0010
0001
1000
0010
0010
1000
0001
,
1000
0100
0010
0010
0001
0100
1000
0000
,
1001
0010
1000
0001
1000
0010
0100
0100
,
0100
0000
0010
0010
0010
1000
0001
0100
,
0002
0010
0013
1000
0200
0010
0310
0001
,
0100
0010
0100
0001
1000
0010
1000
0001
,
0000
0010
0100
1000
0002
0010
0013
0100
,
1000
1000
0001
0100
1000
1000
0001
0100
,
0010
0100
0001
0001
0001
1000
0200
0000
,
0310
0100
0010
0001
0100
0010
1000
0000
,
0110
0001
1000
0010
1000
0100
0001
0100
,
1000
0000
0010
0200
0300
0002
0003
0010
,
0001
0000
1000
0002
0003
0200
0310
1000
,
0100
1000
0001
1000
0010
0010
0100
0000
,
0001
0100
0010
2000
3000
0002
0003
0000
;

//---------------dance-double - ----------------
#NOTES:
     dance-double:
     :
     Easy:
     5:
     :
00000000
00000000
00000000
00000000
,
00000000
00000000
00000000
00000000
,
00000000
00000000
00000000
00000000
,
00000000
00000000
00000000
00000000
,
00000000
00000000
00000000
00000000
,
00002000
00000000
00000000
00000000
00000000
00003000
00000000
00000000
,
00020000
00000000
00000000
00000000
00000000
00030000
00000000
00000000
,
00002000
00000000
00000000
00000000
00000000
00003000
00000000
00000000
,
00000200
00000000
00000000
00000000
00000000
00000300
00000000
00000000
,
00000002
00000000
00000000
00000000
00000000
00000003
00000000
00000000
,
00000200
00000000
00000000
00000000
00000000
00000300
00000000
00000000
,
00001001
00000000
00000000
00000000
,
00001000
00000000
00010000
01000000
,
10000000
00000000
10000000
00000000
,
00100000
00000000
10000000
00000000
,
00010000
00000000
00001000
00000000
,
00000100
00000000
00000001
00000000
,
00000011
00000000
00001100
00000000
,
00010000
00000000
00001000
00000000
,
00011000
00000000
01010000
00000000
,
01000000
00000000
10000000
00100000
,
10000000
00000000
00100000
00000000
,
00010000
00001000
00010000
00000000
,
00011000
00000000
00001100
00000000
,
00001000
00000100
00000001
00000000
,
00000011
00000000
00001100
00000000
,
00000010
00000001
00000100
00000000
,
00001001
00000000
00000110
00000000
,
00001000
00000000
00010000
00100000
,
20000000
00000000
00000000
00000000
00000000
30000000
00000000
00000000
,
02000000
00000000
00000000
00000000
00000000
03000000
00000000
00000000
,
00020000
00000000
00000000
00000000
00000000
00030000
00000000
00000000
,
00002000
00000000
00000000
00000000
00000000
00003000
00000000
00000000
,
00000200
00000000
00000000
00000000
00000000
00000300
00000000
00000000
,
00000002
00000000
00000000
00000000
00000000
00000003
00000000
00000000
,
00000020
00000000
00000000
00000000
00000000
00000030
00000000
00000000
,
00002000
00000000
00000000
00000000
00000000
00003000
00000000
00000000
,
00011000
00000000
01010000
00000000
,
01000000
00000000
10000000
00000000
,
10100000
00000000
01010000
00000000
,
01000000
00000000
00010000
00000000
,
00011000
00000000
00001100
00000000
,
00001000
00000000
00000100
00000000
,
00000001
00000001
00000010
00000010
,
00002002
00000000
00000000
00003003
,
00000110
00000000
00001001
00000000
,
00000100
00001000
00010000
00000000
,
10010000
00000000
01100000
00000000
,
10000000
01000000
00100000
00000000
,
00110000
00000000
00011000
00000000
,
00001000
00010000
00001000
00000000
,
00011000
00000000
01010000
00000000
,
01000000
00000000
10000000
01000000
,
00010000
00000000
00011000
00000000
,
00010000
00001000
00000100
00000000
,
00000101
00000000
00000011
00000000
,
00000010
00000001
00000100
00000000
,
00000101
00000000
00001100
00000000
,
00000100
00001000
00010000
00000000
,
00011000
00000000
01010000
00000000
,
11000000
00000000
10000000
01000000
,
00020000
00000000
00000000
00000000
00000000
00030000
00000000
00000000
,
00002000
00000000
00000000
00000000
00000000
00003000
00000000
00000000
,
00020000
00000000
00000000
00000000
00000000
00030000
00000000
00000000
,
00011000
00000000
00000000
00000000
;

//---------------dance-double - ----------------
#NOTES:
     dance-double:
     :
     Medium:
     8:
     :
00000000
00000000
00000000
00000000
,
00000000
00000000
00000000
00000000
,
00000000
00000000
00000000
00000000
,
00000000
00000000
00000000
00000000
,
00000000
00000000
00000000
00000000
,
00000001
00000000
00000000
00000101
00000000
00000101
00000000
00000000
,
00001000
00000000
00000000
00001100
00000000
00001100
00000000
00000000
,
00010000
00000000
00000000
00011000
00000000
00011000
00000000
00000000
,
10000000
00000000
00000000
11000000
00000000
11000000
00000000
00000000
,
00100000
00000000
00000000
00110000
00000000
00110000
00000000
00000000
,
01000000
00000000
00000000
01100000
00000000
01100000
00000000
00000000
,
10010000
00000000
00000000
00000000
,
00010000
00001000
00000000
00000000
00010000
00001000
00010000
00001000
,
00010000
00000000
00011000
00000000
,
00001000
00000100
00001000
00000100
00001000
00000000
00000000
00000000
,
00000101
00000000
00001100
00000000
,
00000010
00000100
00000010
00000100
00000010
00000000
00000000
00000000
,
00000101
00000000
00001100
00000000
,
00010000
00001000
00010000
00001000
00010000
00000000
00000000
00000000
,
01010000
00000000
11000000
00000000
,
10000000
01000000
00000000
00000000
00010000
00000000
10000000
00000000
,
00110000
00000000
11000000
00000000
,
00010000
10000000
00010000
10000000
00010000
00000000
00000000
00000000
,
01100000
00000000
10010000
00000000
,
00100000
00010000
00100000
00010000
00100000
00000000
00000000
00000000
,
00110000
00000000
10100000
00000000
,
10000000
01000000
10000000
01000000
10000000
00000000
00000000
00000000
,
01010000
00000000
00000000
00000000
,
00010000
00001000
00000000
00000000
00010000
00001000
00010000
00001000
,
00010000
00000000
00000000
00011000
00000000
00011000
00000000
00000000
,
00001000
00000000
00000000
00001100
00000000
00001100
00000000
00000000
,
00000100
00000000
00000000
00000110
00000000
00000110
00000000
00000000
,
00000001
00000000
00000000
00001001
00000000
00001001
00000000
00000000
,
00000010
00000000
00000000
00000011
00000000
00000011
00000000
00000000
,
00000100
00000000
00000000
00001100
00000000
00001100
00000000
00000000
,
00010000
00000000
00000000
00011000
00000000
00011000
00000000
00000000
,
00001000
00000000
00000000
00011000
00000000
00011000
00000000
00000000
,
10000000
00000000
10000000
01000000
00000000
00020000
00000000
00000000
,
01030000
00000000
01000000
00010000
00000000
00002000
00000000
00000000
,
00013000
00000000
00010000
00001000
00000000
00000200
00000000
00000000
,
00001300
00000000
00001000
00000100
00000000
00000002
00000000
00000000
,
00000103
00000000
00000100
00000001
00000000
00000020
00000000
00000000
,
00000031
00000000
00000001
00000010
00000000
00002000
00000000
00000000
,
00003010
00000000
00000010
00001000
00000000
00020000
00000000
00000000
,
00031000
00000000
00001000
00010000
00000000
02000000
00000000
00000000
,
13000000
00000000
10010000
00000000
,
01000000
00100000
01000000
00100000
01000000
00000000
00000000
00000000
,
01100000
00000000
10010000
00000000
,
01000000
00010000
01000000
00010000
01000000
00000000
00000000
00000000
,
00110000
00000000
01010000
00000000
,
00001000
00010000
00001000
00010000
00001000
00000000
00000000
00000000
,
00011000
00000000
00001100
00000000
,
00000001
00000100
00000000
00000000
00000001
00000000
00001000
00000000
,
00001100
00000000
00000011
00000000
,
00000010
00000100
00000010
00000100
00000010
00000000
00000000
00000000
,
00000110
00000000
00001001
00000000
,
00000001
00001000
00000001
00001000
00000001
00000000
00000000
00000000
,
00001010
00000000
00001100
00000000
,
00001000
00000100
00001000
00000100
00001000
00000000
00000000
00000000
,
00001100
00000000
00011000
00000000
,
00001000
00010000
00000000
00000000
00001000
00010000
00001000
00010000
,
00001000
00000000
00000000
00011000
00000000
00011000
00000000
00000000
,
00010000
00000000
00000000
01010000
00000000
01010000
00000000
00000000
,
10000000
00000000
00000000
10100000
00000000
10100000
00000000
00000000
,
01100000
00000000
00000000
00000000
;

//---------------dance-double - ----------------
#NOTES:
     dance-double:
     :
     Hard:
     10:
     :
00000000
00000000
00000000
00000000
,
00000000
00000000
00000000
00000000
,
00000000
00000000
00000000
00000000
,
00000000
00000000
00000000
00000000
,
00000000
00000000
00000000
00000000
,
00020000
00000000
00000000
00001000
00000000
00001000
00030000
00000000
,
00002000
00000000
00000000
00000100
00000000
00000100
00003000
00000000
,
00000200
00000000
00000000
00000010
00000000
00000010
00000300
00000000
,
00000020
00000000
00000000
00000001
00000000
00000001
00000030
00000000
,
00000010
00000000
00000100
00001000
00000000
00001000
00000100
00000000
,
00001000
00000000
00010000
00001000
00000000
00001000
00010000
00000000
,
01000000
00000000
00000000
00000000
10000000
01000000
00000000
00000000
,
00010000
01000000
00000000
00000000
10000000
01000000
01000000
00000000
,
00100000
10000000
01000000
00010000
00000000
01000000
00010000
00001000
,
00010000
01000000
00010000
00001000
00000000
00001000
00000000
00000000
,
00001000
00010000
00001000
00000100
00000000
00001000
00000100
00000001
,
00000010
00000001
00000100
00001000
00000000
00001000
00000000
00000000
,
00001000
00010000
01000000
10000000
00000000
01000000
10000000
00100000
,
00010000
00100000
10000000
01000000
00000000
01000000
00000000
00000000
,
00100000
00000000
00000000
00000000
00100000
00010000
00000000
00000000
,
00100000
10000000
00000000
00000000
00100000
00010000
00010000
00000000
,
01000000
00010000
00001000
00000100
00000000
00001000
00000100
00000001
,
00000010
00000001
00000100
00001000
00000000
00001000
00000000
00000000
,
00001000
00000100
00000010
00000001
00000000
00000010
00000001
00000100
,
00001000
00000100
00000001
00000010
00000000
00000010
00000000
00000000
,
00000001
00000100
00001000
00010000
00000000
00001000
00010000
01000000
,
10000000
01000000
00010000
00001000
00000000
00001000
00000000
00000000
,
00010000
00000000
00000000
00000000
00010000
01000000
00000000
00000000
,
00010000
00001000
00000000
00000000
00010000
01000000
01000000
00000000
,
00100000
00000000
10000000
01000000
00000000
02000000
00000000
00000000
,
03010000
00000000
00001000
00000100
00000000
00000200
00000000
00000000
,
00000301
00000000
00000010
00001000
00000000
00002000
00000000
00000000
,
00003010
00000000
00000001
00000100
00000000
00000200
00000000
00000000
,
00001300
00000000
00010000
01000000
00000000
02000000
00000000
00000000
,
03100000
00000000
00010000
10000000
00000000
20000000
00000000
00000000
,
31000000
00000000
00010000
00001000
00000000
00002000
00000000
00000000
,
00003100
00000000
00001000
00010000
00000000
00020000
00000000
00000000
,
01030000
00000000
00010000
00001000
00000000
00000100
00000001
00000010
,
00000001
00000000
00000100
00001000
00000000
00002000
00000000
00000000
,
00013000
00000000
00010000
01000000
00000000
10000000
00100000
00010000
,
00001000
00000000
00000010
00000001
00000000
00000002
00000000
00000000
,
00001003
00000000
00000100
00000010
00000000
00000001
00000100
00001000
,
00000100
00000000
00001000
00010000
00000000
00002000
00000000
00000000
,
00013000
00000000
01000000
00010000
00000000
00010000
01000000
10000000
,
00100000
00000000
00010000
00100000
00000000
20000000
00000000
00000000
,
31000000
00010000
00001000
00000100
00000000
00001000
00000100
00000001
,
00000010
00000001
00000100
00001000
00000000
00001000
00000000
00000000
,
00001000
00010000
00001000
00010000
00000000
01000000
10000000
00100000
,
00010000
00100000
10000000
01000000
00000000
01000000
00000000
00000000
,
10000000
00100000
01000000
00010000
00000000
01000000
00010000
00001000
,
00000100
00001000
00010000
01000000
00000000
01000000
00000000
00000000
,
00010000
00000000
00000000
00000000
00010000
01000000
00000000
00000000
,
10000000
01000000
00000000
00000000
00010000
01000000
01000000
00000000
,
00010000
00001000
00000100
00000001
00000000
00000100
00000001
00000010
,
00001000
00000010
00000001
00000100
00000000
00000100
00000000
00000000
,
00000100
00001000
00010000
00001000
00000000
00010000
00001000
00000100
,
00000001
00000100
00001000
00010000
00000000
00010000
00000000
00000000
,
01000000
10000000
00100000
10000000
00000000
00100000
10000000
01000000
,
00010000
01000000
10000000
00100000
00000000
00100000
00000000
00000000
,
01000000
00000000
00000000
00000000
01000000
00010000
00000000
00000000
,
01000000
10000000
00000000
00000000
01000000
00010000
00010000
00000000
,
00001000
00000000
00010000
00001000
00000000
00002000
00000000
00000000
,
00013000
00000000
00001000
00010000
00000000
00020000
00000000
00000000
,
00031000
00000000
00000100
00001000
00000000
00002000
00000000
00000000
,
00003100
00000000
00000000
00000000
;
