#TITLE:Water Melon Woman;
#ARTIST:NAKATEK;
#BANNER:Water Melon Woman-bn.png;
#BACKGROUND:Water Melon Woman-bg.png;
#JACKET:Water Melon Woman-jacket.png;
#MUSIC:Water Melon Woman.ogg;
#SAMPLESTART:8.304;
#SAMPLELENGTH:20;
#DISPLAYBPM:116;
#BPMS:0=115.6;
#BGCHANGES:;

//---------------dance-single - ----------------
#NOTES:
     dance-single:
     :
     Beginner:
     2:
     :
0000
0000
0000
0000
,
0000
0000
0000
0000
,
0000
0000
0000
0000
,
0000
0000
0000
0000
,
1001
0000
0010
0000
,
1000
0000
0001
0000
,
0100
0000
0000
0000
,
0010
0000
0000
0000
,
0110
0000
1000
0000
,
0001
0000
0010
0000
,
0100
0000
0000
0000
,
1000
0000
0000
0000
,
0001
0000
0000
0000
,
1000
0000
1000
0000
,
0010
0000
0000
0000
,
0100
0000
0000
0000
,
0001
0000
1000
0000
,
0010
0000
0100
0000
,
0010
0000
1000
0000
,
0100
0000
0010
0000
,
0001
0000
1000
0000
,
0001
0000
0100
0000
,
0010
0000
0000
0000
,
1000
0000
0000
0000
,
1001
0000
0001
0000
,
1000
0000
0100
0000
,
0010
0000
0000
0000
,
0100
0000
0000
0000
,
0110
0000
0001
0000
,
0100
0000
0010
0000
,
1000
0000
0000
0000
,
0001
0000
0000
0000
,
0001
0000
0000
0000
,
0100
0000
0100
0000
,
0010
0000
0000
0000
,
1000
0000
0000
0000
,
0100
0000
0010
0000
,
0100
0000
1000
0000
,
0001
0000
1000
0000
,
0010
0000
1000
0000
,
0001
0000
0010
0000
,
0100
0000
1000
0000
,
0010
0000
0000
0000
,
0001
0000
0000
0000
,
0110
0000
0000
0000
,
0001
0000
0000
0000
,
1000
0000
0000
0000
,
0100
0000
0000
0010
,
0010
0000
0000
0000
,
0001
0000
0000
0000
,
0100
0000
0000
0000
,
1000
0000
0000
1001
;

//---------------dance-single - ----------------
#NOTES:
     dance-single:
     :
     Easy:
     5:
     :
0000
0000
0000
0000
,
0000
0000
0000
0000
,
0000
0000
0000
0000
,
0000
0000
0000
0000
,
1001
0000
0010
0010
,
1000
0001
0001
0000
,
0100
0100
0000
0000
,
0001
0000
1000
0001
,
0110
0000
1000
1000
,
0100
0010
0010
0000
,
0001
0001
0000
0000
,
0100
0000
0010
1000
,
0002
0000
0000
0003
,
2000
0000
3010
0000
,
0200
0000
0000
0300
,
0020
0000
0000
1030
,
0202
0303
2200
3300
,
0001
0010
0001
1000
,
2200
3300
0202
0303
,
0010
0100
0001
1000
,
2200
3300
0202
0303
,
0001
0010
0001
1000
,
0020
0000
0130
1000
,
0002
0000
0010
0013
,
1001
0000
0010
0010
,
0001
0100
0100
0000
,
1000
1000
0000
0000
,
0010
0000
1000
0001
,
0110
0000
0100
0100
,
0001
1000
1000
0000
,
0010
0010
0000
0000
,
1000
0000
0100
0010
,
0002
0000
0000
0003
,
0200
0000
0310
0000
,
2000
0000
0000
3000
,
0020
0000
0000
1030
,
2020
3030
0022
0033
,
0100
0001
0010
1000
,
2020
3030
0022
0033
,
0001
0010
1000
0100
,
0022
0033
2020
3030
,
1000
0001
0100
0010
,
2000
0000
0010
3001
,
0200
0000
0010
0310
,
2020
0030
3001
0000
,
0022
0030
1003
0000
,
0202
0003
0310
0000
,
2200
3000
1300
1001
,
0002
0010
1003
0000
,
0200
1000
0301
0000
,
2000
0010
3100
0000
,
0020
0001
1030
1001
;

//---------------dance-single - ----------------
#NOTES:
     dance-single:
     :
     Medium:
     9:
     :
0000
0000
0000
0000
,
0000
0000
0000
0000
,
0000
0000
0000
0000
,
0000
0000
0000
0000
,
1001
0000
0000
1000
0100
0010
0001
0000
,
0100
0000
0010
1000
0001
0000
0000
0000
,
0010
0001
1000
0000
0000
0101
0000
0010
,
1000
0100
0000
0000
1001
0000
0110
0000
,
1010
0000
0000
0001
1000
0010
0100
0000
,
0001
0000
1000
0100
0010
0000
0000
0000
,
0100
0010
0001
0000
0000
1100
0000
0010
,
1000
0001
0000
0000
0101
0000
1100
0000
,
0002
1000
0100
1003
,
0020
1000
0100
1030
,
0200
0001
1000
0310
,
2000
0000
0001
0000
3100
1000
0001
1000
,
0002
0000
0000
0100
0200
0000
0303
0000
,
0010
1000
0001
1000
0100
0000
0010
0001
,
2000
0000
0000
0001
0002
0000
3003
0000
,
1000
0010
1000
0001
0000
0000
0100
0010
,
2000
0000
0000
0100
0200
0000
3300
0000
,
0010
0001
1000
0001
0100
0000
0010
0000
,
0100
0000
0000
0101
0000
1010
0000
0000
,
1000
0000
0001
0000
0100
0100
0100
0000
,
1001
0000
0000
0010
0100
0001
1000
0000
,
0100
0000
1000
0010
0001
0000
0000
0000
,
0100
0010
1000
0000
0000
0101
0000
0010
,
0001
1000
0000
0000
0011
0000
1100
0000
,
0101
0000
0000
0100
0001
1000
0010
0000
,
1000
0000
0100
0010
0001
0000
0000
0000
,
0100
0010
1000
0000
0000
0110
0000
0001
,
1000
0001
0000
0000
1010
0000
0011
0000
,
2000
0100
0001
3100
,
0020
0001
1000
0031
,
0200
0010
1000
0310
,
0002
0000
0010
0000
1003
0001
0100
0001
,
2000
0000
0000
0010
0020
0000
3030
0000
,
1000
0100
0010
0001
0100
0000
0010
1000
,
0020
0000
0000
0100
0200
0000
0330
0000
,
0001
0010
0100
1000
0000
0000
0100
1000
,
0002
0000
0000
0010
0020
0000
0033
0000
,
0001
0100
0010
1000
0001
0000
1000
0000
,
0100
0000
0000
0011
0000
1100
0000
0000
,
0010
0000
1000
0000
0100
0100
0100
0000
,
2002
0000
3000
0000
0103
0010
0000
0000
,
0202
0000
0300
0000
1003
0001
0000
0000
,
2200
0000
3000
0000
1300
0100
0000
0000
,
0011
0000
0000
0001
0000
1000
1001
0000
,
0201
0000
1000
0000
0301
0100
0000
0000
,
2010
0000
0100
0000
3001
0010
0000
0000
,
0021
0000
1000
0000
0031
0010
0000
0000
,
2100
0000
3001
0000
1000
0100
1001
0000
;

//---------------dance-single - ----------------
#NOTES:
     dance-single:
     :
     Hard:
     11:
     :
0000
0000
0000
0000
,
0000
0000
0000
0000
,
0000
0000
0000
0000
,
0000
0000
0000
0000
,
1001
0000
0010
1000
0100
0001
0001
0000
,
0010
0000
0001
0100
1000
0010
0010
0000
,
0100
0100
0100
0001
1000
0101
0000
0010
,
1000
1000
0100
0010
0011
0000
1100
0000
,
0101
0000
0010
1000
0001
0100
0100
0000
,
0001
0000
1000
0010
0100
0001
0001
0000
,
0010
0010
0010
0001
1000
1100
0000
0001
,
1000
0000
1000
0000
0100
0000
1000
0001
1000
0000
0000
0000
0110
0000
0001
0100
,
0002
0000
0000
0000
0010
0000
0000
0000
1000
0000
0000
0000
0013
0000
1000
0100
,
2000
0000
0000
0000
0010
0000
0000
0000
3002
0000
0100
0000
0103
0000
0010
1000
,
0020
0000
0100
0000
0001
1000
1030
0010
,
0200
0000
0001
0000
1000
0001
0301
0100
,
0020
1000
1030
1100
0201
0001
0301
0000
,
0010
0001
1000
0001
0100
0010
0010
1000
,
0200
0010
0310
0011
1020
1000
1030
0000
,
0001
0100
0010
1000
0200
0000
0310
0001
,
2000
0001
3001
0101
1200
1000
1300
0000
,
0001
1000
0010
1000
0001
0100
0100
0000
,
0010
1000
0001
0011
0000
1100
0001
0000
,
0100
0010
1000
0001
0110
0110
0110
0000
,
1001
0000
0001
0010
1000
1000
1000
0000
,
0100
0000
0010
0001
0001
1000
1000
0000
,
0001
0001
0001
0100
0010
1010
0000
0100
,
0010
0010
1000
0001
0011
0000
1100
0000
,
0101
0000
1000
0001
0010
0010
0010
0000
,
0100
0000
1000
0010
0010
0001
0001
0000
,
0100
0100
0100
0001
1000
0011
0000
1000
,
0010
0000
0010
0000
0100
0000
0001
0000
1001
0000
0000
0000
0110
0000
1000
0001
,
2000
0000
0000
0000
0010
0000
0000
0000
0001
0000
0000
0000
3010
0000
0100
0001
,
0200
0000
0000
0000
0010
0000
0000
0000
0302
0000
1000
0000
1003
0000
0001
0010
,
0002
0000
1000
0000
0100
0100
1003
0001
,
0020
0000
1000
0000
0031
0100
0100
0010
,
2000
0001
3001
0101
2010
0010
3010
0000
,
0100
1000
0001
0100
0010
1000
1000
0001
,
0020
0100
0130
1100
0012
1000
1003
0000
,
0001
0010
1000
0100
0020
0000
0031
1000
,
0002
0100
0103
1010
0201
0010
0310
0000
,
1000
0001
0010
0001
1000
0100
0100
0000
,
0010
0001
1000
1010
0000
0101
0010
0000
,
1000
0001
1000
0010
0110
0110
0110
0000
,
2001
0000
0010
0000
3100
0011
0000
1000
,
1000
0001
0100
0010
1000
0101
0000
0001
,
0002
0010
1000
0000
0103
1010
0000
0100
,
0010
1000
0010
0100
0000
0001
0110
0000
,
2010
0001
3001
0100
0010
1100
0000
1000
,
1000
0001
0010
0001
0100
1001
0000
0010
,
0020
1000
0100
1000
1030
0101
0000
0001
,
0001
1000
0100
0010
0001
0011
1001
0000
;
