#VERSION:0.83;
#TITLE:Water Melon Woman;
#SUBTITLE:(BEST HITS remix);
#ARTIST:NAKATEK;
#TITLETRANSLIT:;
#SUBTITLETRANSLIT:;
#ARTISTTRANSLIT:;
#GENRE:;
#ORIGIN:;
#CREDIT:;
#BANNER:Water Melon Woman (BEST HITS remix)-bn.png;
#BACKGROUND:Water Melon Woman (BEST HITS remix)-bg.png;
#PREVIEWVID:;
#JACKET:Water Melon Woman (BEST HITS remix)-jacket.png;
#CDIMAGE:;
#DISCIMAGE:;
#LYRICSPATH:;
#CDTITLE:;
#MUSIC:Water Melon Woman (BEST HITS remix).ogg;
#OFFSET:-0.050000;
#SAMPLESTART:8.354000;
#SAMPLELENGTH:20.000000;
#SELECTABLE:YES;
#DISPLAYBPM:116.000000;
#BPMS:0.000=115.600;
#STOPS:;
#DELAYS:;
#WARPS:;
#TIMESIGNATURES:0.000=4=4;
#TICKCOUNTS:0.000=4;
#COMBOS:0.000=1;
#SPEEDS:0.000=1.000=0.000=0;
#SCROLLS:0.000=1.000;
#FAKES:;
#LABELS:0.000=Song Start;
#BGCHANGES:;
#KEYSOUNDS:;
#ATTACKS:
;

//---------------dance-single - ----------------
#NOTEDATA:;
#CHARTNAME:;
#STEPSTYPE:dance-single;
#DESCRIPTION:;
#CHARTSTYLE:;
#DIFFICULTY:Hard;
#METER:14;
#RADARVALUES:0.596521,0.609364,0.335139,0.271734,0.525353,461.000000,424.000000,37.000000,30.000000,0.000000,0.000000,0.000000,0.000000,0.000000,0.596521,0.609364,0.335139,0.271734,0.525353,461.000000,424.000000,37.000000,30.000000,0.000000,0.000000,0.000000,0.000000,0.000000;
#CREDIT:;
#DISPLAYBPM:116.000000;
#NOTES:
0000
0000
0000
0000
,
0000
0000
0000
0000
,
0000
0000
0000
0000
,
0000
0000
0000
0000
,
1010
0000
0001
0000
0100
0000
1000
0000
0001
0000
0010
0100
1000
0000
0000
0000
,
0101
0000
0000
0000
0000
0000
1100
0000
0000
1000
0010
0100
0001
0000
0000
0010
0000
0000
0010
0000
0000
0000
0000
0000
,
1001
0110
1001
0100
0100
0010
1000
0001
,
0010
0000
0010
0000
0001
0100
0000
0100
0000
0010
1000
0000
0110
0000
0000
0000
,
0102
1000
1003
0001
0010
0001
0200
0000
,
0310
1000
0100
0001
0200
1000
1300
0001
,
0010
0100
1002
0010
1003
0201
0010
0000
,
0301
0100
2000
0000
0100
0000
0010
0000
3001
1000
0001
0000
0100
0000
0010
1000
,
0001
0010
0100
1000
0011
0000
1100
0000
,
0001
0000
0100
0010
1000
0000
0001
0000
1010
0000
0100
0000
0011
0000
0100
0000
,
1000
0001
1000
0000
0010
0000
0100
0000
0101
0000
0001
0000
1010
0000
0000
0000
,
0001
0000
0010
0000
0001
0000
0100
0000
1000
0000
0010
0000
0010
0100
0001
1000
,
0200
0000
0010
0000
0310
0000
0001
0100
1000
0100
0001
0000
1001
0000
0000
0000
,
0010
0000
1000
0000
0100
0010
0001
0100
0010
0000
1000
0001
1000
0000
0100
0000
,
0020
0000
0001
0000
0031
0000
1000
0010
0001
0010
1000
0000
1001
0000
0000
0000
,
0100
0000
0001
0000
0010
0100
0010
0100
1000
0001
1000
0001
0100
0000
0010
1000
,
0001
0000
0100
0010
1000
0000
0100
0010
0001
0000
1001
0000
0110
0000
0000
0000
,
1000
0000
0010
0000
1000
0001
0010
0100
1000
0000
0000
0000
0001
0100
0001
0100
,
0001
0000
1010
0100
0001
1000
1000
0000
,
0010
0000
1000
0000
0100
0000
1000
0010
0001
0000
0110
0000
1000
0100
1000
0000
,
2100
0000
0001
0000
3001
0100
0010
0000
2000
0000
3002
0000
0023
0000
0000
0000
,
0032
0000
0000
0000
0000
0000
1003
0000
0000
0001
0100
0010
2000
0000
0000
0100
0000
0000
3100
0000
0000
0001
0000
0000
,
0020
0000
0230
0000
2300
0000
0001
0000
3001
0000
1000
0000
0010
0000
1000
0100
,
0002
0000
0000
0000
0013
0001
0000
0001
0000
1000
0010
0000
0100
0001
0100
0010
,
1000
0000
0001
0000
0100
0000
0010
1000
0100
0000
1000
0000
0001
0000
0000
0100
,
0001
0000
0000
0010
0000
0000
0100
0000
0000
2000
0000
0000
0000
0000
0000
0000
0000
0000
3001
0000
0000
0000
0000
0000
1000
0000
0000
0000
0010
0000
0000
0000
0100
0000
0000
0000
0001
0000
0000
0000
0010
0000
0000
0000
0100
0000
0000
0000
,
0000
0000
2000
0000
0001
0000
0100
0000
0100
0000
3010
0000
1000
0001
1000
0010
,
0000
0210
0000
0000
0301
0100
0010
1000
0000
0100
0010
0001
0000
1000
0010
1000
,
0001
0010
1000
0100
1010
0000
0101
0000
,
1000
0000
0001
0100
0001
0000
0000
0000
0012
0000
0100
0000
1003
0000
0000
0000
,
0001
0000
0000
1000
0000
0000
0010
0000
0000
1000
0000
0000
0100
0000
0000
0010
0000
0000
0001
0000
0000
1000
0010
1000
,
0010
0000
0100
0000
0001
0000
0000
0000
0011
0000
1000
0000
1000
0001
0100
0010
,
1000
0000
0100
1000
0001
0000
0100
0010
1000
0000
0110
0000
1001
0000
0000
0000
,
0010
0000
1000
0000
0100
0010
0100
0010
0001
0000
1000
0010
1000
0000
0001
0000
,
0100
0000
0010
0000
1000
0000
0001
0010
0100
0000
1100
0000
0101
0000
0000
0000
,
0010
0000
1000
0000
0001
0100
0010
1000
0100
0010
0100
1000
0001
0000
0100
0010
,
1000
0000
0001
0010
0001
0000
1000
0010
1000
0000
1001
0000
1100
0000
0000
0000
,
0010
0000
0001
0000
1000
0010
0100
0001
1000
0100
1000
0000
0001
0100
0001
0000
,
0110
0000
0001
0100
1000
0010
0010
0100
,
0001
0000
1000
0000
0010
0000
1000
0000
0100
0010
0100
0010
0100
1000
0100
1000
,
0002
0000
0000
0100
0000
1000
0000
1003
0001
0100
0010
0000
0000
0000
0000
0000
,
0020
0000
0000
1000
0000
0100
0000
1030
0010
0100
0001
0000
0000
0000
0000
0000
,
2000
0000
0000
0010
0000
0100
0000
3001
1000
0100
0010
0000
0000
0000
0000
0000
,
0002
0000
0000
1000
0000
1000
0000
0000
0103
0010
0000
0000
1001
0000
0100
0001
,
0020
0000
0000
1000
0000
0001
0000
0130
0010
0001
1000
0000
0000
0000
0000
0000
,
0200
0000
0000
0001
0000
0010
0000
1300
0100
1000
0001
0000
0000
0000
0000
0000
,
2000
0000
0000
0001
0000
0100
0000
3001
1000
0010
0100
0000
0000
0000
0000
0000
,
0002
0000
0000
0000
1003
0010
1000
0001
0010
0100
1000
0000
1001
0000
0000
0000
;

//---------------dance-single - ----------------
#NOTEDATA:;
#CHARTNAME:;
#STEPSTYPE:dance-single;
#DESCRIPTION:;
#CHARTSTYLE:;
#DIFFICULTY:Medium;
#METER:11;
#RADARVALUES:0.406307,0.398430,0.298908,0.407601,0.140396,314.000000,281.000000,33.000000,45.000000,0.000000,0.000000,0.000000,0.000000,0.000000,0.406307,0.398430,0.298908,0.407601,0.140396,314.000000,281.000000,33.000000,45.000000,0.000000,0.000000,0.000000,0.000000,0.000000;
#CREDIT:;
#DISPLAYBPM:116.000000;
#NOTES:
0000
0000
0000
0000
,
0000
0000
0000
0000
,
0000
0000
0000
0000
,
0000
0000
0000
0000
,
0110
0001
0100
0001
1000
0100
0100
0000
,
1001
0000
0010
1000
0001
0000
0000
0000
,
1000
1000
1000
0001
0010
0001
0100
0010
,
1000
0000
2000
0000
0001
0000
0000
0010
0000
0000
3001
0000
1001
0000
0000
0000
,
0202
0000
0300
1000
1003
0001
0100
0000
,
0010
1000
0001
1000
0020
0000
0030
0100
,
0001
1000
0002
0000
0013
0200
0000
0000
,
1300
0001
2000
0000
0010
0000
0000
0000
0100
0000
0000
0000
3001
0000
1000
0010
,
2000
0001
0100
3010
,
0100
0001
1000
0000
1010
0000
0101
0000
,
0001
0010
0100
0000
1100
0000
0011
0000
,
1000
0001
1000
0010
0000
0100
0100
0001
,
2000
0000
3010
0100
0001
0101
0101
0000
,
0010
1000
0001
1000
0100
0000
0100
0010
,
0002
0000
0103
0010
1000
1100
1100
0000
,
0001
1000
0001
0100
0010
0000
0010
1000
,
0200
0000
1300
0001
0010
0011
0011
0000
,
1000
0001
1000
0010
0200
0000
0301
0000
,
2010
0000
0001
0000
0100
0100
3100
0000
,
0001
0000
1000
0000
0001
0000
0100
0010
0100
0000
0001
0000
1000
0000
0000
0000
,
2200
0000
0300
0001
3001
1000
0200
0000
,
0320
0000
0031
0100
2000
0000
3000
0010
,
1000
0001
2000
0010
3010
0100
0001
1000
,
0102
0000
0000
0000
1000
0000
0000
0010
0000
0000
1003
0000
0001
0100
0001
0200
,
0000
0000
0000
0000
0310
0000
0000
2000
0000
0000
0001
0000
3001
0000
0000
0000
,
1000
0000
0000
0100
0000
0000
0010
0000
0000
0000
0001
0000
1000
0000
0100
0000
,
0000
0000
0120
0000
0001
0000
0000
0000
1000
0000
0000
0000
0031
0000
0000
0100
,
0000
0000
0010
0000
1000
0100
1000
0100
0000
0000
0010
0001
0000
0000
1000
0010
,
2000
0001
0100
3010
,
1000
0100
0001
0000
0010
0100
1000
0000
,
0001
0000
0100
0000
0010
0000
2000
0000
0000
0000
0000
0000
3000
0000
0001
0100
,
0002
0000
0010
0000
1003
0001
0001
1000
,
0020
0000
1030
0001
0100
1001
1001
0000
,
0010
1000
0001
0010
0100
0000
0100
1000
,
0002
0000
1003
0001
0100
1010
1010
0000
,
0010
1000
0100
0010
0001
0000
0001
1000
,
0020
0000
0130
0001
1000
0110
0110
0000
,
0001
0100
0010
1000
0200
0000
0310
0000
,
0012
0000
1000
0000
0100
0100
0103
0000
,
1000
0000
0001
0000
0100
0000
0000
0000
0010
1000
0010
1000
0010
0000
0000
0000
,
0202
0000
0000
0000
0303
0000
0000
1000
0001
1000
0000
0000
0000
0000
0000
0000
,
2200
0000
0000
0000
3300
0000
0000
0001
1000
0001
0000
0000
0000
0000
0000
0000
,
0220
0000
0000
0000
0330
0000
0000
0001
1000
0001
0000
0000
0000
0000
0000
0000
,
0022
0000
0000
0000
0033
0000
0000
0000
1000
0001
0000
1000
0001
0000
0100
0000
,
2020
0000
0000
0000
3030
0000
0000
0010
0100
0010
0000
0000
0000
0000
0000
0000
,
0202
0000
0000
0000
0303
0000
0000
0100
0010
0100
0000
0000
0000
0000
0000
0000
,
2002
0000
0000
0000
3003
0000
0000
0100
0010
0100
0000
0000
0000
0000
0000
0000
,
0001
0010
0001
0100
0010
1000
1001
0000
;

//---------------dance-single - ----------------
#NOTEDATA:;
#CHARTNAME:;
#STEPSTYPE:dance-single;
#DESCRIPTION:;
#CHARTSTYLE:;
#DIFFICULTY:Easy;
#METER:8;
#RADARVALUES:0.260088,0.281245,0.063405,0.434775,0.000000,201.000000,194.000000,7.000000,48.000000,0.000000,0.000000,0.000000,0.000000,0.000000,0.260088,0.281245,0.063405,0.434775,0.000000,201.000000,194.000000,7.000000,48.000000,0.000000,0.000000,0.000000,0.000000,0.000000;
#CREDIT:;
#DISPLAYBPM:116.000000;
#NOTES:
0000
0000
0000
0000
,
0000
0000
0000
0000
,
0000
0000
0000
0000
,
0000
0000
0000
0000
,
1010
0000
0000
0001
1000
0001
0100
0000
,
0010
0000
0010
1000
0001
0000
0000
0000
,
1000
1000
1000
0000
0000
0000
0000
0001
,
0010
0200
0000
0000
0000
0000
0300
0000
,
2000
0000
3000
0001
1000
0001
0100
0000
,
0010
0000
0010
1000
0001
0000
0000
0100
,
0001
1000
0200
0000
0300
0020
0000
0030
,
0001
0002
0000
0000
0003
0000
0000
0000
,
2000
0010
0010
3010
,
0200
0301
0210
0301
,
0020
0100
0100
0130
,
2000
0000
0001
0000
3001
0100
0010
0100
,
0020
0000
0030
1000
2000
0000
3000
0000
,
0001
0000
0100
0000
0010
0000
1000
0001
,
2000
0000
3000
0100
0200
0000
0300
0000
,
0010
0001
1000
0001
0000
0000
0100
0010
,
2000
0000
3000
0001
0002
0000
0003
0000
,
0010
0001
0100
1000
,
2200
0000
0000
3300
,
0202
0000
0303
0000
1000
1000
1000
0000
,
0020
0000
0030
1000
0001
1000
0100
0000
,
0020
0000
0031
1000
0002
0000
0003
0100
,
0010
0100
0002
0000
0003
0000
0000
1000
,
0200
0000
0300
0000
,
2000
0000
3000
0000
0001
0100
0001
0000
,
0010
0001
1000
0001
0000
0100
0010
1000
,
0000
0002
0000
0000
0000
0003
1000
0010
,
1000
0200
0000
0000
0000
0000
0000
0300
,
2000
0001
0001
3001
,
0020
0130
0210
1300
,
0002
1000
1000
1003
,
0020
0000
1000
0000
1030
0001
1000
0001
,
0200
0000
0300
0001
0002
0000
0003
0000
,
0010
0000
0001
0000
0100
0000
1000
0010
,
2000
0000
3000
0100
0200
0000
0300
0000
,
1000
0100
0010
0001
0000
0000
0100
0010
,
0200
0000
0300
0001
0002
0000
0003
0000
,
1000
0100
0001
0010
,
0012
1000
0100
1000
,
0010
0000
0103
0000
0001
0001
0001
0000
,
2000
0000
0010
0000
0001
3001
0000
0000
,
0200
0000
0001
0000
0010
0310
0000
0000
,
0002
0000
1000
0000
0100
0103
0000
0000
,
0020
0000
1000
0000
0130
0000
0001
0001
,
2000
0000
0010
0000
0100
3100
0000
0000
,
0020
0000
1000
0000
0001
0031
0000
0000
,
0200
0000
1000
0000
0010
0310
0000
0000
,
0002
0000
1003
0010
1000
0000
1001
0000
;

//---------------dance-single - ----------------
#NOTEDATA:;
#CHARTNAME:;
#STEPSTYPE:dance-single;
#DESCRIPTION:;
#CHARTSTYLE:;
#DIFFICULTY:Beginner;
#METER:4;
#RADARVALUES:0.131985,0.210934,0.135867,0.099636,0.000000,102.000000,87.000000,15.000000,11.000000,0.000000,0.000000,0.000000,0.000000,0.000000,0.131985,0.210934,0.135867,0.099636,0.000000,102.000000,87.000000,15.000000,11.000000,0.000000,0.000000,0.000000,0.000000,0.000000;
#CREDIT:;
#DISPLAYBPM:116.000000;
#NOTES:
0000
0000
0000
0000
,
0000
0000
0000
0000
,
0000
0000
0000
0000
,
0000
0000
0000
0000
,
0010
0000
1000
0000
,
0100
0100
0100
0000
,
1000
1000
0000
0000
,
0002
0000
0003
0000
,
0100
0000
0010
0000
,
1000
1000
1000
0000
,
0001
0001
0000
0000
,
0020
0000
0030
0000
,
0001
0000
0000
0000
,
1000
0000
0010
0000
,
1000
0000
0000
0000
,
0100
0000
0000
0000
,
1001
0000
0110
0000
,
1000
1000
1000
0000
,
1001
0000
0110
0000
,
0001
0001
0000
0000
,
1001
0000
0110
0000
,
0100
0100
0100
0000
,
0101
0000
0000
0000
,
1000
0000
0001
0001
,
0001
0000
0010
0000
,
0100
0100
0100
0000
,
1000
1000
0000
0000
,
0020
0000
0030
0000
,
0100
0000
0001
0000
,
0010
0010
0000
0100
,
0000
1000
0000
0001
,
0002
0000
0003
0000
,
0100
0000
0000
0000
,
0010
0000
1000
0000
,
0001
0000
0000
0000
,
1000
0000
0000
0000
,
1001
0000
0110
0000
,
0010
0010
0010
0000
,
1001
0000
0110
0000
,
1000
1000
0000
0000
,
1001
0000
0110
0000
,
0001
0001
0001
0000
,
1010
0000
0000
0000
,
0010
0000
0100
0100
,
0200
0000
0300
0000
,
0020
0000
0030
0000
,
2000
0000
3000
0000
,
0002
0000
0003
0000
,
2000
0000
3000
0000
,
0002
0000
0003
0000
,
0200
0000
0300
0000
,
0010
0000
0000
1001
;

//---------------dance-single - ----------------
#NOTEDATA:;
#CHARTNAME:;
#STEPSTYPE:dance-single;
#DESCRIPTION:;
#CHARTSTYLE:;
#DIFFICULTY:Challenge;
#METER:16;
#RADARVALUES:0.746622,0.749986,0.271734,0.326081,0.919367,577.000000,547.000000,30.000000,36.000000,0.000000,0.000000,0.000000,0.000000,0.000000,0.746622,0.749986,0.271734,0.326081,0.919367,577.000000,547.000000,30.000000,36.000000,0.000000,0.000000,0.000000,0.000000,0.000000;
#CREDIT:;
#DISPLAYBPM:116.000000;
#NOTES:
// measure 0
0000
0000
0000
0000
,  // measure 1
0000
0000
0000
0000
,  // measure 2
0000
0000
0000
0000
,  // measure 3
0000
0000
0000
0000
,  // measure 4
0110
0000
0001
0000
0010
0100
1000
0000
0001
0000
1000
0001
0100
0000
0010
0000
,  // measure 5
1000
0000
0000
0000
0000
0000
0000
0000
0000
0000
0000
0000
0000
0000
0000
0000
0000
0000
0000
0000
0000
0000
0000
0000
0100
0000
0000
0000
0000
0000
0000
0000
0000
0000
0000
0000
0000
0000
0000
0000
0000
0000
0000
0000
0000
0000
0000
0000
0010
0000
0000
0000
0000
0000
0000
0000
0000
0000
0000
0000
0000
0000
0000
0000
0000
0000
0000
0000
0000
0000
0000
0000
0001
0000
0000
0000
0000
0000
0000
0000
1000
0000
0000
0000
0000
0000
0000
0000
0010
0000
0000
0000
0000
0000
0000
0000
0100
0000
0000
0000
0000
0000
0000
0000
0000
0000
0000
0000
0000
0000
0000
0000
0000
0000
0000
0000
0000
0000
0000
0000
0001
0000
0000
0000
0000
0000
0000
0000
0000
0000
0000
0000
0000
0000
0000
0000
0000
0000
0000
0000
0000
0000
0000
0000
1000
0000
0000
0000
0000
0000
0000
0000
0000
0000
0000
0000
0000
0000
0000
0000
0000
0000
0000
0000
0000
0000
0000
0000
0001
0000
0000
0000
0000
0000
0000
0000
0000
0000
0000
0000
0000
0000
0000
0000
0000
0000
0010
0000
0000
0000
0000
0000
,  // measure 6
0200
0000
0000
0000
2300
0000
0000
0000
3002
0000
0000
0000
1003
0000
0000
0000
0010
0000
0000
0000
0100
0000
0000
0000
0001
0000
0000
0001
2000
0000
0000
0000
,  // measure 7
3020
0000
0000
0000
0230
0000
0000
0000
0301
0000
1000
0010
1000
0000
0001
0000
0000
0000
0100
0000
0100
0000
0010
0000
1001
0000
0000
0000
0000
0000
0000
0000
,  // measure 8
2010
0001
3100
2000
3002
0023
0230
1000
,  // measure 9
0310
0000
0001
0000
1000
0001
0010
0000
0100
0000
1000
0010
1000
0000
0002
0000
,  // measure 10
0023
0000
0230
0000
2300
0000
0001
0000
3010
0000
0101
1000
0100
0000
0000
0000
,  // measure 11
0010
0001
2000
0000
3001
0000
0100
0010
1000
0001
0010
0001
0100
0010
1000
0001
,  // measure 12
0100
0000
0000
0000
0001
0000
0010
0000
0001
0000
0000
0000
1000
0000
0000
0000
1010
0000
0000
0000
0001
0000
0000
0000
0011
0000
0000
0000
0000
0000
0001
0100
,  // measure 13
0001
0000
1000
0010
1000
0000
0001
0000
0101
0000
0010
0000
1100
0000
0010
0000
,  // measure 14
0001
0100
0001
0000
1000
0000
0000
0000
1001
0000
0100
0000
0110
0000
0001
0000
,  // measure 15
0010
0100
1000
0001
1000
0000
0010
0000
0100
0000
0001
0000
0001
0010
1000
0100
,  // measure 16
0001
0000
0000
0000
0000
0000
1000
0000
0100
0000
0010
0000
0001
0000
0000
0000
0000
0000
0100
0000
0000
0010
0000
0000
1000
0000
0000
0100
0000
0000
0001
0000
0000
0000
0000
0000
1001
0000
0000
0000
0000
0000
0010
0000
0000
1000
0000
0000
,  // measure 17
0100
0000
0000
0000
0010
0000
0001
1000
0001
0000
0100
0000
0010
0000
1000
0000
0100
0000
0010
0000
0001
0000
0100
0000
1000
0000
0000
0000
0010
0000
0100
0000
,  // measure 18
0001
0000
0000
0000
0000
0000
1000
0000
0010
0000
0100
0000
0001
0000
0000
0000
0000
0000
1000
0000
0000
0100
0000
0000
0010
0000
0000
0001
0000
0000
0100
0000
0000
0000
0000
0000
1010
0000
0000
0000
0000
0000
0001
0000
0000
1000
0000
0000
,  // measure 19
0001
0000
0000
0000
0100
0000
0010
1000
0010
0000
0100
0000
0001
0000
0010
0000
0001
0000
0100
0000
1000
0000
0010
0000
0100
0000
0000
0000
0001
0000
1000
0000
,  // measure 20
0001
0000
0000
0000
0000
0000
1000
0000
0001
0000
0100
0000
0010
0000
0000
0000
0000
0000
1000
0000
0000
0001
0000
0000
0010
0000
0000
0100
0000
0000
1000
0000
0000
0000
0000
0000
1100
0000
0000
0000
0000
0000
0001
0000
0000
1000
0000
0000
,  // measure 21
0001
0000
0000
0000
0100
0000
0001
0010
0001
0000
1000
0000
0010
0000
0100
0000
0001
0000
0010
0000
0100
0000
1000
0000
0010
0000
0100
0000
0010
0000
0100
0000
,  // measure 22
0001
0000
0000
0000
0000
0000
0000
0000
0011
0000
0100
0000
1000
0000
0000
0000
0001
0000
0100
0000
0001
0000
0000
0000
1000
0000
0000
0000
0010
0000
0000
1000
,  // measure 23
0001
0000
1000
0000
0000
0000
0010
0000
0000
0000
0000
0000
0100
0000
0000
0000
0000
0000
0001
0000
0000
0010
0000
0000
0100
0000
0000
0000
0000
0000
1001
0000
0000
0000
0000
0000
0010
0000
0000
0100
0000
0000
0001
0000
0000
0000
0000
0000
,  // measure 24
0210
0000
0000
0000
1000
0000
0000
0000
0301
0000
0000
0100
0020
0000
0000
0000
2030
0000
0000
0000
3002
0000
0000
0000
0023
0000
0000
0000
0130
0000
0000
0000
,  // measure 25
2000
0000
0000
0000
0000
0000
0000
0000
0000
0000
0000
0000
0000
0000
0000
0000
0000
0000
0000
0000
0000
0000
0000
0000
0010
0000
0000
0000
0000
0000
0000
0000
0000
0000
0000
0000
0000
0000
0000
0000
0000
0000
0000
0000
0000
0000
0000
0000
3001
0000
0000
0000
0000
0000
0000
0000
0000
0000
0000
0000
0000
0000
0000
0000
0000
0000
0000
0000
0000
0000
0000
0000
0100
0000
0000
0000
0000
0000
0000
0000
0010
0000
0000
0000
0000
0000
0000
0000
1000
0000
0000
0000
0000
0000
0000
0000
0002
0000
0000
0000
0000
0000
0000
0000
0000
0000
0000
0000
0000
0000
0000
0000
0000
0000
0000
0000
0000
0000
0000
0000
0010
0000
0000
0000
0000
0000
0000
0000
0000
0000
0000
0000
0000
0000
0000
0000
0000
0000
0000
0000
0000
0000
0000
0000
1003
0000
0000
0000
0000
0000
0000
0000
0000
0000
0000
0000
0000
0000
0000
0000
0000
0000
0000
0000
0000
0000
0000
0000
0001
0000
0000
0000
0000
0000
0000
0000
0000
0000
0000
0000
0000
0000
0000
0000
0000
0000
1000
0000
0000
0000
0000
0000
,  // measure 26
0020
0000
0230
0000
0302
0000
0010
0000
1003
0000
0100
0000
0010
0000
0001
0100
,  // measure 27
0002
0000
0000
0000
1000
0000
0000
0000
0103
0000
0010
1000
0010
0000
0100
0000
0000
0000
0001
0000
0001
0000
0000
0000
1000
0000
0100
0000
0010
0000
0002
0000
,  // measure 28
0100
0000
0000
0000
1000
0000
0000
0000
1003
0000
0000
0000
0010
0000
0200
0000
0001
0000
0000
0000
1000
0000
0000
0000
0301
0000
0000
0000
0000
0100
0010
0000
,  // measure 29
1000
0000
0000
0001
0000
0000
0010
0000
0000
0200
0000
0000
0000
0000
0000
1000
0000
0000
1300
0000
0000
0000
0000
0000
0001
0000
0000
0000
1010
0000
0000
0000
0101
0000
0000
0000
0011
0000
0000
0000
1100
0000
0000
0000
0101
0000
0000
0000
,  // measure 30
1000
0000
0000
0000
0020
0100
0000
0000
0001
0000
0000
0000
1000
0000
0000
0000
1000
0000
0000
0000
0031
0000
0000
0000
0100
0000
0001
0000
1000
0000
0001
0000
,  // measure 31
0000
0000
0020
0000
0100
0000
0000
0031
1000
0000
0010
0000
0100
0000
1001
0000
0000
0000
0010
0000
1000
0000
0110
0000
0000
0000
0001
0000
0010
0000
0100
0000
,  // measure 32
2100
0001
0010
0001
0100
0010
3100
0000
,  // measure 33
0110
0000
0001
1000
0001
0000
0100
0000
0020
0000
1000
0000
1030
0000
0001
0000
,  // measure 34
1000
0000
0000
0100
0000
0000
0010
0000
0000
0000
0000
0000
0001
0000
0000
0000
0000
0000
2000
0000
0000
0000
0000
0000
0010
0000
0000
0000
0000
0000
0001
0000
0000
0000
0000
0000
3100
0000
0000
0000
0000
0000
1000
0000
0010
0000
0100
0000
,  // measure 35
0002
0000
0000
0000
0000
0000
0000
0000
0010
0000
0000
0000
1000
0000
0000
0000
1003
0000
0000
0000
0001
0000
0000
0010
0100
0000
1000
0000
0001
0000
0100
0010
,  // measure 36
1000
0000
0000
0000
0000
0000
0001
0000
0100
0000
0010
0000
1000
0000
0000
0000
0000
0000
0100
0000
0000
0010
0000
0000
0001
0000
0000
0100
0000
0000
0010
0000
0000
0000
0000
0000
0101
0000
0000
0000
0000
0000
1000
0000
0000
0001
0000
0000
,  // measure 37
1000
0000
0000
0000
0010
0000
0100
0001
1000
0000
0010
0000
1000
0000
0001
0000
0010
0000
0100
0000
1000
0000
0001
0000
0100
0000
0000
0000
0001
0000
0010
0000
,  // measure 38
1000
0000
0000
0000
0000
0000
0100
0000
1000
0000
0001
0000
0010
0000
0000
0000
0000
0000
0001
0000
0000
0100
0000
0000
0010
0000
0000
1000
0000
0000
0100
0000
0000
0000
0000
0000
0011
0000
0000
0000
0000
0000
0001
0000
0000
1000
0000
0000
,  // measure 39
0010
0000
0000
0000
0100
0000
0001
1000
0100
0000
0010
0000
0001
0000
0100
0000
0001
0000
1000
0001
0100
0000
0010
0000
1000
0000
0000
0000
0100
0000
0010
0000
,  // measure 40
0001
0000
0000
0000
0000
0000
1000
0000
0001
0000
0010
0000
0100
0000
0000
0000
0000
0000
1000
0000
0000
0001
0000
0000
0010
0000
0000
1000
0000
0000
0100
0000
0000
0000
0000
0000
0110
0000
0000
0000
0000
0000
0010
0000
0000
0001
0000
0000
,  // measure 41
0100
0000
0000
0000
0000
0000
0000
0000
0000
0000
0000
0000
0000
0000
0000
0000
0000
0000
0000
0000
0000
0000
0000
0000
0010
0000
0000
0000
0000
0000
0000
0000
0000
0000
0000
0000
1000
0000
0000
0000
0000
0000
0100
0000
0000
0000
0000
0000
0010
0000
0000
0000
0000
0000
0000
0000
0000
0000
0000
0000
0001
0000
0000
0000
0000
0000
0000
0000
0000
0000
0000
0000
0100
0000
0000
0000
0000
0000
0000
0000
0000
0000
0000
0000
0010
0000
0000
0000
0000
0000
0000
0000
0000
0000
0000
0000
1000
0000
0000
0000
0000
0000
0000
0000
0000
0000
0000
0000
0001
0000
0000
0000
0000
0000
0000
0000
0000
0000
0000
0000
0010
0000
0000
0000
0000
0000
0000
0000
0000
0000
0000
0000
0000
0000
0000
0000
0000
0000
0000
0000
0000
0000
0000
0000
0001
0000
0000
0000
0000
0000
0000
0000
0100
0000
0000
0000
0000
0000
0000
0000
1000
0000
0000
0000
0000
0000
0000
0000
0010
0000
0000
0000
0000
0000
0000
0000
0000
0000
0000
0000
0100
0000
0000
0000
0000
0000
0000
0000
0000
0000
0000
0000
,  // measure 42
0001
0000
1000
0100
0001
0000
0010
0000
0001
0000
0100
0000
1000
0000
0010
0000
,  // measure 43
0100
0000
0000
0000
0001
0000
0000
0000
1000
0000
0000
0000
0010
0000
0000
1000
0100
0000
0010
0000
0001
0000
0100
0000
0010
0000
1000
0000
0100
0000
0001
0000
,  // measure 44
0010
0000
0000
0000
0001
0000
1000
0000
0000
0000
1000
0000
0000
0000
0010
1000
0010
0000
0100
0000
0001
0000
0000
0000
0000
0000
1000
0000
0000
0000
0001
0100
,  // measure 45
0001
0000
0000
0000
0010
0000
0100
0000
0000
0000
0100
0000
0000
0000
1000
0001
1000
0000
0010
0000
0100
0000
0000
0000
0001
0000
0000
0000
0000
0000
0000
0000
,  // measure 46
0010
0000
0000
0000
0001
0000
1000
0000
0000
0000
1000
0000
0000
0000
0010
0100
0010
0000
1000
0000
0001
0000
0000
0000
0100
0000
0000
0000
0000
0000
0000
0000
,  // measure 47
0010
0000
0000
0000
1000
0000
0100
0000
0000
0000
0100
0000
0000
0000
0000
0000
1000
0000
0001
0000
0000
0000
0010
0001
0100
0000
0000
0000
0110
0000
0001
0000
,  // measure 48
1000
0000
0000
0000
0010
0000
0100
0000
0000
0000
0100
0000
0000
0000
0001
1000
0001
0000
0010
0000
0100
0000
0000
0000
0000
0000
1000
0000
0000
0000
0000
0000
,  // measure 49
0001
0000
0000
0000
1000
0000
0010
0000
0000
0000
0010
0000
0000
0000
1000
0100
1000
0000
0001
0000
0100
0000
0000
0000
0010
0000
0000
0000
0000
0000
0000
0000
,  // measure 50
0100
0000
0000
0000
0001
0000
0010
0000
0000
0000
0010
0000
0000
0000
0100
1000
0100
0000
1000
0000
0001
0000
0000
0000
0010
0000
0000
0000
0000
0000
0000
0000
,  // measure 51
0001
0000
0000
0000
0000
0000
0000
0000
0000
0000
0000
0000
1000
0000
0000
0000
0000
0000
0000
0000
0000
0000
0000
0000
0010
0000
0000
0000
0000
0000
0000
0000
0000
0000
0000
0000
0100
0000
0000
0000
0000
0000
0001
0000
0000
0000
0000
0000
0010
0000
0000
0000
0000
0000
0000
0000
0000
0000
0000
0000
0100
0000
0000
0000
0000
0000
0000
0000
0000
0000
0000
0000
1000
0000
0000
0000
0000
0000
0000
0000
0000
0000
0000
0000
0001
0000
0000
0000
0000
0000
0000
0000
0000
0000
0000
0000
1000
0000
0000
0000
0000
0000
0000
0000
0010
0000
0000
0000
0000
0000
0000
0000
0001
0000
0000
0000
0000
0000
0000
0000
0100
0000
0000
0000
0000
0000
0000
0000
0000
0000
0000
0000
0000
0000
0000
0000
0000
0000
0000
0000
0000
0000
0000
0000
1001
0000
0000
0000
0000
0000
0000
0000
0000
0000
0000
0000
0000
0000
0000
0000
0000
0000
0000
0000
0000
0000
0000
0000
0000
0000
0000
0000
0000
0000
0000
0000
0000
0000
0000
0000
0000
0000
0000
0000
0000
0000
0000
0000
0000
0000
0000
0000
;
