#VERSION:0.83;
#TITLE:War;
#SUBTITLE:;
#ARTIST:Edwin Starr;
#TITLETRANSLIT:;
#SUBTITLETRANSLIT:;
#ARTISTTRANSLIT:;
#GENRE:;
#ORIGIN:;
#CREDIT:;
#BANNER:War-bn.png;
#BACKGROUND:War-bg.png;
#PREVIEWVID:;
#JACKET:War-jacket.png;
#CDIMAGE:;
#DISCIMAGE:;
#LYRICSPATH:;
#CDTITLE:;
#MUSIC:War.ogg;
#OFFSET:0.000000;
#SAMPLESTART:4.571000;
#SAMPLELENGTH:20.000000;
#SELECTABLE:YES;
#DISPLAYBPM:105.000000:113.000000;
#BPMS:0.000=105.000,
8.000=108.000,
14.500=111.000,
20.000=113.000,
36.000=112.000,
46.500=110.000,
56.000=108.000,
72.000=107.000,
80.000=105.000,
88.000=109.000,
107.000=110.000,
128.000=112.000,
136.000=107.000;
#STOPS:;
#DELAYS:;
#WARPS:;
#TIMESIGNATURES:0.000=4=4;
#TICKCOUNTS:0.000=4;
#COMBOS:0.000=1;
#SPEEDS:0.000=1.000=0.000=0;
#SCROLLS:0.000=1.000;
#FAKES:;
#LABELS:0.000=Song Start;
#BGCHANGES:;
#KEYSOUNDS:;
#ATTACKS:
;

//---------------dance-single - ----------------
#NOTEDATA:;
#CHARTNAME:;
#STEPSTYPE:dance-single;
#DESCRIPTION:;
#CHARTSTYLE:;
#DIFFICULTY:Hard;
#METER:11;
#RADARVALUES:0.503663,0.494124,0.845798,0.124644,0.071225,396.000000,301.000000,95.000000,14.000000,0.000000,0.000000,0.000000,0.000000,0.000000,0.503663,0.494124,0.845798,0.124644,0.071225,396.000000,301.000000,95.000000,14.000000,0.000000,0.000000,0.000000,0.000000,0.000000;
#CREDIT:;
#DISPLAYBPM:105.000000:113.000000;
#NOTES:
0000
0000
0000
0000
,
0000
0000
0000
0000
,
1001
1001
1001
0100
0010
1010
1010
0000
,
1000
0000
1000
0000
1000
2100
0000
3001
,
0101
0101
0101
0100
0010
0110
0110
0000
,
0001
0000
0001
0000
0001
0012
0000
1003
,
1100
1100
1100
1000
0001
0011
0011
0000
,
0100
0000
0100
0000
0100
1002
0000
0013
,
0110
0110
0110
0100
1000
1001
1001
0000
,
0010
0000
0010
0000
0010
0102
0000
1003
,
1010
1010
1010
0010
0100
0101
0101
0000
,
0001
0000
0001
0000
0001
2100
0000
3010
,
0110
0110
0110
0100
0001
0011
0011
0000
,
0100
0000
0100
0000
0100
1020
1030
1100
,
1001
0000
0000
1000
0100
0000
0010
0000
0001
0000
0100
0000
0001
0000
1000
0000
,
0010
0000
0000
1000
0001
0000
0100
0000
0001
0000
0010
0000
0100
0000
1000
0000
,
0001
0000
0000
0001
1000
0000
0010
0000
0100
0000
0010
0000
1000
0000
0100
0000
,
1000
0000
0000
0010
1000
0000
0100
0000
0010
0000
0001
0000
0100
0000
0001
0000
,
0010
0000
0000
0001
0100
0000
0001
0000
1000
0000
0010
0000
1000
0000
0100
0000
,
0010
0000
0000
0100
1000
0000
0001
0000
1000
0000
0100
0000
0010
0000
0001
0000
,
0100
0000
0000
0100
0010
0000
1000
0000
0001
0000
1000
0000
0001
0000
0010
0000
,
0001
0000
0000
0001
0100
0000
0010
0000
1000
0000
0101
0000
1100
0000
0001
0000
,
0011
0011
0011
0001
1000
1100
1100
0000
,
1000
0000
1000
0000
1000
0120
0000
0130
,
0101
0101
0101
0100
0010
1010
1010
0000
,
1000
0000
1000
0000
1000
1002
0000
0013
,
0101
0101
0101
0001
0100
0110
0110
0000
,
0010
0000
0010
0000
0010
0021
0000
1030
,
0011
0011
0011
0010
0100
1001
1001
0000
,
0010
0000
0010
0000
0010
1200
0000
0310
,
1100
1100
1100
0010
0100
0101
0101
0000
,
1000
0000
1000
0000
1000
0201
0000
0310
,
1001
1001
1001
1000
0100
0011
0011
0000
,
0001
0000
0001
0000
0001
0120
0130
0101
,
1001
0000
0000
0100
1000
0000
0010
0000
1000
0000
0100
0000
0010
0000
0001
0000
,
0010
0000
0000
0001
0100
0000
0010
0000
1000
0000
0100
0000
1000
0000
0001
0000
,
1000
0000
0000
0010
1000
0000
0100
0000
0010
0000
0001
0000
0100
0000
0001
0000
,
1000
0000
0000
1000
0001
0000
0100
0000
0010
0000
0100
0000
0001
0000
0010
0000
,
0100
0000
0000
1000
0010
0000
0001
0000
0010
0000
1000
0000
0001
0000
0100
0000
,
0001
0000
0000
0001
1000
0000
0100
0000
0010
0000
1000
0000
0100
0000
0010
0000
,
0001
0000
0000
1000
0010
0000
0100
0000
0001
0000
0010
0000
0100
0000
1000
0000
,
0010
0000
0000
0010
1000
0000
0001
0000
1000
0000
1010
0000
0011
0000
0001
0000
,
1100
1100
1100
1000
0001
1001
1001
0000
,
1000
0000
1000
0000
1000
0102
0000
0013
,
0011
0011
0011
1000
0100
1010
1010
0000
,
0001
0000
0001
0000
0001
1020
0000
0130
,
0110
0110
0110
0000
0000
0000
0000
0000
;

//---------------dance-single - ----------------
#NOTEDATA:;
#CHARTNAME:;
#STEPSTYPE:dance-single;
#DESCRIPTION:;
#CHARTSTYLE:;
#DIFFICULTY:Medium;
#METER:9;
#RADARVALUES:0.334503,0.308827,0.213675,0.124644,0.071225,263.000000,239.000000,24.000000,14.000000,0.000000,0.000000,0.000000,0.000000,0.000000,0.334503,0.308827,0.213675,0.124644,0.071225,263.000000,239.000000,24.000000,14.000000,0.000000,0.000000,0.000000,0.000000,0.000000;
#CREDIT:;
#DISPLAYBPM:105.000000:113.000000;
#NOTES:
0000
0000
0000
0000
,
0000
0000
0000
0000
,
0010
0010
0010
0000
0000
0100
0100
0000
,
0010
0000
0010
0000
1000
2001
0000
3001
,
1000
1000
1000
0000
0000
0001
0001
0000
,
0110
0000
0010
0000
0010
2010
0000
3001
,
0100
0100
0100
0000
0000
0010
0010
0000
,
1000
0000
1000
0000
0100
0201
0000
0310
,
0100
0100
0100
0000
0000
0001
0001
0000
,
0011
0000
1000
0000
1000
2100
0000
3100
,
0001
0001
0001
0000
0000
1000
1000
0000
,
0010
0000
0010
0000
0010
0210
0000
0310
,
1000
1000
1000
0000
0000
0010
0010
0000
,
0101
0000
1000
0000
1000
1200
0000
1300
,
0010
0000
0000
0010
0100
0000
0000
0000
0001
0000
0100
0000
1000
0000
0000
0000
,
0100
0000
0000
0100
1000
0000
0000
0000
0010
0000
1000
0000
0001
0000
0000
0000
,
0010
0000
0000
0010
0001
0000
0000
0000
1000
0000
0100
0000
0001
0000
0000
0000
,
1000
0000
0000
1000
0001
0000
0000
0000
0010
0000
0001
0000
0100
0000
0000
0000
,
0010
0000
0000
0010
0100
0000
0000
0000
0001
0000
1000
0000
0001
0000
0000
0000
,
1000
0000
0000
1000
0001
0000
0000
0000
0100
0000
0010
0000
0100
0000
0000
0000
,
0010
0000
0000
0010
1000
0000
0000
0000
0100
0000
1000
0000
0001
0000
0000
0000
,
0100
0000
0000
0100
0010
0000
0000
0000
1000
0000
0001
0000
0010
0000
0000
0000
,
0001
0001
0001
0000
0000
0010
0010
0000
,
1000
0000
1000
0000
1000
1002
0000
0013
,
0001
0001
0001
0000
0000
0100
0100
0000
,
1010
0000
1000
0000
0001
0021
0000
0130
,
0010
0010
0010
0000
0000
0001
0001
0000
,
0100
0000
0100
0000
0010
1020
0000
0130
,
1000
1000
1000
0000
0000
0001
0001
0000
,
0110
0000
0100
0000
0100
0102
0000
1003
,
0100
0100
0100
0000
0000
1000
1000
0000
,
0001
0000
0001
0000
0010
0021
0000
0130
,
0001
0001
0001
0000
0000
1000
1000
0000
,
1001
0000
1000
0000
0100
2100
0000
3001
,
1000
0000
0000
1000
0001
0000
0000
0000
0100
0000
0010
0000
0001
0000
0000
0000
,
0010
0000
0000
0010
0100
0000
0000
0000
1000
0000
0100
0000
0001
0000
0000
0000
,
0010
0000
0000
0010
0001
0000
0000
0000
0100
0000
0001
0000
1000
0000
0000
0000
,
0100
0000
0000
0100
1000
0000
0000
0000
0010
0000
1000
0000
0001
0000
0000
0000
,
0010
0000
0000
0010
0001
0000
0000
0000
0001
0000
0100
0000
1000
0000
0000
0000
,
0100
0000
0000
0100
0010
0000
0000
0000
1000
0000
0001
0000
1000
0000
0000
0000
,
0100
0000
0000
0100
0001
0000
0000
0000
0001
0000
1000
0000
0010
0000
0000
0000
,
1000
0000
0000
1000
0001
0000
0000
0000
0010
0000
0100
0000
0010
0000
0000
0000
,
0001
0001
0011
0000
0000
1000
1000
0000
,
0010
0000
0010
0000
0010
2100
0000
3100
,
1000
1000
1000
0000
0000
0010
0110
0000
,
0101
0000
1000
0000
1000
1020
0000
0130
,
0010
0010
1001
0000
0000
0000
0000
0000
;

//---------------dance-single - ----------------
#NOTEDATA:;
#CHARTNAME:;
#STEPSTYPE:dance-single;
#DESCRIPTION:;
#CHARTSTYLE:;
#DIFFICULTY:Easy;
#METER:5;
#RADARVALUES:0.194597,0.205885,0.017806,0.124644,0.000000,153.000000,151.000000,2.000000,14.000000,0.000000,0.000000,0.000000,0.000000,0.000000,0.194597,0.205885,0.017806,0.124644,0.000000,153.000000,151.000000,2.000000,14.000000,0.000000,0.000000,0.000000,0.000000,0.000000;
#CREDIT:;
#DISPLAYBPM:105.000000:113.000000;
#NOTES:
0000
0000
0000
0000
,
0000
0000
0000
0000
,
0010
0010
0010
0000
0000
0100
0100
0000
,
0000
0000
0000
0000
0000
0200
0000
0000
,
0301
0001
0001
0000
0000
1000
1000
0000
,
0000
0000
0000
0000
0000
2000
0000
0000
,
3100
0100
0100
0000
0000
0010
0010
0000
,
0000
0000
0000
0000
0000
0020
0000
0000
,
1030
1000
1000
0000
0000
0001
0001
0000
,
0000
0000
0000
0000
0000
0002
0000
0000
,
0103
0100
0100
0000
0000
0001
0001
0000
,
0000
0000
0000
0000
0000
0002
0000
0000
,
1003
1000
1000
0000
0000
0010
0010
0000
,
0000
0000
0000
0000
0000
0020
0000
0030
,
1001
1000
0001
0100
,
0010
1000
0100
0010
,
0001
0100
1000
0010
,
0100
0010
1000
0001
,
0010
0001
0010
0100
,
1000
0100
0001
1000
,
0010
0100
0001
1000
,
0100
1000
0010
0001
,
0010
0010
0010
0000
0000
0001
0001
0000
,
0000
0000
0000
0000
0000
0002
0000
0000
,
0103
0100
0100
0000
0000
1000
1000
0000
,
0000
0000
0000
0000
0000
2000
0000
0000
,
3100
0100
0100
0000
0000
0010
0010
0000
,
0000
0000
0000
0000
0000
0020
0000
0000
,
0031
0001
0001
0000
0000
1000
1000
0000
,
0000
0000
0000
0000
0000
2000
0000
0000
,
3001
0001
0001
0000
0000
0100
0100
0000
,
0000
0000
0000
0000
0000
0200
0000
0000
,
0310
0010
0010
0000
0000
1000
1000
0000
,
0000
0000
0000
0000
0000
2000
0000
3000
,
1001
0010
1000
0001
,
0100
0010
1000
0100
,
0001
0010
1000
0100
,
0010
0100
0001
1000
,
0001
1000
0001
0010
,
0100
0010
0001
0100
,
1000
0001
0010
0100
,
0001
0010
0100
1000
,
0100
0100
0100
0000
0000
1000
1000
0000
,
0000
0000
0000
0000
0000
0002
0000
0000
,
0013
0010
0010
0000
0000
0001
0001
0000
,
0000
0000
0000
0000
0000
2000
0000
0000
,
3010
0010
0010
0000
0000
0000
0000
0000
;

//---------------dance-single - ----------------
#NOTEDATA:;
#CHARTNAME:;
#STEPSTYPE:dance-single;
#DESCRIPTION:;
#CHARTSTYLE:;
#DIFFICULTY:Beginner;
#METER:1;
#RADARVALUES:0.078856,0.102386,0.008903,0.000000,0.000000,62.000000,61.000000,1.000000,0.000000,0.000000,0.000000,0.000000,0.000000,0.000000,0.078856,0.102386,0.008903,0.000000,0.000000,62.000000,61.000000,1.000000,0.000000,0.000000,0.000000,0.000000,0.000000,0.000000;
#CREDIT:;
#DISPLAYBPM:105.000000:113.000000;
#NOTES:
0000
0000
0000
0000
,
0000
0000
0000
0000
,
0010
0000
0000
0010
,
0000
0000
0000
0000
,
1000
0000
0000
1000
,
0000
0000
0000
0000
,
0001
0000
0000
0001
,
0000
0000
0000
0000
,
0100
0000
0000
0100
,
0000
0000
0000
0000
,
0001
0000
0000
1000
,
0000
0000
0000
0000
,
0010
0000
0000
0100
,
0000
0000
0000
0000
,
0001
0000
0001
0000
,
1000
0000
1000
0000
,
0010
0000
0010
0000
,
0100
0000
0100
0000
,
0001
0000
0010
0000
,
0100
0000
1000
0000
,
0010
0000
0100
0000
,
0001
0000
1000
0000
,
0010
0000
0000
0010
,
0000
0000
0000
0000
,
0100
0000
0000
0100
,
0000
0000
0000
0000
,
0001
0000
0000
0001
,
0000
0000
0000
0000
,
1000
0000
0000
1000
,
0000
0000
0000
0000
,
1000
0000
0000
0010
,
0000
0000
0000
0000
,
0100
0000
0000
0001
,
0000
0000
0000
0000
,
0010
0000
0010
0000
,
0100
0000
0100
0000
,
0001
0000
0001
0000
,
1000
0000
1000
0000
,
0100
0000
1000
0000
,
0010
0000
0001
0000
,
1000
0000
0001
0000
,
0100
0000
0010
0000
,
1000
0000
0000
0001
,
0000
0000
0000
0000
,
0100
0000
0000
0010
,
0000
0000
0000
0000
,
1001
0000
0000
0000
;

//---------------dance-single - ----------------
#NOTEDATA:;
#CHARTNAME:;
#STEPSTYPE:dance-single;
#DESCRIPTION:;
#CHARTSTYLE:;
#DIFFICULTY:Challenge;
#METER:13;
#RADARVALUES:0.635938,0.597066,1.139601,0.151353,0.200321,500.000000,372.000000,128.000000,17.000000,0.000000,0.000000,0.000000,0.000000,0.000000,0.635938,0.597066,1.139601,0.151353,0.200321,500.000000,372.000000,128.000000,17.000000,0.000000,0.000000,0.000000,0.000000,0.000000;
#CREDIT:;
#DISPLAYBPM:105.000000:113.000000;
#NOTES:
// measure 0
0000
0000
0000
0000
,  // measure 1
0000
0000
0000
0000
,  // measure 2
1001
1001
1001
0100
0101
0110
0110
0010
,  // measure 3
1000
0000
1000
0000
1100
1002
0100
0013
,  // measure 4
0011
0011
0011
1000
0010
0110
0110
0100
,  // measure 5
0001
1000
0000
0000
0010
0000
0000
0000
0100
0000
0201
0000
0000
0000
0301
0000
,  // measure 6
1001
1001
1001
0001
0011
0110
0110
0100
,  // measure 7
1000
0000
1000
0000
1100
0012
1000
0103
,  // measure 8
0101
0101
0101
0010
1000
1100
1100
0001
,  // measure 9
0100
0010
0000
0000
1000
0001
0100
0010
0000
0000
0120
0000
0000
0000
1030
0000
,  // measure 10
0101
0101
0101
0100
1001
0011
0011
0100
,  // measure 11
1000
0000
1000
0000
1001
0210
0001
1300
,  // measure 12
0101
0101
0101
1000
0100
0011
0011
0100
,  // measure 13
1000
0001
1000
0100
0001
0100
1000
0000
0010
0000
0210
0000
0010
0000
0301
0000
,  // measure 14
1001
0000
1000
0010
1000
0000
0001
0000
0100
0000
0010
0000
0100
0000
0001
0000
,  // measure 15
1000
0000
0001
0010
0001
0000
1000
0000
0100
0000
0010
0000
0100
0000
1000
0000
,  // measure 16
0001
0000
0100
0010
0100
0000
0001
0000
1000
0000
0010
0000
1000
0000
0001
0000
,  // measure 17
1000
0100
0010
0000
1001
0000
0010
0000
0100
0000
0001
0000
1000
0000
0001
0000
,  // measure 18
0100
0000
0001
1000
0001
0000
0100
0000
0010
0000
1000
0000
0010
0000
0100
0001
,  // measure 19
0000
1000
0100
0000
0010
0000
1000
0001
0000
0000
0100
0000
0001
1000
0010
0000
,  // measure 20
0100
0000
0001
0010
0001
0000
0100
0000
0010
0000
1000
0000
0001
0000
1000
0000
,  // measure 21
0001
0000
0010
0100
0010
0000
0001
0000
1000
0000
1100
0000
0101
0000
0010
0000
,  // measure 22
0110
0110
0110
1000
1100
0101
0101
0010
,  // measure 23
1001
0100
1001
0000
0110
2010
0001
3100
,  // measure 24
0101
0101
0101
0010
1000
1100
1100
0001
,  // measure 25
0100
0010
0100
0000
0001
1000
0010
0100
0000
0000
0102
0000
0010
0000
0103
0000
,  // measure 26
0011
0011
0011
0100
1001
0110
0110
1000
,  // measure 27
1100
0001
1100
0000
0101
0120
0001
1030
,  // measure 28
1100
1100
1100
0001
0100
1001
1001
0010
,  // measure 29
1000
0100
1000
0000
0001
0010
0100
1000
0010
0000
0102
0000
1000
0000
0103
0000
,  // measure 30
1001
0000
1001
0000
1001
1000
0100
0000
0110
0000
0101
0000
0101
0000
0010
0100
,  // measure 31
0010
1001
1000
0000
0001
2010
0100
3001
,  // measure 32
1001
0000
1001
0000
1001
0000
0010
0000
1000
0000
1100
0000
1100
0000
1000
0001
,  // measure 33
0100
0010
0100
0010
1000
0000
0000
0000
0001
0000
2001
0000
0100
0000
3010
0000
,  // measure 34
1001
0000
0100
0010
0100
0000
0001
0010
1000
0010
0001
0000
0100
0000
0010
0000
,  // measure 35
1100
1100
0001
0101
0010
0100
0001
1000
,  // measure 36
0010
0000
1000
0000
0001
0100
0000
0010
1000
0000
0100
0000
0010
0000
0021
0000
,  // measure 37
1030
0001
0101
1010
1000
0010
0100
0001
,  // measure 38
1000
1000
0000
0011
0000
0101
0000
2001
0000
0000
3100
0000
1000
0001
0100
0001
,  // measure 39
0010
0000
0001
0100
0010
1000
0000
0000
1100
0000
0001
0000
0100
0000
0010
0000
,  // measure 40
1001
0000
1010
0000
1000
0100
0010
0000
0101
0000
0110
0000
1000
0000
0001
0000
,  // measure 41
1000
0000
0010
0100
0010
0000
1000
0000
0001
0000
0021
0000
1000
0000
0130
0000
,  // measure 42
0110
0110
0110
0100
1001
1010
1010
0001
,  // measure 43
1100
0000
0011
0000
0101
2010
0100
3001
,  // measure 44
0101
0101
0101
0100
0010
1001
1001
0100
,  // measure 45
0001
0010
0001
0000
1000
0000
0000
0000
1100
0000
0210
0000
1000
0000
0310
0000
,  // measure 46
1001
1001
1001
0000
0000
0000
0000
0000
;
