#TITLE:War evasion;
#SUBTITLE:;
#ARTIST:STRAND;
#TITLETRANSLIT:;
#SUBTITLETRANSLIT:;
#ARTISTTRANSLIT:;
#GENRE:;
#CREDIT:;
#BANNER:War evasion-bn.png;
#BACKGROUND:War evasion-bg.png;
#LYRICSPATH:;
#CDTITLE:;
#MUSIC:War evasion.ogg;
#OFFSET:0.000000;
#SAMPLESTART:46.532001;
#SAMPLELENGTH:20.000000;
#SELECTABLE:YES;
#DISPLAYBPM:232.000000;
#BPMS:0.000000=232.000000
;
#STOPS:
;
#BGCHANGES:;
#KEYSOUNDS:;
#ATTACKS:;

//---------------dance-single - ----------------
#NOTES:
     dance-single:
     :
     Beginner:
     4:
     0.182855,0.286615,0.092085,0.000000,0.000000,139.000000,129.000000,10.000000,0.000000,0.000000,0.000000,0.182855,0.286615,0.092085,0.000000,0.000000,139.000000,129.000000,10.000000,0.000000,0.000000,0.000000:
0000
0000
0000
0000
,
0000
0000
0000
0000
,
0000
0000
0000
0000
,
0000
0000
0000
0000
,
0000
0000
0000
0000
,
1001
0000
0000
0000
,
0100
0000
0000
0000
,
0001
0000
0000
0000
,
1000
0000
0000
0000
,
0100
0000
0100
0000
,
0110
0000
0000
0000
,
0010
0000
0000
0000
,
0001
0000
0000
0000
,
0100
0000
0000
0000
,
1000
0000
1000
0000
,
0001
0000
0000
0000
,
1000
0000
0000
0000
,
0010
0000
0000
0000
,
0100
0000
0001
0000
,
1000
0000
0000
0000
,
0010
0000
0000
0000
,
0000
1000
1000
1000
,
1000
0000
0001
0000
,
0000
0000
0000
0100
,
0000
0000
0000
0000
,
0010
0010
0000
0000
,
1000
1000
0000
0000
,
0001
0000
1000
0000
,
0001
0000
0100
0000
,
0010
0000
1000
0000
,
0100
0100
0000
0000
,
1000
1000
0000
0000
,
0001
0001
0000
0000
,
0100
0100
0000
0000
,
0010
0000
0100
0000
,
0001
0000
0001
0000
,
0001
0000
1000
0000
,
0010
0000
1000
0000
,
0100
0000
1000
0000
,
0001
0000
0100
0000
,
0010
0000
0000
0000
,
1000
0000
0000
0000
,
0100
0000
0010
0000
,
0001
0000
1000
0000
,
0000
0000
0000
0000
,
0010
0000
0010
0000
,
0000
0000
0000
0000
,
0000
0000
0000
1000
,
0000
0000
0000
0001
,
0000
0000
0000
0000
,
1000
0000
0010
0000
,
0000
0000
0000
0000
,
0000
0000
0000
0100
,
0000
0001
0000
1000
,
0000
0000
0000
0000
,
1001
0000
0000
0000
,
0000
0110
0000
0000
,
0000
0000
1001
0000
,
0000
0000
0000
0110
,
0000
0000
0000
0000
,
1000
0000
0000
0000
,
0000
0010
0000
0000
,
0000
0000
0100
0000
,
0000
0000
0000
0001
,
0000
0000
0000
0000
,
0000
0000
0000
0000
,
0000
0000
0000
0000
,
0000
0000
0000
0000
,
0000
0000
0000
0000
,
0000
0000
0000
0000
,
0010
0010
0010
0000
,
0001
0000
1000
1000
,
0000
0010
0000
0100
,
0000
0001
0000
1000
,
0000
0000
0001
0000
,
0100
0100
0100
0000
,
0010
0010
0000
1000
,
0000
0001
0000
0010
,
0000
0001
0000
0100
,
0000
0000
0010
0000
,
1000
1000
1000
0000
,
0100
0000
0000
0010
,
0000
0010
0000
0001
,
0000
0100
0000
0001
,
0000
0000
1000
0000
,
0001
0000
0100
0000
,
0000
0000
0000
0000
,
0000
0000
0010
0010
,
0000
0000
1000
1000
,
0000
0000
0000
0000
,
0100
0000
0010
0000
,
0000
0000
0000
0000
,
0000
0000
0001
0000
,
0000
0000
1000
0000
,
1000
0000
0000
0000
,
0010
0000
0000
0000
,
0000
0100
0000
0000
,
0000
0000
0001
0000
,
0000
0000
0000
1000
,
0000
0000
0000
0000
,
0110
0000
0000
0000
,
0000
1001
0000
0000
,
0000
0000
0110
0000
,
0000
0000
0000
1001
;

//---------------dance-single - ----------------
#NOTES:
     dance-single:
     :
     Easy:
     9:
     0.414384,0.477692,0.165753,0.221005,0.000000,315.000000,297.000000,18.000000,24.000000,0.000000,0.000000,0.414384,0.477692,0.165753,0.221005,0.000000,315.000000,297.000000,18.000000,24.000000,0.000000,0.000000:
0000
0000
0000
0000
,
0000
0000
0000
0000
,
0000
0000
0000
0000
,
0000
0000
0000
0000
,
0000
0000
0000
0000
,
1001
0010
1000
0010
,
0100
0001
0010
0001
,
0100
0010
1000
0001
,
1000
0100
0010
0001
,
0100
0001
1000
0010
,
0110
1000
0010
1000
,
0100
0010
0001
0100
,
0001
0010
0001
1000
,
0001
0100
0010
1000
,
0100
0010
0100
1000
,
0001
0000
0000
0100
0000
0000
0010
0000
,
1000
0000
0000
0100
0000
0000
0010
0000
,
0001
0000
0000
1000
0000
0000
0001
0000
,
0000
0100
0000
0000
0010
0000
1000
0002
,
0000
0100
0100
0103
,
2000
0000
0000
0000
,
0000
3010
1000
0001
,
0200
0000
0000
0000
0320
0000
0000
1000
,
0000
1000
0100
1000
,
0000
0001
0000
0000
1000
0000
0130
0000
,
0001
0000
1000
0000
0001
0000
0000
0010
,
0000
0100
0000
0000
1000
0000
0001
0000
,
1000
0000
0000
0010
0000
0100
0000
0000
,
0001
0000
1000
0000
0001
0000
0000
0010
,
0000
0001
0000
0000
1000
0000
0010
0000
,
1000
0100
1000
0000
,
0001
0000
0100
0000
0010
0000
0000
1000
,
0000
0001
0000
0000
0010
0000
0001
0000
,
0100
0000
0000
0010
0000
1000
0000
0000
,
0100
0000
0000
1000
0000
0000
0001
0000
,
0200
0000
0000
0320
0000
0000
1030
0000
,
0001
0010
0001
0100
,
0010
0000
1000
0000
0002
0000
0000
0023
,
0000
0000
0130
0000
1000
0000
0010
0200
,
0000
0302
0000
0000
1003
0000
0100
0000
,
2000
0000
0000
3002
0000
0000
1003
0000
,
0010
0100
0001
0100
,
0010
0000
1000
0000
0200
0000
0000
0320
,
0000
0032
2003
0000
,
0001
0001
0001
3001
,
1000
0000
0000
0002
0000
0000
0100
0000
,
0000
0010
0000
1003
,
0000
0000
0000
0000
0010
1000
0020
0000
,
0000
0000
0000
0000
0130
0001
0200
0000
,
0000
0000
0000
0000
,
0301
0000
0000
0002
0000
0000
1000
0000
,
0000
0100
0000
0010
,
0000
0000
0100
0000
1003
0100
1000
0000
,
0000
0001
0100
0010
,
1000
0100
1000
0001
,
0101
0000
0000
0001
,
1000
1100
0000
0000
,
1000
0010
1010
0000
,
0000
0001
0010
0011
,
0000
0000
0100
0010
,
0110
0000
0000
1000
,
0001
0011
0000
0000
,
1000
0010
1010
0000
,
0000
0100
0010
0110
,
0000
0000
1000
0100
,
0000
0000
0000
0000
,
0000
0000
0000
0000
,
0000
0000
0000
0000
,
0000
0000
0000
0000
,
0000
0000
0000
0000
,
0001
0010
0001
0100
,
0010
1000
0010
0100
,
0001
0010
0001
1000
,
0100
0010
0100
1000
,
0010
1000
0010
0100
,
0001
0010
0001
0100
,
0010
1000
0010
0100
,
0001
0010
0001
0100
,
1000
0001
1000
0010
,
1000
0100
0010
0001
,
0100
0001
0010
0001
,
0100
0010
1000
0100
,
0001
0010
0001
0100
,
1000
0010
0100
0001
,
0010
0001
0100
1000
,
0001
0000
0000
1000
0020
0000
0000
0000
,
0000
0100
0000
0001
,
0000
0000
1030
0000
0010
0100
0020
0000
,
0000
0000
0000
0000
1030
0100
2000
0000
,
0000
0000
0000
0000
,
3010
0000
0000
0200
0000
0000
0001
0000
,
0000
1000
0000
0001
,
0000
0000
0310
0000
1000
0000
0000
0001
,
0000
1000
0100
0010
,
0001
0100
0001
1000
,
1010
0000
0000
1000
,
0100
0011
0000
0000
,
0100
0010
0110
0000
,
0000
1000
0100
0011
,
0000
0000
0100
0001
,
0101
0000
0000
0010
,
1000
1100
0000
0000
,
0001
1000
0110
0000
,
0000
1000
0001
1001
;

//---------------dance-single - ----------------
#NOTES:
     dance-single:
     :
     Medium:
     13:
     0.616971,0.716539,0.349924,0.294673,0.000000,469.000000,431.000000,38.000000,32.000000,0.000000,0.000000,0.616971,0.716539,0.349924,0.294673,0.000000,469.000000,431.000000,38.000000,32.000000,0.000000,0.000000:
0000
0000
0000
0000
,
0000
0000
0000
0000
,
0000
0000
0000
0000
,
0000
0000
0000
0000
,
0000
0000
0000
0000
,
1001
0000
1000
0000
0010
0100
0010
0000
,
0100
0000
0001
0000
1000
0100
1000
0000
,
0001
0000
1000
0000
0001
0100
0001
0000
,
1000
0000
0010
0000
0100
0001
0100
0000
,
0010
1000
0000
0001
1000
0000
0100
0010
,
0001
0000
0100
0000
0010
1000
0010
0000
,
1000
0000
0001
0000
0100
0010
0100
0000
,
0001
0000
0010
0000
0001
1000
0001
0000
,
1000
0000
0100
0000
0010
0001
0010
0000
,
0001
1000
0000
0010
1000
0000
0100
0010
,
0001
0000
0100
0010
0000
1000
0001
0000
,
1000
0010
1000
0001
,
0100
0000
0001
0010
0000
0100
1000
0000
,
0010
1000
0100
0000
1000
0000
0001
0200
,
0000
0010
0010
0310
,
1010
0000
0001
1000
0000
0100
0010
0000
,
0001
2000
3020
2030
,
3002
0000
0103
0000
0102
0000
0000
1000
,
0000
0100
0013
0110
,
1000
0001
0000
1000
0100
0000
0010
0000
,
0001
0000
1000
0000
0001
0100
0000
1001
,
0000
0110
0000
0000
1000
0000
0001
0010
,
0001
0000
0000
1010
0000
0101
0000
0000
,
1000
0000
0001
0000
0010
0100
1000
0000
,
0001
0100
0000
0001
0010
0000
0001
1000
,
0010
0000
0000
0101
0000
1100
0000
0000
,
0001
0000
1000
0000
0100
0010
0000
0011
,
0000
1100
0000
0010
0100
0000
0001
0000
,
1000
0100
0000
0110
0000
1001
0000
0001
,
0100
0000
0010
1000
0000
0001
0010
0000
,
0200
0000
0000
2300
0000
0000
3002
0000
,
0203
0000
0310
0000
1000
0001
0000
1000
,
0000
0000
0100
0000
0010
0002
0000
0203
,
0000
0310
1000
0000
0001
0000
1000
0020
,
0000
2030
0000
0000
3200
0000
0320
0000
,
0031
1000
0000
0002
0000
0013
0100
0000
,
2000
0000
3001
1000
0000
0010
0100
0000
,
0002
0000
0023
0000
0230
0000
0000
2300
,
0000
3020
0230
0001
,
0301
1000
0001
1000
0001
1000
0001
1000
,
0001
0000
0010
0100
0000
0000
1100
0000
,
0000
0000
0001
0000
1000
0001
0100
0000
,
0010
0000
1000
0100
0000
0010
0002
0000
,
0000
0000
0000
0000
1003
0001
2000
0000
,
0010
0000
0100
0000
3001
1000
0001
0000
,
0021
0000
0000
0230
0000
0000
1300
0001
,
1000
0010
0100
0001
,
0010
0000
0100
0000
1000
0001
1000
0000
,
0010
0000
1000
0001
0000
1000
0100
0000
,
0010
0000
0001
0000
1000
0001
0100
0000
,
0101
0000
0000
1100
0000
0000
0010
0000
,
0100
0000
1010
0000
0000
0101
0000
0000
,
1000
0000
0001
0000
1001
0000
0000
0110
,
0000
1000
0100
1100
,
0000
0011
0000
0000
0100
0000
0001
0000
,
1001
0000
0010
1000
0000
0000
0100
0000
,
0010
0000
0001
1000
0000
0010
0000
1000
,
0001
0000
0100
0000
0110
0000
1000
0001
,
1000
0001
1000
0000
0001
0100
0001
0100
,
0001
0100
0001
0000
1000
0100
0010
0001
,
0000
0000
0000
0000
,
0000
0000
0000
0000
,
0000
0000
0000
0000
,
0000
0000
0000
0000
,
0000
0000
0000
0000
,
1001
0000
0010
1000
0010
0000
0100
0000
,
0001
1000
0010
0000
1000
0000
0100
0000
,
0010
0000
0001
0000
0100
0010
0100
0000
,
0001
1000
0001
0010
,
0001
1000
0000
0010
1000
0000
0100
0010
,
0001
0000
1000
0000
0001
0010
0001
0000
,
1000
0001
1000
0100
,
1000
0010
1000
0100
,
0010
0001
0100
0001
,
1000
0010
0000
1000
0100
0000
0010
0001
,
0100
0000
0010
0000
1000
0001
1000
0000
,
0001
0010
0001
0100
,
0010
0000
1000
0000
0100
0010
0100
0000
,
1000
0001
1000
0100
,
0010
0001
0000
1000
0001
0000
0100
0010
,
1000
0000
0001
0100
0020
0000
1000
0000
,
0000
0100
1000
0001
,
0100
0000
0001
0000
1030
0100
2000
0000
,
0000
0000
0000
0000
3001
0010
0002
0000
,
0000
0000
0103
0010
0000
0100
0001
0000
,
0102
0000
0000
1003
0000
0010
0100
0000
,
0001
1000
0001
0000
0010
0000
0100
0000
,
1000
0010
1000
0000
1100
0000
0010
0001
,
0000
1000
0001
0000
0100
0010
1000
0000
,
0001
0000
0110
0000
1000
0010
1000
0000
,
0001
0000
0100
0010
0000
1000
0001
0000
,
0010
0000
0100
0000
1000
0001
0000
1000
,
0010
0000
0100
0000
0101
0000
0000
1010
,
0000
0000
1000
0000
0001
0100
0001
0000
,
0010
0001
0010
0000
1100
0000
0011
0000
,
1001
0000
0000
0100
0000
0010
1000
0000
,
0001
0100
0001
0000
0010
0001
0000
0000
,
1000
0000
0001
1000
0001
0000
0000
0100
,
0000
1010
0101
1001
;

//---------------dance-single - ----------------
#NOTES:
     dance-single:
     :
     Hard:
     15:
     0.849815,0.859846,0.423592,0.147336,0.000000,646.000000,600.000000,46.000000,16.000000,0.000000,0.000000,0.849815,0.859846,0.423592,0.147336,0.000000,646.000000,600.000000,46.000000,16.000000,0.000000,0.000000:
// measure 0
0000
0000
0000
0000
,  // measure 1
0000
0000
0000
0000
,  // measure 2
0000
0000
0000
0000
,  // measure 3
0000
0000
0000
0000
,  // measure 4
0000
0000
0000
0000
,  // measure 5
1001
0000
1000
0100
1000
0100
1000
0100
,  // measure 6
0010
0001
0010
0001
0010
0100
1000
0001
,  // measure 7
0100
0000
0001
0010
0001
1000
0001
0100
,  // measure 8
0001
0010
0100
1000
0000
0010
1000
0100
,  // measure 9
0010
0001
0000
0100
0010
1000
0001
0100
,  // measure 10
0110
0000
0001
0010
0001
0010
0001
0010
,  // measure 11
0100
1000
0100
0010
0001
1000
0001
0100
,  // measure 12
0010
0000
1000
0001
1000
0010
1000
0100
,  // measure 13
0010
0001
0100
0010
0000
1000
0001
1000
,  // measure 14
0100
0010
0000
0001
0100
0010
1000
0001
,  // measure 15
1000
0000
0010
0100
0000
0001
0100
0000
,  // measure 16
0001
0010
0001
0100
0010
1000
0001
0100
,  // measure 17
0010
0000
0100
0001
0000
1000
0001
0000
,  // measure 18
0010
0100
1000
0001
0100
0010
1000
0002
,  // measure 19
0000
0010
0100
0000
1000
0000
0103
0000
,  // measure 20
0102
0000
1003
0010
0000
0100
0001
0000
,  // measure 21
0010
0000
0001
1000
0001
0100
0010
1000
,  // measure 22
0100
0000
1100
0000
0011
0000
1000
0010
,  // measure 23
0000
0100
0001
0000
1000
0000
1010
0000
,  // measure 24
0001
1000
0000
0100
0010
0000
0001
0000
,  // measure 25
0100
0000
0001
1000
0001
0100
0010
1010
,  // measure 26
0000
0101
0000
1000
0100
0010
0001
0000
,  // measure 27
0100
0010
1000
1100
0000
0011
0000
1000
,  // measure 28
0010
0000
0100
0000
0001
0010
0001
1000
,  // measure 29
0000
0010
1000
0100
1000
0010
0100
0001
,  // measure 30
0010
0100
1000
1001
0000
0110
0000
0100
,  // measure 31
0001
0010
0001
0100
0010
1000
0100
1100
,  // measure 32
0000
1010
0000
0100
0001
1000
0010
0000
,  // measure 33
0100
0001
0010
0011
0000
0101
0000
1000
,  // measure 34
0010
0100
0001
1000
0100
0010
0001
1000
,  // measure 35
0020
0000
1030
0200
0000
1300
0002
0000
,  // measure 36
0013
0001
0100
0001
1000
0100
0010
0000
,  // measure 37
0001
0000
0100
0000
1000
0010
1000
0002
,  // measure 38
0000
0100
0013
0000
0001
1000
0001
0200
,  // measure 39
0000
0320
1000
0000
0130
0001
1000
0000
,  // measure 40
0001
0010
0100
2000
0000
3001
2000
0000
,  // measure 41
3010
0000
0100
0001
1000
0001
0100
0000
,  // measure 42
0010
0000
0110
0000
1001
0000
1000
0100
,  // measure 43
0000
1000
0010
0100
0001
1000
0001
0010
,  // measure 44
0100
1000
0100
0010
0001
1000
0001
0100
,  // measure 45
0001
0010
0001
1000
0000
0010
0100
0000
,  // measure 46
0001
0101
1000
1100
,  // measure 47
1000
0010
1000
0001
0000
0100
0010
0000
,  // measure 48
1000
0001
0010
0100
0010
0001
1000
0000
,  // measure 49
0010
0100
0010
1000
0100
0010
0001
0000
,  // measure 50
1001
0000
1000
0010
0000
1000
0100
0001
,  // measure 51
0010
0100
1000
0000
0001
0100
0001
0010
,  // measure 52
0100
1000
0001
0000
1000
0010
0100
0000
,  // measure 53
0110
0000
0001
1000
0000
1000
0001
0000
,  // measure 54
0010
0000
0001
1000
0001
0100
0010
0000
,  // measure 55
1010
0000
1000
1100
0000
0001
0101
0000
,  // measure 56
0010
0000
0110
0000
0001
0011
0000
1000
,  // measure 57
1100
0000
0001
0000
1000
0100
0001
0100
,  // measure 58
1000
1001
0101
1010
,  // measure 59
0001
1001
0000
0010
1010
0000
0100
0000
,  // measure 60
0110
0000
1000
1100
0000
0001
0011
0000
,  // measure 61
0100
0000
0001
1000
0010
1000
0100
0010
,  // measure 62
0001
0000
1100
0000
0101
0000
0010
0100
,  // measure 63
0010
1000
0100
0010
0001
1000
0010
0100
,  // measure 64
0001
1000
0200
0000
1300
0010
1000
0002
,  // measure 65
0000
0000
0000
0000
,  // measure 66
0000
0000
0000
0003
,  // measure 67
0000
0000
0000
0000
,  // measure 68
0000
0000
0000
0000
,  // measure 69
0000
0000
0000
0000
,  // measure 70
0100
0001
0100
0010
0100
0001
1000
0100
,  // measure 71
1000
0010
1000
0010
0100
0001
0100
0010
,  // measure 72
1000
0100
1000
0100
0010
0001
0010
0001
,  // measure 73
1000
0001
1000
0010
0100
0000
0001
0010
,  // measure 74
0001
0100
0000
0010
1000
0100
0010
0001
,  // measure 75
0100
0010
0100
0010
1000
0001
1000
0100
,  // measure 76
0010
0100
0010
0001
0100
0001
1000
0100
,  // measure 77
1000
0010
1000
0001
1000
0100
0010
0001
,  // measure 78
0100
0001
1000
0100
1000
0000
0010
0001
,  // measure 79
1000
0001
0000
1000
0010
1000
0001
0100
,  // measure 80
0000
0001
0010
0001
1000
0001
1000
0100
,  // measure 81
0010
0001
0100
0001
1000
0100
0001
0010
,  // measure 82
0001
0100
0001
0010
0100
1000
0010
1000
,  // measure 83
0100
0010
0100
1000
0010
0100
0001
1000
,  // measure 84
0001
0010
0000
0001
0100
0010
1000
0001
,  // measure 85
2000
0000
3010
0100
0001
1000
0200
0000
,  // measure 86
0310
0001
0100
0000
0010
1000
0100
0000
,  // measure 87
1000
0001
0100
0010
1000
0001
0020
0000
,  // measure 88
1030
0010
0001
0000
0100
0010
1000
0000
,  // measure 89
0001
0000
0010
0001
0100
0010
1000
0000
,  // measure 90
0110
0000
1000
0001
0000
1000
0100
0000
,  // measure 91
0010
0001
0100
0000
0002
0000
1003
0100
,  // measure 92
1000
0010
0100
0000
0001
0000
0010
0001
,  // measure 93
0000
1000
0010
0000
1000
0100
0001
0000
,  // measure 94
0001
1000
0001
1000
0000
0100
0010
0000
,  // measure 95
0001
0100
0010
1000
0000
1000
0001
0000
,  // measure 96
0011
0000
1010
0000
0100
0001
0000
0010
,  // measure 97
0001
0100
1000
0010
1100
0000
0001
1000
,  // measure 98
0000
0010
1000
0000
0100
0010
0001
1000
,  // measure 99
0001
0010
0001
0100
0010
1000
0001
0100
,  // measure 100
1010
0000
0100
0001
0010
0001
1000
0000
,  // measure 101
0010
0100
0110
0000
0001
0010
1000
0010
,  // measure 102
0001
0000
0100
0010
0101
0000
1000
0100
,  // measure 103
0010
0001
0100
0000
0001
1000
1001
0000
;
