#TITLE:Want to Want Me;
#ARTIST:Jason Derulo;
#BANNER:Want to Want Me-bn.png;
#BACKGROUND:Want to Want Me-bg.png;
#JACKET:Want to Want Me-jacket.png;
#MUSIC:Want to Want Me.ogg;
#SAMPLESTART:35.79;
#SAMPLELENGTH:20;
#DISPLAYBPM:114;
#BPMS:0=113.99;
#BGCHANGES:;

//---------------dance-single - ----------------
#NOTES:
     dance-single:
     :
     Beginner:
     4:
     :
0000
0000
0000
0000
,
0000
0000
0000
0000
,
0001
0000
0001
0000
,
0001
0000
0000
0000
,
1000
0000
1000
0000
,
1000
0000
0000
0000
,
0010
0000
0010
0000
,
0010
0000
0000
0000
,
1000
0000
0000
0000
,
0001
0000
0000
0000
,
0010
0010
0010
0000
,
0100
0000
0000
0000
,
1000
1000
1000
0000
,
0100
0000
0000
0000
,
1000
0000
0001
0000
,
1001
0000
0000
0000
,
0110
0000
0000
0000
,
1000
1000
0000
0001
,
0000
0100
0000
0010
,
0010
0000
0000
1000
,
0000
0001
0000
0100
,
0100
0000
0000
0010
,
0000
1000
1000
0000
,
1001
0000
0010
0000
,
0110
0000
0010
0000
,
0100
0000
0100
0000
,
0100
0000
0010
0000
,
1000
0000
0001
0000
,
0100
0000
0000
0000
,
0020
0000
0000
0000
,
0030
0000
1000
0000
,
1001
0000
0000
0000
,
0110
0000
0000
0000
,
0200
0000
0000
0000
,
0300
0000
0001
0000
,
0100
0100
0100
0000
,
1001
0000
0110
0000
,
1000
1000
0000
0100
,
0000
1000
0000
0001
,
0001
0000
0000
0010
,
0000
0001
0000
0100
,
0100
0000
0000
0010
,
0000
1000
1000
0000
,
1001
0000
0001
0000
,
0110
0000
1000
0000
,
0100
0100
0000
0010
,
0000
0001
0000
1000
,
1000
0000
0000
0001
,
0000
1000
0000
0010
,
0010
0000
0000
1000
,
0000
0100
0100
0000
,
1001
0000
1000
0000
,
0110
0000
0100
0000
,
0001
0001
0001
0000
,
0010
0000
0001
0000
,
0100
0100
0100
0000
,
0010
0000
1000
0000
,
0010
0010
0010
0000
,
0100
0000
0001
0000
,
1000
1000
1000
0000
,
0001
0000
0010
0010
;

//---------------dance-single - ----------------
#NOTES:
     dance-single:
     :
     Easy:
     7:
     :
0000
0000
0000
0000
,
0000
0000
0000
0000
,
0001
0100
1000
0010
,
0100
1001
0000
0000
,
0010
1000
0001
1000
,
0100
0110
0000
0000
,
0001
0010
0100
1000
,
0001
0101
0000
0000
,
1000
1100
0000
0000
,
0010
1001
0000
1000
,
0001
1000
0010
0100
,
0001
0011
0000
1000
,
0001
1000
0010
0100
,
0010
1010
0000
0100
,
1000
0001
1000
1001
,
0110
0000
0000
1001
,
0110
0000
0000
0000
,
0001
2200
0300
0020
,
3000
1000
0100
0031
,
0010
2020
0030
0002
,
3000
0010
1000
0103
,
0001
0022
0030
2000
,
0003
0100
0001
3010
,
1001
0000
0100
0010
,
0110
0000
1000
0100
,
0001
0010
1000
0100
,
0020
0000
0001
0031
,
1000
0001
1000
0100
,
2000
0010
0010
3001
,
0200
0020
0000
0330
,
2000
3000
0001
0100
,
0010
0000
0000
0100
,
0010
0000
0000
1000
,
0001
0010
0100
1000
,
0010
0000
1000
0001
,
0011
0011
1100
1100
,
0101
1100
0101
1100
,
0010
2002
3000
0200
,
0003
1000
0001
0310
,
0100
0202
0003
0020
,
0300
0100
0001
1030
,
0001
2200
0300
0002
,
3000
0010
1000
0103
,
0110
0000
1000
0001
,
1001
0000
0010
1000
,
0100
0022
0003
0002
,
0030
1000
0010
0103
,
0010
2002
3000
0200
,
0003
0010
1000
0301
,
0100
2020
0030
0020
,
3000
0001
1000
0130
,
0110
0000
1000
0001
,
1001
0000
1000
0100
,
0001
0010
0001
0100
,
0020
0000
1000
1030
,
0100
1000
0010
1000
,
0002
0000
0010
1003
,
0100
1000
0010
0100
,
0020
0000
0100
0130
,
0010
1000
0001
1000
,
0200
0000
0010
0310
;

//---------------dance-single - ----------------
#NOTES:
     dance-single:
     :
     Medium:
     10:
     :
0000
0000
0000
0000
,
0000
0000
0000
0000
,
0001
0000
0001
0100
1000
0000
0010
0100
,
0001
0000
1010
0000
0000
1000
0100
0010
,
0001
0000
0001
1000
0010
0000
1000
0100
,
0010
0000
0011
0000
0000
0100
0001
1000
,
0010
0000
0010
1000
0001
0000
0100
0001
,
1000
0000
1100
0000
0010
0000
0100
0001
,
1000
0000
0000
0000
0101
0000
0000
0000
0010
0000
0000
0000
1000
0001
1000
0001
,
1000
0000
0010
0100
0001
0000
1000
0001
,
0010
0100
0010
0001
1000
0000
0010
1000
,
0001
0000
1000
0100
0010
0000
0001
1000
,
0001
0100
0010
1000
0001
0000
1000
0100
,
0010
0000
0001
0100
1000
0000
0010
1000
,
0001
0100
0010
0000
1000
0001
0200
0000
,
0310
0000
1001
0000
0100
0010
2000
0000
,
3001
0100
0000
0100
,
0110
0000
0000
0000
2000
0000
0000
0000
3000
0000
0000
0000
0001
0100
0001
0000
,
0000
0020
0032
2003
,
3010
0000
0100
0000
0002
0000
0000
0000
0003
0000
0000
0000
1000
0100
1000
0000
,
0000
0002
2003
3200
,
0310
0000
0001
0000
0200
0000
0000
0000
0300
0000
0000
0000
0010
1000
0010
0000
,
0000
0000
0000
0000
0200
0000
0000
0000
0301
0000
0000
1000
0000
0000
0001
0000
,
0020
0000
0000
0000
0030
0000
0000
0000
0100
0000
0000
1000
0000
0000
0001
0000
,
0200
0000
0300
0001
1000
0010
0100
0001
,
2001
0000
3010
0100
0210
0000
0301
2000
,
0000
0000
3000
0010
1000
0010
0100
0001
,
0012
0000
1003
0001
2100
0000
3010
0200
,
0000
0000
0301
1000
0001
0100
0010
1000
,
0001
0010
2000
0000
0000
0000
0100
0000
,
0000
0000
3010
0000
1000
0001
0200
0000
,
0310
1000
0000
0002
,
0013
0000
0100
0000
0000
1000
0010
1000
,
0100
0000
0000
0010
0000
0000
0001
0000
2000
0000
0000
0000
0000
0000
0000
0000
,
0010
0000
0100
0000
3001
1000
0002
0000
,
0013
0011
1100
0101
,
1000
0000
0000
0001
0000
0000
0100
0000
0010
0000
0000
1000
0000
0000
0001
0000
,
0011
0000
0000
0000
1001
0000
0000
0000
0100
0000
0000
0000
0010
1000
0010
0000
,
0000
2000
3200
0320
,
0031
0000
1000
0000
0010
0000
0100
0000
0001
0000
0000
0000
0010
0001
0010
0000
,
0000
0200
2300
3002
,
1003
0000
0001
0000
0010
0000
0001
0000
0100
0000
0000
0000
0001
1000
0001
0000
,
0000
0000
0000
0000
1010
0000
0000
0000
0100
0000
0000
0001
0000
0000
1000
0000
,
0002
0000
0000
0000
0003
0000
0000
0000
0010
0000
0000
0100
0000
0000
1000
0000
,
0020
0000
0030
1000
0001
0010
0001
0100
,
0010
0000
0000
0000
0102
0000
0000
0000
1003
0000
0000
0000
0001
0100
0001
0000
,
0000
0020
0230
2300
,
3001
0000
1000
0000
0100
0000
0000
0000
1000
0000
0000
0000
0010
0100
0010
0000
,
0000
2000
3002
0203
,
0301
0000
0010
0000
1000
0000
0000
0000
0100
0000
0000
0000
1000
0001
1000
0000
,
0000
0000
0000
0000
1100
0000
0000
0000
0010
0000
0000
1000
0000
0000
0001
0000
,
2000
0000
0000
0000
3000
0000
0000
0000
0100
0000
0000
0010
0000
0000
0001
0000
,
0200
0000
0300
0001
0100
0010
1000
0001
,
0012
0000
1003
0001
0201
0000
0310
2000
,
0000
0000
3000
0100
1000
0010
1000
0001
,
2001
0000
3010
1000
1020
0000
0130
0002
,
0000
0000
0003
1000
0100
0010
0001
0100
,
0120
0000
1030
0010
1020
0000
0130
0002
,
0000
0000
0003
0010
0001
0010
0100
1000
,
2100
0000
3001
1000
1020
0000
0130
0002
,
0000
0000
0000
0000
0003
0000
0000
0000
0100
0010
0000
0000
0100
0010
0000
0000
;

//---------------dance-single - ----------------
#NOTES:
     dance-single:
     :
     Hard:
     13:
     :
0000
0000
0000
0000
,
0000
0000
0000
0000
,
0101
0000
0000
0000
0010
0000
1000
0000
1100
0000
0000
0000
0001
0100
0001
0100
,
0000
0000
0010
1000
0001
0000
0000
0000
0100
0000
0010
0000
1000
0000
0001
0000
,
0011
0000
0000
0000
0100
0000
1000
0000
1010
0000
0000
0000
0100
0001
0100
0001
,
0000
0000
0010
0100
1000
0000
0000
0000
0001
0000
1000
0000
0001
0000
0100
0000
,
0110
0000
0000
0000
0001
0000
1000
0000
1001
0000
0000
0000
0010
0100
0010
0100
,
0000
0000
0001
1000
0100
0000
0000
0000
0010
0000
0000
0001
1000
0010
0100
0002
,
0000
0000
0000
0000
0013
0100
1000
0001
0000
0000
0100
0010
1000
0001
1000
0100
,
0010
0001
0100
0001
0010
0100
1000
0001
,
0100
0000
0010
0000
0100
0000
0001
0000
1000
0000
0000
0000
1000
0100
0010
0001
,
0100
0000
0001
0010
0001
0100
0010
1000
,
0100
0000
0001
0000
0100
0000
1000
0000
0010
0000
0000
0000
0100
0001
1000
0001
,
0100
0010
1000
0001
1000
0100
0010
0001
,
0100
0010
1000
0001
0010
0010
0011
0000
,
1100
0000
0000
0000
0010
0000
1000
0001
1000
0000
0100
0000
0110
0000
0000
0000
,
1001
0100
0000
0100
,
1010
0000
0000
0000
0101
0000
0010
0000
1000
0000
0000
0000
0001
1000
0100
0000
,
0000
0010
0000
0000
0002
0000
0000
0000
2003
0000
0000
0000
3010
0000
0000
0000
,
1001
0000
1010
0000
0001
0000
0100
0000
1000
0000
0000
0010
1000
0001
1000
0000
,
0000
0100
0000
0000
0020
0000
0000
0000
0032
0000
0000
0000
1003
0001
1000
0001
,
0100
0000
0100
0000
0010
0000
1000
0000
0001
0000
0000
0010
0001
1000
0001
0000
,
0000
0100
0000
0000
0020
0000
0000
0000
2030
0000
0000
3002
0000
0000
0103
0000
,
1001
0000
0000
0000
0010
0000
1000
0000
0200
0000
0000
0320
0000
0000
0031
0000
,
1100
0000
0001
0000
1000
0000
0001
1000
0100
0010
0000
0001
0000
0100
0010
0000
,
2010
0000
3100
0100
0011
0001
1000
1010
,
0000
0100
0000
0000
1000
0000
0001
1000
0100
0010
0000
0001
0000
1000
0010
0000
,
0102
0000
0013
0010
1100
0001
1000
0110
,
0000
0001
0000
0000
1000
0010
1000
0010
0100
0001
1000
0000
0100
0000
0010
0000
,
0001
0000
0100
0010
2000
0000
0000
0000
0001
0000
0000
0000
0010
0000
0000
0000
,
0001
0000
0100
0000
0010
0010
3010
0000
,
0110
0000
0001
0100
1000
0000
1100
0000
,
0011
0000
0001
0100
0010
1000
0001
1000
,
0100
0000
0010
0001
0000
1000
0001
0100
0020
0000
0000
0000
1000
0000
0000
0000
,
0001
0000
1000
0000
0100
0100
0130
0000
,
0110
1001
1010
1100
,
0011
0000
0000
0101
0000
0000
1010
0000
1100
0000
0000
0101
0000
0000
1100
0000
,
1001
0000
0000
0000
0110
0000
1000
0000
0001
0000
0000
0000
0010
0001
0100
0000
,
0000
0010
0000
0000
2000
0000
0000
0000
3200
0000
0000
0000
0310
0000
0000
0000
,
0011
0000
1100
0000
0001
0000
1000
0000
0010
0000
0100
0000
0001
1000
0010
0000
,
0000
0100
0000
0000
0002
0000
0000
0000
2003
0000
0000
0000
3100
0010
0100
0010
,
0001
0000
0101
0000
1000
0000
0001
0000
0100
0000
0000
0010
1000
0001
0100
0000
,
0000
0100
0000
0000
0010
0000
0000
0000
2000
0000
0000
3200
0000
0000
0310
0000
,
1001
0000
0000
0000
0010
1000
0010
0100
0002
0000
0000
0023
0000
0000
0130
0000
,
1100
0000
0000
0000
0001
0000
1000
0001
1000
0010
0000
0100
0000
0001
1000
0000
,
1010
0000
0000
0000
0001
0010
0100
1000
0010
0000
0000
0000
1000
0001
1000
0000
,
0000
0010
0000
0000
0100
0001
0100
0001
1000
0000
0010
0000
0100
0000
0001
0000
,
1001
0000
0011
0000
1000
0000
0100
0000
0001
0000
0000
0010
0001
1000
0010
0000
,
0000
0100
0000
0000
0010
1000
0010
1000
0001
0000
0010
0000
0100
1000
0100
1000
,
0010
0000
1001
0000
0100
0000
0010
0000
1000
0000
0000
0001
0010
0001
0100
0000
,
0000
0010
0000
0000
1000
0000
0000
0000
0002
0000
0000
0023
0000
0000
0130
0000
,
0110
0000
0000
0000
0001
1000
0001
1000
0020
0000
0000
2030
0000
0000
3100
0000
,
0011
0000
0000
0000
0100
1000
0100
1000
0001
0010
0000
0001
0000
1000
0010
0000
,
1002
0000
0013
0010
0101
0010
1000
1100
,
0000
0001
0000
0000
0100
0000
0010
1000
0100
0010
0000
0001
0000
1000
0001
0000
,
2010
0000
3100
0100
1001
0010
0100
0101
,
0000
1000
0000
0000
0001
0000
0010
0001
1000
0010
0000
1000
0000
0001
0100
0000
,
0210
0000
0301
0001
0011
1000
0100
1001
,
0000
0010
0000
0000
1000
0100
1000
0100
1000
0010
0000
0100
0000
0001
1000
0000
,
0102
0000
0013
0010
0110
0100
1000
1100
,
0000
0001
0000
0000
1000
0100
1000
0001
0100
0010
0000
0000
0100
0010
0000
0000
;
