#TITLE:Wannabe;
#ARTIST:Spice Girls;
#BANNER:Wannabe.png;
#BACKGROUND:Wannabe-bg.png;
#JACKET:Wannabe-jacket.png;
#MUSIC:Wannabe.ogg;
#OFFSET:0.195;
#SAMPLESTART:43.41;
#SAMPLELENGTH:20;
#DISPLAYBPM:110;
#BPMS:0=110.05;
#BGCHANGES:;

//---------------dance-single - ----------------
#NOTES:
     dance-single:
     :
     Beginner:
     2:
     :
0000
0000
0000
0000
,
0000
0000
0000
0000
,
0000
0000
0000
0000
,
0001
0000
1000
0000
,
1000
0000
0001
0000
,
1000
0000
0001
0000
,
0100
0100
0100
0100
,
0100
0000
0000
0000
,
0001
0000
0001
0000
,
0100
0100
0100
0000
,
1000
0000
1000
0000
,
0001
0000
0100
0000
,
1000
0000
1000
0000
,
0100
0100
0100
0000
,
0001
0000
0001
0000
,
1000
0000
0100
0000
,
0001
0000
1000
0000
,
1000
0000
0001
0000
,
0100
0100
0100
0100
,
0100
0000
0000
0000
,
1001
0000
0000
0000
,
0010
0010
0010
0000
,
0001
0000
1000
0000
,
0001
0000
1000
0000
,
1001
0000
0000
0000
,
0010
0010
0010
0000
,
1000
0000
0001
0000
,
1000
0000
0001
0000
,
1001
0000
0000
0000
,
0000
0000
0000
0000
,
0010
0010
0010
0010
,
0010
0000
0100
0000
,
0010
0000
0100
0000
,
0000
0000
0000
0000
,
0010
0000
0100
0000
,
0010
0000
0100
0000
,
1000
0000
0001
0000
,
0001
0000
1000
0000
,
0001
0000
1000
0000
,
1000
0000
0001
0000
,
1001
0000
0000
0000
;

//---------------dance-single - ----------------
#NOTES:
     dance-single:
     :
     Easy:
     4:
     :
0000
0000
0000
0000
,
0000
0000
0000
0000
,
0000
0000
0000
0000
,
0010
0000
0010
1000
,
1000
0000
0001
0000
,
0010
0000
0010
0001
,
0010
0010
0010
0010
,
0010
0100
0010
0001
,
0000
0000
0000
0000
,
0010
1000
0001
0100
,
0010
0000
1000
0000
,
0001
1000
0200
0300
,
0000
0000
0000
0000
,
0010
0001
1000
0100
,
0010
0000
0001
0000
,
1000
0001
0200
0300
,
0001
0000
1000
0000
,
0010
0000
0010
1000
,
0010
0010
0010
0010
,
0010
0100
0010
1000
,
0000
0000
0000
0001
,
0010
0100
1000
1000
,
0000
0000
0000
0100
,
0001
0010
0100
1000
,
0000
0000
0000
1000
,
0010
0001
1000
0001
,
0000
0000
0000
0100
,
1000
0010
0100
0001
,
0000
0000
0000
0001
,
0000
0000
0000
0000
,
0010
0010
0010
0010
,
0010
0100
1000
0000
,
0100
0010
0001
0000
,
0000
0000
0000
0000
,
0010
0100
0001
0000
,
0010
0100
0010
0001
,
1000
0000
0001
0000
,
0010
0000
0010
0001
,
0001
0000
1000
0000
,
0010
0000
0010
1000
,
0000
0000
0000
0001
;

//---------------dance-single - ----------------
#NOTES:
     dance-single:
     :
     Medium:
     8:
     :
0000
0000
0000
0000
,
0000
0000
0000
0000
,
0000
0000
0000
0000
,
0010
0000
0000
0010
0001
1000
0001
0000
,
1000
0000
0000
0100
0001
0000
0000
0001
,
0010
0000
0000
0010
1000
0001
1000
0000
,
0010
1010
0100
0101
,
0010
0100
0010
0001
,
0100
0011
1000
0100
,
0010
1000
0001
0100
,
0010
0000
0100
0000
1000
0001
0100
0000
,
0001
1000
0200
0301
,
0100
1010
0001
0100
,
0010
0001
1000
0100
,
0010
0000
0100
0000
0001
1000
0100
0000
,
1000
0001
0200
1300
,
0001
0000
0000
0100
1000
0000
0000
1000
,
0010
0000
0000
0010
0001
1000
0001
0000
,
0010
0011
0100
1100
,
0010
0000
0100
0000
0010
0001
1000
0000
,
0010
0000
1000
0000
0100
0001
0001
0000
,
0010
1000
0100
0000
1000
0000
1000
0000
,
0010
0001
0100
1100
,
0001
0010
0100
1000
,
0010
0000
0001
0000
0100
1000
1000
0000
,
0010
0001
1000
1000
,
0010
0000
1000
0000
0100
0001
0100
0000
,
1000
0010
1100
0101
,
0010
0000
1000
0000
0100
0001
0001
0000
,
0000
0001
0000
1000
0000
0001
0000
1000
,
0010
1001
0100
1001
,
0010
0000
0100
0000
1000
0001
0100
0000
,
0100
0000
0010
0000
0001
1000
0100
0000
,
0000
0001
0000
1000
0000
0001
0000
1000
,
0010
0000
0100
0000
0001
1000
0100
0000
,
0010
0000
0101
0000
0010
1000
0001
0000
,
1000
0000
0000
0100
0001
0000
0000
0001
,
0010
0000
0000
0010
1000
0001
1000
0000
,
0001
0000
0000
0100
1000
0000
0000
1000
,
0010
0000
0000
0010
0001
1000
0001
0000
,
0010
0000
1000
0000
0100
0001
0000
0000
;

//---------------dance-single - ----------------
#NOTES:
     dance-single:
     :
     Hard:
     10:
     :
0000
0000
0000
0000
,
0000
0000
0000
0000
,
0000
0000
0000
0000
,
0101
0000
0010
0010
0001
1000
0001
0100
,
1001
0000
1000
1000
0101
0000
0001
0001
,
1100
0000
0010
0010
1000
0001
1000
0100
,
1001
0110
1001
0110
,
1000
0100
0001
1000
0001
1000
0001
0000
,
1000
0001
0100
0000
0001
0000
1100
0000
,
0001
1000
0100
0000
1000
0000
0100
0000
,
0001
1000
0200
0000
0310
0001
0100
0000
,
1000
0001
0100
0000
0001
0000
0100
0000
,
0010
1000
0001
0000
1000
0000
1100
0000
,
0001
1000
0101
0000
,
0010
0001
1100
0000
0010
1000
0101
0000
,
1001
0110
1001
0001
,
1100
0000
0010
0010
1000
0001
1000
0100
,
0011
0000
0001
0001
1000
0001
1000
0001
,
1001
0110
1001
0110
,
0001
1000
0100
1000
0001
0010
0100
0000
,
1000
0001
1000
0001
0020
0001
0130
0000
,
0010
1000
0100
0010
1000
0001
0100
0000
,
0001
1000
0001
1000
0010
0000
0101
0000
,
0010
1000
0002
0000
1000
0000
0103
0000
,
0001
1000
0001
1000
0020
1000
0130
0000
,
0010
1000
0001
1000
0001
0000
1100
0000
,
1000
0001
1000
0001
0010
0100
1000
0001
,
0010
0001
2000
0000
0001
0000
3100
0000
,
1000
0001
1000
0001
0020
0001
0130
0000
,
0000
0011
0000
1100
0000
1010
0000
0101
,
1100
0101
1100
0101
,
1000
0001
1000
0001
2000
0000
3100
0000
,
0001
1000
0001
1000
0002
0000
0013
0000
,
0000
0011
0000
1100
0000
1010
0000
0101
,
0001
1000
0001
1000
0001
1000
0010
0001
,
1000
0100
0001
1000
0001
1000
0001
0000
,
1100
0000
0010
0010
1000
0001
1000
0100
,
1010
0000
1000
1000
0001
1000
0001
1000
,
0101
0000
0010
0010
0001
1000
0001
0100
,
1010
0000
1000
1000
0001
0100
0001
0010
,
1000
0001
1000
0001
0020
0001
0030
0000
;

//---------------dance-single - ----------------
#NOTES:
     dance-single:
     :
     Challenge:
     13:
     :
0000
0000
0000
0000
,
0000
0000
0000
0000
,
0000
0000
0000
0000
,
0001
0010
0001
0010
0001
0000
0100
0000
0010
1000
0010
1000
0010
0000
0000
0000
,
1000
0001
1000
0001
1000
0000
0010
0000
0100
0001
0100
0001
0100
0000
0010
0000
,
1000
0100
1000
0100
1000
0000
0001
0000
0010
0100
0010
0100
0010
0000
0001
0000
,
0101
0010
1100
0010
0101
0010
1100
0010
,
0001
0100
0001
0100
0010
1000
0010
1000
0001
1000
0100
0000
2001
0000
0000
0000
,
3010
0000
1000
0100
1000
0000
0001
0000
0100
0000
0100
0000
0010
0000
0000
0000
,
1000
0100
0001
0010
0001
0100
1000
0000
,
0010
0000
1000
0001
1000
0000
0100
0000
0010
0000
0010
0000
0010
0000
0000
0000
,
0001
0000
0100
0010
0100
0000
0001
0000
2000
0000
0100
0000
3100
0000
0000
0000
,
0010
0001
0100
0001
1000
1000
0100
0000
,
0010
0001
0100
0001
2000
0010
3010
0000
,
0100
0000
0100
0000
0100
0000
0010
1000
0000
0001
1000
0000
0100
0000
0010
0000
,
0011
0000
0000
1100
0000
0000
0101
0000
1000
0000
0001
0000
0100
0000
0000
0000
,
0001
0010
0001
0010
0001
0000
1000
0000
0010
0100
0010
0100
0010
0000
1000
0000
,
0100
0010
0100
0010
0100
0000
1000
0000
0001
0100
0001
0100
0001
0000
0010
0000
,
0101
0010
1100
0010
0101
0010
1100
0010
,
0001
1000
0001
1000
0010
0100
0010
0100
0001
1000
0100
0000
1002
0000
0000
0000
,
0013
0001
0010
0001
0100
0000
0010
0000
1000
0000
1000
0000
0001
0000
0000
0000
,
1000
0100
1000
0000
0010
0000
0100
0000
0001
0010
0001
0000
1000
0000
0100
0000
,
0010
0001
0100
0010
1000
0100
1000
1010
,
0000
0101
0000
0000
0010
0000
0001
0000
1000
0010
0100
0010
2000
0000
0000
0000
,
3100
0010
0100
0010
0001
0000
0100
0000
1000
0000
1000
0000
0010
0000
0000
0000
,
0100
0001
0010
1000
0002
0100
0103
0000
,
0001
0001
1000
0100
1000
0010
0100
0110
,
0000
1001
0000
0000
0010
0000
1000
0000
0100
0010
0001
0010
0200
0000
0000
0000
,
1300
0010
0100
0010
1000
0000
0001
0000
0100
0000
0100
0000
0000
0010
1000
0010
,
0000
0100
0001
0100
0000
0001
0010
0001
0000
1000
0100
1000
0000
0001
0010
0100
,
1000
0001
1000
0010
1000
0100
1000
0000
,
0001
0010
0100
0010
0001
0000
1000
0010
0000
1000
0100
0010
0001
0000
0000
0000
,
0100
0001
0010
0001
0100
0000
0010
1000
0000
1000
0100
0010
0001
0000
0101
0000
,
0010
1100
0010
0101
0010
1100
0010
1001
,
1000
0001
0010
0001
1000
0000
0010
0100
0000
0001
0010
0100
1000
0000
0000
0000
,
0001
0100
0010
1000
0001
0000
0001
0000
1000
0100
0010
0000
1002
0000
0000
0000
,
0023
0001
0031
0100
0020
1000
1030
0001
,
2000
0000
0100
0000
3100
0000
0010
0000
0001
0000
0100
0010
0000
0100
0010
0000
,
2000
0001
3001
0010
0002
0100
0103
0010
,
2000
0000
0100
0000
3100
0000
0010
0000
0001
0000
1000
0010
0000
1000
0010
0000
,
0100
0001
0010
0001
1000
0000
0010
0000
0101
0000
1010
0000
0000
0000
0000
0000
;

//---------------dance-double - ----------------
#NOTES:
     dance-double:
     :
     Easy:
     5:
     :
00000000
00000000
00000000
00000000
,
00000000
00000000
00000000
00000000
,
00000000
00000000
00000000
00000000
,
00010000
00000000
00010000
00010000
,
00010000
00000000
10000000
00000000
,
10000000
00000000
10000000
10000000
,
00000000
10000000
00000000
01000000
,
00010000
00010000
00001000
00000000
,
00011000
00000000
00001000
00000000
,
00001000
00000100
00000001
00000000
,
00000001
00000000
00000001
00000000
,
00001000
00001000
00001000
00000000
,
00000000
00000001
00000000
00000001
,
00000000
00000100
00001000
00000000
,
00010000
00000000
00010000
00000000
,
00010000
00100000
01000000
00000000
,
10000000
00000000
00010000
00000000
,
00010000
00000000
10000000
10000000
,
00000000
10000000
00000000
01000000
,
00010000
00010000
00001000
00001000
,
00022000
00033000
00001000
00001000
,
00000010
00000010
00000010
00000000
,
00000001
00000001
00001000
00001000
,
00000100
00000100
00000100
00000000
,
00001001
00000000
00000100
00000000
,
00000010
00000010
00001000
00000000
,
00000001
00000100
00001000
00001000
,
00010000
00010000
00010000
00000000
,
00022000
00033000
00010000
00010000
,
00000000
01000000
00000000
01000000
,
00010000
00010000
00010000
00010000
,
10000000
00000000
10000000
10000000
,
10010000
00000000
00100000
00100000
,
00000000
00000000
00000000
00000000
,
10000000
01000000
00010000
00010000
,
00001000
00001000
00000010
00000000
,
00001001
00000000
00000010
00000000
,
00000010
00000000
00000100
00000100
,
00000100
00000000
00000001
00000000
,
00001000
00000000
00000001
00000100
,
00001000
00000000
00010000
00000000
;

//---------------dance-double - ----------------
#NOTES:
     dance-double:
     :
     Medium:
     8:
     :
00000000
00000000
00000000
00000000
,
00000000
00000000
00000000
00000000
,
00000000
00000000
00000000
00000000
,
00000001
00000000
00000000
00000001
00001000
00000000
00001000
00000000
,
00000110
00000000
00000001
00001000
00000100
00000000
00000000
00000001
,
00000100
00000000
00000000
00000100
00001000
00000000
00010000
00001000
,
00000000
00010000
00000000
01000000
00000000
10000000
00000000
10000000
,
00010000
00000000
00010000
00000000
00010000
01000000
00010000
00000000
,
11000000
00000000
00010000
00000000
10000000
01000000
00010000
00000000
,
00001000
00000000
00001000
00000000
00001000
00000100
00000001
00000000
,
00001100
00000000
00000010
00000000
00000001
00000100
00000010
00000000
,
00001000
00000000
00001000
00000000
00001000
00000100
00000001
00000000
,
00000110
00000000
00001000
00000000
00000001
00000100
00001000
00000000
,
00001000
00000000
00001000
00000000
00010000
01000000
10000000
00000000
,
00010000
00010000
10000000
10000000
,
10000000
01000000
00010000
00000000
00010000
00001000
00010000
00000000
,
00001100
00000000
00000010
00000001
00000100
00000000
00000000
00001000
,
00000100
00000000
00000000
00000001
00000100
00000000
00001000
00010000
,
00100000
01010000
00100000
11000000
,
00100000
00010000
00100000
00000000
01000000
10000000
00010000
00000000
,
00200000
01300000
02000000
13000000
,
10000000
00100000
00010000
00000000
00001000
00000000
00000010
00000000
,
00000002
00000103
00002000
00003100
,
00000021
00000000
00000130
00000000
00001000
00000001
00000100
00000000
,
00002000
00003010
00000020
00000130
,
00000001
00000010
00001000
00000000
00010000
00000000
00100000
00000000
,
20000000
30100000
00020000
00130000
,
01000000
10000000
00100000
00000000
02000000
00000000
03010000
00000000
,
21000000
00000000
30100000
00000000
01000000
00010000
01000000
00000000
,
00001000
00010000
00001000
00000000
00000010
00000100
00000010
00000000
,
00001001
00000100
00001001
00000010
,
00000100
00000001
00000100
00000000
00001100
00000000
00001001
00000000
,
00000020
00000000
00000130
00000000
00001000
00010000
00001000
00010000
,
00000000
00100000
00000000
01010000
00000000
00100000
00000000
00000000
,
02000000
00000000
13000000
00000000
00100000
01000000
00100000
00000000
,
20010000
00000000
30100000
00000000
01000000
00010000
00100000
00000000
,
11000000
00000000
00100000
00010000
00001000
00000000
00000000
00000010
,
00000100
00000000
00000000
00000100
00001000
00000000
00000001
00000100
,
00000001
00000000
00000010
00001000
00010000
00000000
00000000
00100000
,
01000000
00000000
00000000
00010000
10000000
00000000
10000000
00000000
,
01010000
00000000
00100000
01000000
10000000
00010000
00000000
00000000
;

//---------------dance-double - ----------------
#NOTES:
     dance-double:
     :
     Hard:
     10:
     :
00000000
00000000
00000000
00000000
,
00000000
00000000
00000000
00000000
,
00000000
00000000
00000000
00000000
,
00001000
00000000
00001000
00000001
00000100
00000100
00000100
00000000
,
00001100
00000000
00000001
00000100
00000001
00000000
00001000
00000100
,
00001000
00000000
00000001
00000100
00001000
00010000
00000100
00000000
,
00011000
00110000
01100000
10010000
,
01100000
10000000
00010000
01000000
01000000
00000000
01000000
00000000
,
11000000
00000000
00010000
00100000
01000000
00000000
01000000
00000000
,
10000000
00100000
00010000
00000000
00100000
10000000
01000000
00000000
,
00010000
00000000
00001000
00010000
00000100
00000000
00000100
00000000
,
00001000
00000010
00000001
00000000
00000010
00001000
00000100
00000000
,
00000001
00000000
00000010
00000100
00000010
00000000
00000100
00000000
,
00001000
00000001
00000100
00000000
00000001
00000100
00001000
00000000
,
00011000
00000000
00010000
01000000
10000000
00000000
10000000
00000000
,
10000000
00100000
00010000
00100000
01000000
00010000
00100000
00000000
,
01010000
00000000
00010000
10000000
00010000
00000000
00010000
10000000
,
00100000
00000000
10000000
01000000
00010000
00001000
00100000
00000000
,
00011000
00001010
00000110
00001001
,
00000110
00000001
00001000
00000000
00000110
00000000
00001001
00000000
,
00001002
00000000
00000103
00000010
00001000
00000100
00000100
00000000
,
00010000
00001000
01000000
00100000
10000000
00010000
00010000
00000000
,
01200000
00000000
00310000
10000000
00100000
01000000
01000000
00000000
,
10020000
00130000
21000000
30010000
,
01200000
00000000
10300000
01000000
00010000
00001000
00001000
00000000
,
00010000
00001000
00000100
00000001
00001000
00000100
00000100
00000000
,
00000021
00000000
00000130
00001000
00000001
00000100
00000100
00000000
,
00001100
00010000
00011000
01000000
,
00210000
00000000
01300000
10000000
00100000
01000000
01000000
00000000
,
01100000
00000000
10010000
00000000
00110000
00000000
11000000
01000000
,
00010000
11000000
00110000
00011000
,
00000010
00000100
00000010
00000000
00001000
00000001
00001000
00000000
,
00000210
00000000
00000301
00001000
00001000
00001000
00001000
00001100
,
00000000
00000001
00000000
00000101
00000000
00000110
00000000
00001000
,
00002010
00000000
00003001
00000100
00001000
00010000
00001000
00000000
,
00010000
01000000
10000000
00100000
01000000
00100000
01000000
00000000
,
10010000
00000000
00010000
00100000
01000000
00000000
01000000
10000000
,
10000000
00000000
10000000
00100000
00010000
00001000
00010000
00000000
,
00001100
00000000
00001000
00000001
00000100
00000000
00000100
00000010
,
00001000
00000000
00001000
00000001
00000100
00001000
00010000
00001000
,
00011000
00001000
00001000
00001000
;
