#TITLE:Walk Away;
#ARTIST:Kelly Clarkson;
#BANNER:Walk Away-bn.png;
#BACKGROUND:Walk Away-bg.png;
#JACKET:Walk Away-jacket.png;
#MUSIC:Walk Away.ogg;
#OFFSET:0.015;
#SAMPLESTART:41.106;
#SAMPLELENGTH:20;
#DISPLAYBPM:116;
#BPMS:0=116;
#BGCHANGES:;

//---------------dance-single - ----------------
#NOTES:
     dance-single:
     :
     Beginner:
     3:
     :
0000
0000
0000
0000
,
0000
0000
0000
0000
,
0000
0000
0000
0000
,
0000
0000
0000
0000
,
1000
0000
1000
0000
,
0001
0000
0001
0000
,
0100
0000
0010
0000
,
1000
0000
0000
0000
,
0100
0000
0100
0000
,
0010
0000
0010
0000
,
0001
0000
1000
0000
,
0010
0000
0000
0000
,
0110
0000
0001
0000
,
0110
0000
1000
0000
,
0110
0000
0010
0000
,
0110
0000
0000
0000
,
0001
0000
0010
0000
,
0001
0000
1000
0000
,
0010
0000
1000
0000
,
0100
0000
0010
0000
,
0001
0000
0001
0000
,
1000
0000
1000
0000
,
0010
0000
0100
0000
,
0001
0000
0000
0000
,
1000
0000
1000
0000
,
0010
0000
0010
0000
,
0100
0000
0001
0000
,
1000
0000
0001
0001
,
0000
0010
0000
0100
,
0000
0000
0000
0000
,
0000
1000
0000
0001
,
0000
0000
0000
0000
,
0010
0000
0010
0000
,
0100
0000
0100
0000
,
0010
0000
0001
0000
,
1000
0000
0000
0000
,
0001
0000
0100
0000
,
0010
0000
0100
0000
,
0010
0000
1000
0000
,
0001
0000
0000
0000
,
1001
0000
0010
0000
,
1001
0000
0100
0000
,
1001
0000
0001
0000
,
1001
0000
0000
0000
,
1000
0000
0100
0000
,
0010
0000
0001
0000
,
0100
0000
0010
0000
,
1000
0000
0001
0000
,
0010
0000
0010
0000
,
0001
0000
0001
0000
,
1000
0000
0001
0000
,
0100
0000
0000
0000
,
0010
0000
0010
0000
,
1000
0000
1000
0000
,
0001
0000
1000
0000
,
0010
0000
0100
0100
,
0000
0001
0000
1000
,
0000
0000
0000
0000
,
0000
0010
0000
0100
,
0000
0000
0000
0000
,
0002
0000
0003
0000
,
2000
0000
3000
0000
,
0020
0000
0030
0000
,
0200
0000
0300
0000
,
0100
0000
0000
0000
;

//---------------dance-single - ----------------
#NOTES:
     dance-single:
     :
     Easy:
     6:
     :
0000
0000
0000
0000
,
0000
0000
0000
0000
,
0000
0000
0000
0000
,
0000
0000
0000
0000
,
1000
0010
0100
0001
,
0010
0100
1000
0001
,
1000
0010
0100
0001
,
0010
0000
0001
0000
,
1000
0001
0100
0010
,
1000
0100
0010
0001
,
0100
0010
1000
0001
,
1000
0000
0100
0000
,
1001
0000
0010
0100
,
0110
0000
0001
1000
,
0110
0000
0010
0100
,
0001
1000
0100
1001
,
0010
1000
0001
0100
,
0001
1000
0100
0010
,
0001
0100
0010
1000
,
0010
0000
0100
0000
,
0001
1000
0020
0130
,
0010
1000
0002
0103
,
0001
0010
0001
0100
,
1000
0000
0001
0000
,
1000
0001
0020
0130
,
1000
0001
0100
0010
,
1000
1000
0001
0001
,
0200
0300
0110
1001
,
0010
1000
0100
0001
,
0010
0000
0100
0000
,
1000
0010
0100
0001
,
1000
0000
0001
0000
,
0010
0001
0010
0100
,
1000
0010
1000
0001
,
1000
0100
0010
0001
,
1000
0000
0010
0000
,
1000
0100
1000
0001
,
0010
0001
0100
0010
,
1000
0100
1000
0001
,
0100
0000
0001
0000
,
0110
0000
0001
1000
,
1001
0000
0100
0010
,
1001
0000
0010
1000
,
0001
0100
0010
0110
,
1000
0100
1000
0100
,
0010
0001
0010
0001
,
0100
0010
1000
0001
,
0010
0000
0100
0000
,
1000
0001
2000
3100
,
0010
0001
0200
0310
,
1000
0100
1000
0001
,
0010
0000
0001
0000
,
0100
0010
0200
0301
,
1000
0010
1000
0100
,
0010
0010
0100
0100
,
2000
3000
1001
0110
,
0001
0010
0001
0100
,
1000
0000
0010
0000
,
0100
0001
1000
0010
,
1000
0000
0100
0000
,
0010
0000
0001
0000
,
1000
0000
0100
0000
,
1000
0000
0010
0000
,
0100
0000
0001
0000
,
0100
0000
0000
0000
;

//---------------dance-single - ----------------
#NOTES:
     dance-single:
     :
     Medium:
     9:
     :
0000
0000
0000
0000
,
0000
0000
0000
0000
,
0000
0000
0000
0000
,
0000
0000
0000
0000
,
1000
0010
0100
0001
,
0010
0100
1000
0000
0010
0100
0001
0000
,
1000
0000
0001
0000
1000
0100
0010
0001
,
0000
0100
0000
0010
0000
1000
0001
0000
,
0010
0001
0100
1000
,
0010
1000
0100
0000
0010
0001
0100
0000
,
0010
0000
0100
0000
0001
0100
0010
1000
,
0000
0100
0000
0010
0000
0000
0001
1000
,
0020
0000
1030
0100
0000
1000
0000
0002
,
0000
0103
0000
0010
0000
1000
0000
0200
,
0000
1300
0000
0020
0000
0130
0000
0110
,
0000
1001
0000
0010
0000
1000
0001
0000
,
0010
0001
1000
0100
,
1000
0010
1000
0000
0100
0010
0001
0000
,
0100
0000
0010
0000
1000
0001
1000
0100
,
0000
1000
0000
0001
0000
0100
0000
0010
,
1000
0000
0100
0000
1000
0000
0010
0200
,
0000
0301
1000
0000
0100
0000
1000
0020
,
0000
0130
0010
1000
0001
1000
0100
0000
,
1000
0001
0000
0110
0000
0000
0001
1000
,
0010
0000
1000
0000
0100
0000
1000
0002
,
0000
0103
0010
0000
1000
0100
1000
0000
,
0000
0020
0000
2030
0000
3200
0000
2300
,
0000
3002
0000
0103
0010
0100
0010
0000
,
1010
0000
0001
1000
0000
0000
0010
0100
,
0000
0001
0000
1000
0000
0100
0010
0000
,
0001
0000
0100
0010
0000
0000
1000
0001
,
0000
0010
0000
0001
0000
0100
1000
0000
,
0010
1000
0100
0001
,
0010
0001
1000
0000
0010
1000
0001
0000
,
1000
0000
0100
0000
1000
0010
0100
0001
,
0000
0010
0000
0100
0000
1000
0001
0000
,
0010
0100
1000
0001
,
1000
0100
0010
0000
0001
0100
1000
0000
,
0010
0000
0010
0000
1000
0100
1000
0001
,
0000
0010
0000
0100
0000
0000
1000
0001
,
2000
0000
3010
0100
0000
0001
0000
0020
,
0000
0031
0000
0100
0000
0010
0000
2000
,
0000
3100
0000
0002
0000
0013
0000
0011
,
0000
1100
0000
0010
0000
1000
0100
0001
,
0010
0001
1000
0100
,
1000
0010
0100
0001
,
1000
0100
1000
0100
0010
0001
0010
0001
,
0000
0100
0000
0020
0000
0000
0000
1030
,
0001
0000
0100
0000
0010
0000
1000
0200
,
0000
1300
0001
0000
0010
0000
0001
0200
,
0000
0310
1000
0010
1000
0100
0001
0000
,
0010
0100
0000
1001
0000
0000
0100
0010
,
0001
0000
0100
0000
1000
0000
0010
0200
,
0000
0301
1000
0000
0010
1000
0100
0000
,
0000
1100
0000
0011
0000
0101
0000
1010
,
0000
1001
0000
0001
1000
0001
1000
0000
,
0010
0000
1000
0001
0000
0000
0100
0010
,
0000
1000
0000
0100
0000
0010
0001
0000
,
1000
0000
0001
0100
0000
0000
0010
1000
,
0000
0100
0000
1000
0000
0010
0100
0001
,
1000
0100
1000
0200
0000
0000
0300
0000
,
0010
0001
0010
0002
0000
0000
0003
0000
,
1000
0001
0100
0020
0000
0000
0030
0000
,
1000
0100
1000
0200
0000
0000
0310
0001
,
0100
0000
0000
0000
;

//---------------dance-single - ----------------
#NOTES:
     dance-single:
     :
     Hard:
     11:
     :
0000
0000
0000
0000
,
0000
0000
0000
0000
,
0000
0000
0000
0000
,
0000
0000
0000
0000
,
1000
0010
0100
0010
0100
0001
1000
0001
,
0010
0100
0010
0001
0100
0010
1000
0001
,
1000
0100
0001
0100
1000
0010
0100
0001
,
0010
0010
0000
1001
0000
0001
0001
1000
,
0010
1000
0100
1000
0001
0010
0001
0100
,
0010
0100
0001
1000
0100
0010
0100
1000
,
0010
0001
0010
1000
0100
1000
0010
0100
,
0001
0001
0000
0011
0000
1000
1000
0010
,
0200
0000
0301
0010
0000
1000
0100
0020
,
0000
0031
0100
0010
0000
1000
0001
2000
,
0000
3100
0010
0001
0000
0100
0001
0101
,
0000
1100
0010
0002
0000
1003
1000
0001
,
0010
0001
0100
0001
0010
0100
1000
0010
,
0100
1000
0100
0001
0010
0100
0010
0001
,
1000
0001
0100
0010
1000
0100
0010
0001
,
0100
0100
0000
0010
1000
0001
0000
0100
,
0010
1000
0010
0100
0002
0000
0013
0110
,
0000
0001
0100
0010
2000
0000
3100
1100
,
0000
1000
0010
1000
0001
0001
0001
0100
,
0010
1000
0010
0001
0000
1000
0100
0010
,
0001
0100
0010
1000
0200
0000
0310
0011
,
0000
0001
0100
0010
1000
0100
1000
0001
,
0000
0011
0000
1100
0000
0101
0000
1000
,
0010
0100
0000
0001
1000
0110
1001
0000
,
0010
0100
0010
1000
0000
1000
0100
0020
,
0000
0031
0100
0010
0000
1000
0001
1000
,
0100
0010
0001
1000
0000
0010
1000
0100
,
1000
0001
0100
0010
0000
1000
1000
0001
,
0010
0001
0100
0001
0100
1000
0100
0001
,
0010
0100
0010
0001
1000
0010
1000
0100
,
0001
0100
0010
0100
1000
0001
1000
0010
,
0100
0100
0010
1000
0000
0001
0001
0001
,
0010
0001
0100
0010
1000
0100
1000
0001
,
0100
1000
0100
0001
0010
1000
0010
0001
,
0100
0100
0100
0000
0010
1000
0010
0100
,
0001
1000
0010
0100
0000
0100
0001
1000
,
0020
0000
1030
1100
0000
0010
0100
0102
,
0000
0013
0100
0110
0000
1000
0001
0021
,
0000
0130
1000
1010
0000
0001
0010
1002
,
0000
0000
1003
0000
0001
0000
0200
0000
0000
0000
0310
1000
0010
0000
0100
0000
,
0001
0010
0001
0010
0100
1000
0100
1000
,
0010
1000
0010
1000
0001
0100
0001
0100
,
0001
0010
0100
1000
0010
0100
0001
1000
,
0100
0000
0010
0000
0001
0000
2000
0000
0000
0000
3010
0100
0010
0000
1000
0000
,
0001
1000
0010
0100
0020
0000
1030
0101
,
0000
0001
0100
0010
2000
0000
3100
0110
,
0000
0001
0001
0100
0010
1000
1000
0001
,
0100
0100
0001
1000
0000
0010
0100
0010
,
1000
0100
0001
0100
2000
0000
3010
0110
,
0000
0001
0001
0010
0001
0100
0010
1000
,
0000
1100
0000
0101
0000
0011
0000
1000
,
0010
0100
0000
0001
1000
0110
1001
0000
,
0010
1000
0100
0010
0000
0001
1000
0002
,
0000
0103
0010
1000
0000
0001
1000
0100
,
0010
0001
0100
0010
0000
1000
0100
1000
,
0001
0100
0010
1000
0000
1000
0100
0001
,
0010
0100
1000
0001
0000
0100
0010
0000
,
1000
0100
1000
0001
0100
0010
0010
0000
,
1000
0100
1000
0001
0100
0010
1000
0000
,
0001
0010
0100
1000
0000
0010
1000
0001
,
0100
0000
0000
0000
;

//---------------dance-single - ----------------
#NOTES:
     dance-single:
     :
     Challenge:
     13:
     :
0000
0000
0000
0000
,
0000
0000
0000
0000
,
0000
0000
0000
0000
,
0000
0000
0000
0000
,
1000
0001
0100
0001
0010
0100
1000
0010
,
0100
1000
0100
0001
0100
0010
0100
1000
,
0100
1000
0100
0001
0010
0100
1000
0001
,
0100
0000
0100
0000
0010
0000
1000
0000
0000
0000
0001
0100
0001
0100
0001
0100
,
0001
0010
1000
0010
0100
0010
0001
0100
,
0010
0001
0010
1000
0100
0001
0100
0010
,
0100
0010
1000
0010
0001
1000
0001
0100
,
0010
0000
0010
0000
1000
0000
0001
0000
0000
0000
1000
0100
1000
0100
1000
0100
,
2000
0010
3010
0100
0001
0010
0001
1000
,
0100
0010
0100
0001
0100
1000
0010
0100
,
0010
0001
0010
1000
0100
0010
0001
1000
,
0001
0000
0100
0000
0010
0000
1000
0000
0000
0000
0001
0010
0001
0010
0001
0000
,
0100
0010
0100
1000
0100
0001
0010
0001
,
0010
1000
0010
0100
0010
1000
0010
0001
,
1000
0001
0100
0010
1000
0100
1000
0001
,
0010
0000
0010
0000
0001
0000
2000
0000
0000
0000
3010
0100
0010
0000
1000
0000
,
0001
0100
1000
0100
0010
0100
0001
0011
,
0000
1000
1000
0010
0100
0001
0010
1100
,
0000
0000
1000
0000
1000
0000
0010
0000
0100
0000
0001
0000
0010
0100
1000
0000
,
0001
0001
0100
0010
0000
1000
1000
0001
,
1000
0010
0001
0010
1000
0001
0100
0101
,
0000
0000
0010
0000
0010
0000
1000
0000
0100
0010
0001
0000
1000
0000
0001
0100
,
0010
0000
1010
0000
0000
0000
0101
0000
0000
0000
1100
0000
0000
0000
0001
0010
,
0100
0000
1000
0000
0000
0000
0001
0000
0100
0000
0110
0000
1001
0000
0010
1000
,
0001
0010
0002
2003
3010
0100
0020
2030
,
3100
0010
0100
0001
0100
1000
0001
0100
,
0010
1000
0200
0320
0031
0100
0002
2003
,
3010
0000
0010
0000
1000
0000
0001
0000
0000
0000
1000
0100
1000
0100
1000
0100
,
1000
0001
0100
0001
0010
0001
0100
0010
,
1000
0100
0001
0100
0010
0100
0001
0100
,
0001
0100
1000
0001
1000
0010
0100
0001
,
1000
0000
1000
0000
0001
0000
0100
0000
0000
0000
0010
1000
0010
1000
0010
1000
,
0010
0100
0010
0001
0010
1000
0100
0001
,
1000
1000
0010
0100
0001
0001
1000
0100
,
0010
0010
0010
0000
0001
1000
0001
0100
,
0010
0000
0010
0000
0100
0000
0001
0000
0000
0000
1000
0100
1000
0100
1000
0000
,
0002
0100
0103
0010
1000
0100
1000
0001
,
0100
1000
0100
0001
0100
0010
1000
0100
,
0001
0100
1000
0010
0100
0010
1000
0001
,
0010
0000
0100
0000
1000
0000
0001
0000
0000
0000
0100
0010
2000
0000
3002
0000
,
0013
0001
0001
1000
1000
0001
0100
0010
,
0001
0010
1000
0001
1000
0100
0001
0100
,
0001
0100
1000
0001
1000
0010
0100
0001
,
0010
0000
0010
0000
0001
0000
2000
0000
0000
0000
3100
0010
0100
0000
1000
0000
,
0001
0100
0010
0100
0001
1000
0100
1100
,
0000
0001
1000
0001
0100
0010
1000
1010
,
0000
0000
0100
0000
0100
0000
0010
0000
0001
0000
1000
0000
0001
0000
1000
0100
,
0010
0010
0001
1000
0000
0001
0100
0010
,
1000
0100
1000
0010
0100
1000
0100
0110
,
0000
0000
0001
0000
0001
0000
1000
0000
0010
0000
0100
0000
0010
1000
0001
0000
,
1000
0000
1100
0000
0000
0000
0110
0000
0000
0000
0011
0000
0000
0000
0100
0010
,
1000
0000
0001
0000
0000
0000
0100
0000
0010
0000
1001
0000
0110
0000
1000
0100
,
0010
0001
0200
0320
1030
0100
2000
3002
,
0013
0001
0100
0010
1000
0100
1000
0001
,
0100
0010
2000
3200
0310
0001
2000
3002
,
0103
0010
1000
0001
1000
0100
0010
0001
,
0100
0000
0100
0000
0001
0000
1000
0000
0000
0000
0010
0000
0100
0000
0000
0001
,
1000
0000
1000
0000
0100
0000
0010
0000
0001
0000
0001
0000
0001
0000
0000
0100
,
0010
0000
1000
0000
0010
0000
0100
0000
0010
0000
1000
0000
0001
0000
0000
1000
,
0010
0010
1000
0001
1000
0100
0010
0001
,
0100
0000
0000
0000
;
