#VERSION:0.83;
#TITLE:WWW.BLONDE GIRL (MOMO MIX);
#SUBTITLE:;
#ARTIST:JENNY ROM;
#TITLETRANSLIT:;
#SUBTITLETRANSLIT:;
#ARTISTTRANSLIT:;
#GENRE:;
#ORIGIN:;
#CREDIT:;
#BANNER:WWW.BLONDE GIRL (MOMO MIX)-bn.png;
#BACKGROUND:WWW.BLONDE GIRL (MOMO MIX)-bg.png;
#PREVIEWVID:;
#JACKET:WWW.BLONDE GIRL (MOMO MIX)-jacket.png;
#CDIMAGE:;
#DISCIMAGE:;
#LYRICSPATH:;
#CDTITLE:;
#MUSIC:WWW.BLONDE GIRL (MOMO MIX).ogg;
#OFFSET:0.000000;
#SAMPLESTART:34.740002;
#SAMPLELENGTH:20.000000;
#SELECTABLE:YES;
#DISPLAYBPM:170.000000;
#BPMS:0.000=170.000;
#STOPS:;
#DELAYS:;
#WARPS:;
#TIMESIGNATURES:0.000=4=4;
#TICKCOUNTS:0.000=4;
#COMBOS:0.000=1;
#SPEEDS:0.000=1.000=0.000=0;
#SCROLLS:0.000=1.000;
#FAKES:;
#LABELS:0.000=Song Start;
#BGCHANGES:23.000=WWW.BLONDE GIRL (MOMO MIX).mp4=1.000=1=0=0=StretchNoLoop==CrossFade==,
99999=-nosongbg-=1.000=0=0=0 // don't automatically add -songbackground-
;
#KEYSOUNDS:;
#ATTACKS:
;

//---------------dance-single - ----------------
#NOTEDATA:;
#CHARTNAME:;
#STEPSTYPE:dance-single;
#DESCRIPTION:;
#CHARTSTYLE:;
#DIFFICULTY:Beginner;
#METER:4;
#RADARVALUES:0.179703,0.309138,0.195406,0.000000,0.000000,103.000000,87.000000,16.000000,0.000000,0.000000,0.000000,0.000000,0.000000,0.000000,0.179703,0.309138,0.195406,0.000000,0.000000,103.000000,87.000000,16.000000,0.000000,0.000000,0.000000,0.000000,0.000000,0.000000;
#CREDIT:;
#DISPLAYBPM:170.000000;
#NOTES:
0000
0000
0000
0000
,
0000
0000
0000
0000
,
0000
0000
0000
0000
,
0000
0000
0000
0000
,
0000
0000
0000
0000
,
0010
0000
0000
0000
,
0010
0000
0000
0000
,
0010
0000
0010
0000
,
0010
0010
0010
0000
,
1000
0000
0000
0000
,
1000
0000
1000
0000
,
0001
0000
0000
0000
,
0001
0000
0001
0000
,
0100
0000
0000
0000
,
0100
0000
0100
0000
,
0110
0000
0000
0000
,
0110
0000
0110
0000
,
1000
0000
0001
0000
,
0100
0100
0100
0000
,
1000
0000
0001
0000
,
0010
0010
0010
0000
,
1000
0000
0001
0000
,
0100
0100
0100
0000
,
1001
0000
0000
0000
,
1001
0000
0000
0000
,
1000
0000
0000
0000
,
1001
0000
0000
0000
,
0001
0000
0001
0000
,
0001
0000
0001
0000
,
0001
0000
0000
0000
,
1001
0000
0000
0000
,
1000
0000
0001
0000
,
1000
0000
0001
0000
,
1000
0000
0000
0000
,
1001
0000
0000
0000
,
0001
0000
0001
0000
,
0001
0000
0001
0000
,
0001
0000
0000
0000
,
1001
0000
0000
0000
,
1000
0000
0001
0000
,
1000
0000
0001
0000
,
0010
0000
0000
0000
,
1001
0000
0000
0000
,
0001
0000
1000
0000
,
0001
0001
0001
0000
,
0010
0000
0000
0000
,
1001
0000
0000
0000
,
1000
0000
0001
0000
,
1001
1001
1001
0000
,
0010
0000
0000
0000
,
1001
0000
0000
0000
,
1000
0000
0001
0000
,
1000
0000
0001
0000
,
0010
0000
0000
0000
,
1001
0000
0000
0000
,
0010
0010
0010
0000
,
0100
0100
0000
0000
,
0000
0000
0000
0000
;

//---------------dance-single - ----------------
#NOTEDATA:;
#CHARTNAME:;
#STEPSTYPE:dance-single;
#DESCRIPTION:;
#CHARTSTYLE:;
#DIFFICULTY:Easy;
#METER:5;
#RADARVALUES:0.157022,0.207008,0.012213,0.012213,0.000000,90.000000,89.000000,1.000000,1.000000,0.000000,0.000000,0.000000,0.000000,0.000000,0.157022,0.207008,0.012213,0.012213,0.000000,90.000000,89.000000,1.000000,1.000000,0.000000,0.000000,0.000000,0.000000,0.000000;
#CREDIT:;
#DISPLAYBPM:170.000000;
#NOTES:
0000
0000
0000
0000
,
0000
0000
0000
0000
,
0000
0000
0000
0000
,
0000
0000
0000
0000
,
0000
0000
0000
0000
,
1000
0000
0000
0000
,
0001
0000
0000
0000
,
1000
0000
0000
0000
,
0010
0000
0010
0000
,
1000
0000
0000
0000
,
0000
0000
0000
0000
,
0001
0000
0000
0000
,
0000
0000
0100
0100
,
0001
0000
0000
0000
,
0000
0000
0000
0000
,
1000
0000
0000
0000
,
0000
0000
0001
0001
,
1000
0000
0001
0000
,
1000
0000
0000
0000
,
0010
0000
1000
0000
,
0010
0000
0000
0000
,
0100
0000
0001
0000
,
0100
0000
0000
0000
,
0001
0000
0001
0000
,
1001
0000
0000
0000
,
0010
0000
0010
0000
,
1000
0000
1000
0000
,
0001
0000
0001
0000
,
0100
0000
0001
0000
,
1000
0000
1000
0000
,
0100
0000
0100
0000
,
1000
0000
0100
0000
,
0010
0000
0100
0000
,
1000
0000
1000
0000
,
0001
0000
0001
0000
,
0100
0000
0100
0000
,
0010
0000
1000
0000
,
0001
0000
0001
0000
,
1000
0000
1000
0000
,
0100
0000
0100
0000
,
1000
0001
1000
0000
,
0001
0000
0010
0000
,
0001
0000
1000
0000
,
0001
0000
0010
0000
,
0001
0000
1000
0000
,
0010
0000
1000
0000
,
0010
0000
0100
0000
,
0010
0000
1000
0000
,
0010
0000
0100
0000
,
0001
0000
1000
0000
,
0100
0000
1000
0000
,
0001
0000
0100
0000
,
0010
0000
1000
0000
,
0001
0000
1000
0000
,
0100
0000
1000
0000
,
0001
0000
0100
0000
,
0002
0000
0003
0000
,
0000
0000
0000
0000
;

//---------------dance-single - ----------------
#NOTEDATA:;
#CHARTNAME:;
#STEPSTYPE:dance-single;
#DESCRIPTION:;
#CHARTSTYLE:;
#DIFFICULTY:Medium;
#METER:6;
#RADARVALUES:0.298342,0.341960,0.280895,0.097703,0.000000,171.000000,148.000000,23.000000,8.000000,0.000000,0.000000,0.000000,0.000000,0.000000,0.298342,0.341960,0.280895,0.097703,0.000000,171.000000,148.000000,23.000000,8.000000,0.000000,0.000000,0.000000,0.000000,0.000000;
#CREDIT:;
#DISPLAYBPM:170.000000;
#NOTES:
0000
0000
0000
0000
,
0000
0000
0000
0000
,
0000
0000
0000
0000
,
0000
0000
0000
0000
,
0000
0000
0000
0000
,
1000
0000
0001
0000
,
1000
0000
0001
0000
,
1001
0000
1001
0000
,
1000
1000
1000
0000
,
0010
0000
1000
0000
,
0001
0000
1000
0000
,
0010
0000
0010
0000
,
1000
0000
1001
1001
,
0100
0000
0001
0000
,
1000
0000
0100
0000
,
1000
0000
1000
0000
,
0001
0000
1001
1001
,
0020
0030
0200
0300
,
0010
0100
0010
0000
,
2000
3000
0002
0003
,
1000
0001
1000
0000
,
0020
0030
0200
0300
,
0010
0100
0010
0000
,
2000
3000
0002
0003
,
1001
0000
0000
0000
,
1000
0001
1001
0000
,
0001
1000
1001
0000
,
0010
1000
0001
1000
,
0010
0010
1000
1000
,
0001
1000
1001
0000
,
1000
0001
1001
0000
,
0010
1000
0001
0000
,
0010
0001
1000
0000
,
0001
1000
1001
0000
,
1000
0001
1001
0000
,
0010
0001
1000
0001
,
0100
0100
0001
0001
,
1000
0001
1001
0000
,
0001
1000
1001
0000
,
0100
0001
1000
0000
,
0100
0010
0001
0000
,
1000
0010
1010
0000
,
1000
0001
1001
0000
,
0010
0001
1000
0100
,
0010
0010
0001
0001
,
0010
0001
0011
0000
,
0001
1000
1001
0000
,
0010
1000
0001
0000
,
0010
0100
1000
0000
,
0001
0100
1010
0000
,
0010
1000
0101
0000
,
0010
1000
0001
0100
,
0010
0010
1000
1000
,
0010
1000
0101
0000
,
0001
0100
1010
0000
,
0001
0010
0100
1000
,
0001
0000
0000
0000
,
0000
0000
0000
0000
;

//---------------dance-single - ----------------
#NOTEDATA:;
#CHARTNAME:;
#STEPSTYPE:dance-single;
#DESCRIPTION:;
#CHARTSTYLE:;
#DIFFICULTY:Hard;
#METER:11;
#RADARVALUES:0.495493,0.585224,0.561791,0.122128,0.000000,284.000000,238.000000,46.000000,10.000000,0.000000,0.000000,0.000000,0.000000,0.000000,0.495493,0.585224,0.561791,0.122128,0.000000,284.000000,238.000000,46.000000,10.000000,0.000000,0.000000,0.000000,0.000000,0.000000;
#CREDIT:;
#DISPLAYBPM:170.000000;
#NOTES:
0000
0000
0000
0000
,
0000
0000
0000
0000
,
0000
0000
0000
0000
,
0000
0000
0000
0000
,
0000
0000
0000
0000
,
0010
0000
1000
0000
0001
0100
0010
0000
,
1000
0000
0001
0000
0010
0100
1000
0000
,
2002
3003
2002
3003
,
0110
1001
0220
0330
,
0001
0010
0001
2000
0000
0000
0000
0000
,
0000
0010
0010
3010
,
1000
0100
1000
0002
0000
0000
0000
0000
,
0000
0100
0100
0103
,
0001
0010
0100
2000
0000
0000
0000
0000
,
0000
0001
0001
3001
,
1000
0100
0010
0002
0000
0000
0000
0000
,
0000
1000
1000
1003
,
1010
0101
1010
0101
,
0000
0001
0000
1000
0100
1000
0100
0000
,
1010
0101
1010
0101
,
0000
0001
0000
0010
0100
0010
0100
0000
,
0011
1001
1010
1001
,
0000
0100
0000
0010
1000
0100
1000
0000
,
1001
1010
1001
0101
,
1001
0000
0000
0000
0000
0010
1000
0001
,
0100
0000
0010
0000
0110
0000
0000
0010
,
0000
1000
0100
0010
0110
0000
0000
0001
,
0000
1000
0010
1000
0100
0100
0010
0001
,
0000
1000
0000
0010
0000
0100
0001
1000
,
0100
0000
1000
0000
1100
0000
0000
0001
,
0000
0100
0010
1000
1010
0000
0000
0001
,
0000
0100
0010
0100
0001
1000
0000
0100
,
0000
0010
0100
0001
0100
1000
0000
0000
,
0001
0000
0100
0000
0101
0000
0000
1000
,
0000
0100
1000
0001
0101
0000
0000
0010
,
0000
1000
0001
0100
0010
0010
1000
0100
,
0000
0010
0000
0001
0000
0100
0010
0100
,
1000
0000
0100
0000
0110
0000
0000
1000
,
0000
0100
1000
0010
0110
0000
0000
0000
,
1000
0000
1000
0000
0010
0100
0010
1000
,
0000
0001
0100
0001
1000
0000
0000
0000
,
1010
0000
1001
0000
1010
0000
0000
0100
,
0000
0001
0100
0010
0100
0000
0000
0001
,
0000
1000
0100
1000
0010
0010
0100
0001
,
0000
1001
0000
0101
0000
0010
1000
0010
,
1010
0000
1001
0000
1010
0000
0000
0100
,
0000
0001
0100
0010
0100
0000
0000
0001
,
0000
1000
1000
1000
0010
0100
0000
0001
,
0000
0010
0010
0010
0100
1000
0000
0000
,
1001
0000
0011
0000
1001
0000
0000
0010
,
0000
1000
0010
0100
0010
0000
0000
1000
,
0000
0001
0010
0001
0100
0100
0010
1000
,
0000
1001
0000
1010
0000
0100
0001
0100
,
1001
0000
0011
0000
1001
0000
0000
0010
,
0000
1000
0010
0100
0010
0000
0000
0000
,
1000
0000
0001
0000
0010
0001
1000
0010
,
1000
0100
0010
0001
0000
0000
0000
0000
;

//---------------dance-double - ----------------
#NOTEDATA:;
#CHARTNAME:;
#STEPSTYPE:dance-double;
#DESCRIPTION:;
#CHARTSTYLE:;
#DIFFICULTY:Easy;
#METER:4;
#RADARVALUES:0.170980,0.239372,0.183193,0.048851,0.000000,98.000000,83.000000,15.000000,4.000000,0.000000,0.000000,0.000000,0.000000,0.000000,0.170980,0.239372,0.183193,0.048851,0.000000,98.000000,83.000000,15.000000,4.000000,0.000000,0.000000,0.000000,0.000000,0.000000;
#CREDIT:;
#DISPLAYBPM:170.000000;
#NOTES:
00000000
00000000
00000000
00000000
,
00000000
00000000
00000000
00000000
,
00000000
00000000
00000000
00000000
,
00000000
00000000
00000000
00000000
,
00000000
00000000
00000000
00000000
,
00010000
00000000
00000000
00000000
,
00001000
00000000
00000000
00000000
,
00010000
00000000
00001000
00000000
,
00010000
00000000
00011000
00000000
,
00020000
00000000
00030000
00000000
,
00000000
00000000
00000000
00000000
,
00000020
00000000
00000030
00000000
,
00000000
00000000
00001001
00000000
,
00002000
00000000
00003000
00000000
,
00000000
00000000
00000000
00000000
,
00000002
00000000
00000003
00000000
,
00000000
00000000
00001001
00000000
,
00001000
00000000
00000010
00000000
,
00001000
00000000
00000000
00000000
,
00010000
00000000
00001000
00000000
,
00010000
00000000
00000000
00000000
,
00100000
00000000
00010000
00000000
,
00100000
00000000
00000000
00000000
,
00010000
00000000
00001000
00000000
,
00010000
00000000
00000000
00000000
,
10010000
00000000
01000000
00000000
,
10010000
00000000
01000000
00000000
,
10000000
00000000
10000000
00000000
,
00010000
00000000
00000000
00000000
,
00011000
00000000
00010000
00000000
,
00011000
00000000
00001000
00000000
,
00010000
00000000
00000100
00000000
,
00001000
00000000
00000010
00000000
,
00001001
00000000
00000100
00000000
,
00001001
00000000
00000100
00000000
,
00001000
00000000
00001000
00000000
,
00000010
00000000
00010000
00000000
,
00011000
00000000
00010000
00000000
,
00011000
00000000
00001000
00000000
,
01000000
00000000
01000000
00000000
,
10010000
00000000
00000000
00000000
,
00100000
00000000
10000000
00000000
,
00100000
00000000
01000000
00000000
,
00001000
00000000
00001000
00000000
,
00010000
00000000
00000000
00000000
,
00000010
00000000
00001000
00000000
,
00000010
00000000
00000100
00000000
,
00000001
00000000
00001001
00000000
,
00001000
00000000
00001001
00000000
,
00000010
00000000
00010000
00000000
,
00001000
00000000
00010000
00000000
,
00001000
00000000
00001000
00000000
,
01000000
00000000
00000000
00000000
,
00100000
00000000
10000000
00000000
,
00100000
00000000
01000000
00000000
,
00010000
00000000
10000000
00000000
,
10010000
00000000
00000000
00000000
,
00000000
00000000
00000000
00000000
;

//---------------dance-double - ----------------
#NOTEDATA:;
#CHARTNAME:;
#STEPSTYPE:dance-double;
#DESCRIPTION:;
#CHARTSTYLE:;
#DIFFICULTY:Medium;
#METER:6;
#RADARVALUES:0.277406,0.376156,0.097703,0.280895,0.000000,159.000000,151.000000,8.000000,23.000000,0.000000,0.000000,0.000000,0.000000,0.000000,0.277406,0.376156,0.097703,0.280895,0.000000,159.000000,151.000000,8.000000,23.000000,0.000000,0.000000,0.000000,0.000000,0.000000;
#CREDIT:;
#DISPLAYBPM:170.000000;
#NOTES:
00000000
00000000
00000000
00000000
,
00000000
00000000
00000000
00000000
,
00000000
00000000
00000000
00000000
,
00000000
00000000
00000000
00000000
,
00000000
00000000
00000000
00000000
,
00000001
00000000
00000100
00000000
,
00000010
00000000
00010000
00000000
,
00011000
00000000
00011000
00000000
,
00010000
00001000
00011000
00000000
,
00002000
00000000
00000000
00000000
,
00003000
01000000
00100000
10000000
,
00020000
00000000
00000000
00000000
,
00030000
00100000
00001000
00011000
,
00000020
00000000
00000000
00000000
,
00000030
00000100
00000001
00001000
,
00000200
00000000
00000000
00000000
,
00000300
00010000
00001000
00011000
,
00001000
00010000
00001000
02000000
,
00000000
03000000
00100000
00100000
,
10000000
00010000
10000000
02000000
,
00000000
03000000
00100000
00100000
,
00001000
00010000
00001000
02000000
,
00000000
03000000
00001000
00001000
,
00010000
00000100
00000010
00000001
,
00001000
00000000
00000000
00000000
,
00000010
00001000
00000020
00000030
,
00010000
00001000
00020000
00030000
,
01000000
00100000
00010000
10000000
,
00100000
00100000
01000000
00001000
,
00010000
00001000
00020000
00030000
,
00000010
00001000
00000020
00000030
,
00000100
00000010
00010000
00000000
,
00001000
00100000
01000000
00000000
,
10000000
10000000
20000000
30000000
,
00010000
00010000
00020000
00030000
,
01000000
00100000
10000000
00010000
,
00100000
00001000
00010000
00001000
,
00010000
00010000
00020000
00030000
,
00000010
00000010
00000020
00000030
,
00000100
00000010
00000100
00000010
,
00001001
00001001
00001001
00000000
,
00000010
00010000
02000000
03000000
,
00100000
00001000
00020000
00030000
,
00000100
00000010
00000001
00001000
,
00000010
00000010
00010000
00001000
,
01000000
00100000
20000000
30000000
,
00100000
10000000
02000000
03000000
,
00100000
00001000
00010000
00000000
,
00000010
00001000
00000100
00000000
,
00000010
00000001
00000002
00000003
,
00001000
00000010
00000020
00000030
,
00000100
00000010
00001000
00000010
,
00010000
00001000
00010000
00000000
,
00001000
01000000
02000000
03000000
,
00010000
10000000
20000000
30000000
,
00100000
01000000
00100000
01000000
,
00010000
00000000
00000000
00000000
,
00000000
00000000
00000000
00000000
;

//---------------dance-double - ----------------
#NOTEDATA:;
#CHARTNAME:;
#STEPSTYPE:dance-double;
#DESCRIPTION:;
#CHARTSTYLE:;
#DIFFICULTY:Hard;
#METER:11;
#RADARVALUES:0.500727,0.585224,0.195406,0.097703,0.000000,287.000000,271.000000,16.000000,8.000000,0.000000,0.000000,0.000000,0.000000,0.000000,0.500727,0.585224,0.195406,0.097703,0.000000,287.000000,271.000000,16.000000,8.000000,0.000000,0.000000,0.000000,0.000000,0.000000;
#CREDIT:;
#DISPLAYBPM:170.000000;
#NOTES:
00000000
00000000
00000000
00000000
,
00000000
00000000
00000000
00000000
,
00000000
00000000
00000000
00000000
,
00000000
00000000
00000000
00000000
,
00000000
00000000
00000000
00000000
,
10000000
01000000
00100000
00010000
,
01000000
00000000
00001000
00000000
00010000
00001000
00010000
00000000
,
00001000
00000010
00000001
00000100
,
00001001
00011000
10010000
00000000
,
00100000
10000000
00010000
01000000
00100000
00000000
00100000
00000000
,
00100000
10000000
00010000
01000000
,
00001000
00010000
00000100
00001000
00000001
00000000
00000001
00000000
,
00000001
00001000
00000010
00000100
,
00000001
00001000
00000010
00010000
00001000
00000000
00001000
00000000
,
00001000
01000000
00010000
10000000
,
01000000
10000000
00010000
01000000
00100000
00000000
00100000
00000000
,
00100000
10000000
00010000
01000000
,
00020000
00000000
01000000
01000000
02030000
00000000
00010000
00010000
,
03010000
00100000
00001000
00010000
,
00000200
00000000
00001000
00001000
00002300
00000000
00000100
00000100
,
00003100
00000010
00000001
00001000
,
00000020
00000000
00010000
00010000
00020030
00000000
00001000
00001000
,
00031000
01000000
00100000
10000000
,
02000000
00000000
10000000
10000000
23000000
00000000
00010000
30010000
,
10010000
01000000
01000000
00001000
,
00010000
00001000
00010000
00000000
00000100
00000000
00000010
00000000
,
00000001
00001000
00000001
00000000
00000100
00000000
00000010
00000000
,
00010000
00001000
00010000
00000000
00001000
01000000
00010000
00000000
,
10000000
00000000
10100000
00000000
01000000
00100000
10000000
00000000
,
00010000
00000000
00010000
00000000
01000000
00001000
00010000
00000000
,
00000010
00000000
00000010
00000000
00000100
00001000
00000100
00000000
,
00000001
00001000
00000100
00001000
00000010
00001000
00000001
00000001
,
00000100
00000010
00000100
00001000
00000100
00000010
00010000
00010000
,
00001000
01000000
00010000
00000000
00100000
00000000
01000000
00000000
,
10000000
00010000
10000000
00000000
01000000
00000000
00100000
00000000
,
00001000
00010000
00001000
00000000
00010000
00000100
00001000
00000000
,
00000001
00000000
00000011
00000000
00000100
00000010
00000001
00000000
,
00001000
00000000
00001000
00000000
00000100
00010000
00001000
00000000
,
00100000
00000000
00100000
00000000
01000000
00010000
01000000
00000000
,
10000000
00010000
01000000
00010000
00100000
00010000
01000000
01000000
,
01010000
10010000
01010000
00000000
,
00001000
00010000
00001000
00000000
00010000
00000100
00001000
00000000
,
00000001
00000000
00000011
00000000
00000100
00000010
00000001
00000000
,
00001000
00000000
00001000
00000000
00000100
00010000
00001000
00000000
,
01000000
00000000
01010000
00000000
10000000
01000000
00010000
00000000
,
01000000
00000000
01000000
00000000
00100000
00001000
00010000
00000000
,
00000010
00000000
00000010
00000000
00001000
00000100
00010000
00000000
,
00001000
01000000
00100000
01000000
00010000
01000000
10000000
10000000
,
01000000
00100000
10000000
00010000
01000000
00100000
10000000
10000000
,
01000000
00001000
00010000
00000000
00000010
00000000
00000100
00000000
,
00001000
00000001
00001000
00000000
00000100
00000000
00010000
00000000
,
00001000
00010000
00001000
00000000
01000000
00100000
10000000
00000000
,
01000000
00000000
10010000
00000000
01000000
00100000
10000000
00000000
,
00010000
00000000
00010000
00000000
01000000
00001000
00010000
00000000
,
00000010
00000000
00000010
00000000
00000100
00001000
00000100
00000000
,
00000110
00001010
00011000
01010000
,
10000000
01000000
00100000
00010000
00000000
00000000
00000000
00000000
,
00000000
00000000
00000000
00000000
;

//---------------dance-single - ----------------
#NOTEDATA:;
#CHARTNAME:;
#STEPSTYPE:dance-single;
#DESCRIPTION:;
#CHARTSTYLE:;
#DIFFICULTY:Challenge;
#METER:13;
#RADARVALUES:0.717069,0.660601,0.586217,0.073277,0.085490,411.000000,363.000000,48.000000,6.000000,0.000000,0.000000,0.000000,0.000000,0.000000,0.717069,0.660601,0.586217,0.073277,0.085490,411.000000,363.000000,48.000000,6.000000,0.000000,0.000000,0.000000,0.000000,0.000000;
#CREDIT:;
#DISPLAYBPM:170.000000;
#NOTES:
// measure 0
0000
0000
0000
0000
,  // measure 1
0000
0000
0000
0000
,  // measure 2
0000
0000
0000
0000
,  // measure 3
0000
0000
0000
0000
,  // measure 4
0000
0000
0000
0000
,  // measure 5
1001
0000
0100
0010
0000
1000
0100
0010
,  // measure 6
0001
0000
0000
0000
0001
0000
0100
0000
0010
0000
1000
0001
0000
1000
0001
0000
,  // measure 7
0101
0010
1100
0010
,  // measure 8
0001
0100
0010
1000
0110
0000
0001
1000
,  // measure 9
0010
0100
0010
1000
0010
0100
0010
1000
,  // measure 10
0001
0010
0200
0000
2300
0000
3002
0000
,  // measure 11
0103
0000
0001
0000
0010
0000
0001
0000
0100
0000
0001
0000
0010
0001
0010
0000
,  // measure 12
0100
1000
0001
0000
0011
0000
1010
0000
,  // measure 13
0100
0000
0001
0000
1000
0000
0001
0000
0100
0000
0001
0000
1000
0100
1000
0000
,  // measure 14
0010
1000
0200
0000
0320
0000
0032
0000
,  // measure 15
0103
0000
0010
0000
0100
0000
0001
0000
1000
0000
0001
0000
1000
0100
1000
0000
,  // measure 16
0010
1000
0100
0000
1100
0000
0101
0000
,  // measure 17
1000
0100
0001
0100
1000
0100
0001
0100
,  // measure 18
0000
1001
0000
0010
1000
1000
0100
0000
,  // measure 19
0001
0010
1000
0010
0001
0010
1000
0010
,  // measure 20
0000
1001
0000
0100
0001
0001
1000
0001
,  // measure 21
1000
0010
0001
0010
1000
0010
0001
0010
,  // measure 22
0000
1001
0000
0100
0010
0010
0100
0000
,  // measure 23
0001
0010
1000
0010
0001
0100
1000
0000
,  // measure 24
0010
1000
0100
0010
0100
0010
0100
1000
,  // measure 25
1010
0000
0101
0000
1100
0001
0100
0010
,  // measure 26
0000
0010
1000
0100
0001
0010
0001
0100
,  // measure 27
0000
0100
0010
0100
0001
0010
0100
1100
,  // measure 28
0000
0110
0000
0011
0000
0100
0100
0010
,  // measure 29
1001
0000
0110
0000
1010
0001
1000
0100
,  // measure 30
0000
1000
1000
0001
1000
0010
0100
0001
,  // measure 31
0010
1000
0010
0100
0010
1000
0010
0001
,  // measure 32
0100
0010
0100
0001
0010
0100
1000
0001
,  // measure 33
0011
0000
1010
0000
0101
1000
0010
0001
,  // measure 34
0000
0100
0010
0000
0100
0000
0001
0000
1000
0000
0010
0000
0100
0000
0001
0000
,  // measure 35
0000
0010
0010
0100
1000
0010
1000
1001
,  // measure 36
0000
1010
0000
1100
0000
1001
0001
1000
,  // measure 37
0101
0000
1010
0000
1100
1000
0001
0100
,  // measure 38
1000
0000
0100
0000
0001
0000
0100
0000
0000
0000
0010
1000
0000
0010
1000
0000
,  // measure 39
0001
0001
1000
1000
0001
0010
0100
1000
,  // measure 40
0010
0000
0001
0000
0010
0000
1000
0000
0010
0000
0001
0000
0010
0100
0010
0100
,  // measure 41
0010
0000
0110
0000
1001
0100
0001
1000
,  // measure 42
0100
0001
0100
1000
0010
0100
0001
1000
,  // measure 43
0010
0100
0010
1000
0100
0010
0001
0011
,  // measure 44
0000
0110
0000
1100
0000
0001
0100
1000
,  // measure 45
1010
0000
0101
0000
0011
0100
0010
0001
,  // measure 46
1000
0010
1000
0001
1000
0100
0010
0001
,  // measure 47
0100
0010
0100
1000
0100
0001
0010
0100
,  // measure 48
0001
0100
1000
0010
0100
0001
1000
0001
,  // measure 49
1001
0000
0101
0000
0011
0100
1000
0010
,  // measure 50
0100
0010
0001
0010
1000
0001
1000
0100
,  // measure 51
0010
1000
0010
0001
0100
0010
1000
1010
,  // measure 52
0000
0110
0000
0101
0000
1000
0010
0001
,  // measure 53
0011
0000
0110
0000
1100
0010
0100
0001
,  // measure 54
0010
0000
1000
0000
0010
0000
0001
0000
0100
0000
0010
1000
0000
0010
1000
0000
,  // measure 55
0001
0001
1000
1000
0100
0010
0100
1000
,  // measure 56
0001
0000
0100
0000
0010
0000
1010
0000
0000
0000
1000
0001
1000
0000
0010
0100
;
