#TITLE:WOOKIE WOOKIE;
#ARTIST:MACHOMAN;
#BANNER:WOOKIE WOOKIE.png;
#BACKGROUND:WOOKIE WOOKIE-bg.png;
#JACKET:WOOKIE WOOKIE-jacket.png;
#MUSIC:WOOKIE WOOKIE.ogg;
#SAMPLESTART:1.75;
#SAMPLELENGTH:20;
#DISPLAYBPM:137;
#BPMS:0=137;
#BGCHANGES:;

//---------------dance-single - ----------------
#NOTES:
     dance-single:
     :
     Beginner:
     3:
     :
0000
0000
0000
0000
,
0000
0000
0000
0000
,
1000
0000
1000
0000
,
0001
0000
1000
0000
,
0000
1001
0000
1001
,
0000
0000
0001
0000
,
1000
0000
1000
0000
,
0001
0000
1000
0000
,
0100
0000
0010
0000
,
1000
0000
0010
0000
,
0001
0000
0010
0000
,
1000
0000
1000
0000
,
1000
0000
1000
0000
,
0001
0000
0010
0000
,
1000
0000
0010
0000
,
0001
0000
0001
0000
,
0001
0000
0001
0000
,
1000
0000
0010
0000
,
0001
0000
0100
0000
,
0010
0000
0100
0000
,
0010
0000
0100
0000
,
1000
0000
0100
0000
,
0001
0000
0100
0000
,
0010
0000
0100
0000
,
0010
0000
0100
0000
,
1000
0000
0001
0000
,
1000
0000
0100
0000
,
1000
0000
0001
0000
,
0100
0000
0010
0000
,
1000
0000
0001
0000
,
1000
0000
1000
0000
,
0001
0000
1000
0000
,
0000
1001
0000
1001
,
0000
0000
0001
0000
,
1000
0000
1000
0000
,
0001
0000
1000
0000
,
0010
0000
0010
0000
,
0100
0000
0100
0000
,
0000
1001
0000
1001
,
0000
0000
0100
0000
,
1000
0000
0100
0000
,
0010
0000
0010
0000
,
0100
0000
0100
0000
,
0100
0000
0100
0000
,
1000
0000
0100
0000
,
0010
0000
0100
0000
,
0000
0000
1000
0000
,
0001
0000
1000
0000
,
0100
0000
1000
0000
,
0001
0000
0000
0110
,
0000
1001
0000
0000
,
0010
0000
1000
0000
,
0100
0000
1000
0000
,
0001
0000
0010
0000
,
0010
0000
0100
0000
,
0000
0000
0000
0000
;

//---------------dance-single - ----------------
#NOTES:
     dance-single:
     :
     Easy:
     4:
     :
0000
0000
0000
0000
,
0000
0000
0000
0000
,
1000
0001
1000
0000
,
0001
0000
1000
0000
,
0000
1001
0000
1001
,
1000
0000
0001
0000
,
1000
0001
1000
0000
,
0001
0000
1000
0000
,
0100
0000
0010
0100
,
1000
0000
0010
0100
,
0001
0000
0010
0100
,
1000
0000
1000
0000
,
1000
0000
1000
0000
,
0001
0000
0010
0100
,
1000
0000
0010
0100
,
0001
0000
0001
0000
,
0001
0000
0001
0000
,
1000
0100
0010
0000
,
0001
1000
0100
0000
,
0010
0000
0100
0000
,
0010
0000
0100
0000
,
1000
0010
0100
0000
,
0001
1000
0100
0000
,
0010
0000
0100
0000
,
0010
0000
0100
0000
,
1000
0000
0001
0000
,
1000
0001
0100
0000
,
1000
0000
0001
0010
,
0100
0000
0010
0000
,
1000
0000
0001
0000
,
1000
0001
1000
0000
,
0001
0000
1000
0000
,
0000
1001
0000
1001
,
1000
0000
0001
0000
,
1000
0001
1000
0000
,
0001
0000
1000
0000
,
0010
0100
0010
1001
,
0100
0000
0100
0000
,
0000
1001
0000
1001
,
0100
0000
0100
0000
,
1000
0001
0100
0000
,
0010
0000
0010
0000
,
0100
0010
0100
1001
,
0100
0000
0100
0000
,
1000
0001
0100
0000
,
0010
0000
0100
1001
,
0000
0000
1000
0000
,
0001
0000
1000
0001
,
0100
0000
1000
0000
,
0001
0000
0000
0110
,
0000
1001
0100
0000
,
0010
0000
1000
0001
,
0100
0000
1000
0000
,
0001
0000
0010
0100
,
0010
1001
0100
0000
,
0000
0000
0000
0000
;

//---------------dance-single - ----------------
#NOTES:
     dance-single:
     :
     Medium:
     6:
     :
0000
0000
0000
0000
,
0000
0000
0000
0000
,
0001
0010
0100
0000
,
1000
0000
0001
0000
1000
0001
1000
0000
,
0010
1001
0100
1001
,
1000
0000
0001
0000
1000
0001
1000
0000
,
0001
0010
0100
0000
,
1000
0000
0001
0000
1000
0001
1000
0000
,
0001
0000
0010
0000
0000
0100
0000
0000
1000
0000
0001
0000
0000
0000
0000
0000
,
1000
0000
1000
0000
0001
0100
0001
0000
,
1000
0000
1000
0000
0001
0010
0001
0000
,
0100
0000
0100
0000
,
0010
0000
0010
0000
,
1000
0000
1000
0000
0001
0100
0001
0000
,
1000
0000
1000
0000
0001
0010
0001
0000
,
0100
0000
0100
0000
,
0010
0100
0010
0000
,
1000
0000
0001
0000
1000
0100
1000
0000
,
0001
0000
1000
0000
0001
0010
0001
0000
,
0100
0000
0100
0000
,
0010
0100
0010
0000
,
1000
0000
0001
0000
1000
0100
1000
0000
,
0001
0000
1000
0000
0001
0010
0001
0000
,
1000
0010
0100
0000
,
0001
0000
1000
0000
,
1000
0001
0100
0000
,
0010
0000
1000
0001
1000
0000
0000
0000
,
0001
0000
0010
0100
1000
0000
0001
0000
,
1001
0000
0000
0000
,
1000
0000
0001
0000
1000
0001
1000
0000
,
0001
0010
0100
0000
,
1000
0000
0001
0000
1000
0001
1000
0000
,
0010
1001
0100
1001
,
1000
0000
0001
0000
1000
0001
1000
0000
,
0001
0010
0100
0000
,
1000
0000
0001
0000
1000
0001
1000
0000
,
0110
0110
0110
1001
,
0200
0300
0200
0300
,
0010
1001
0100
1001
,
0200
0300
0200
0300
,
0010
0000
1000
0000
0001
0000
0010
0100
,
2000
3000
0002
0003
,
0110
0110
0110
1001
,
0200
0300
0020
0030
,
1000
0000
0001
0000
0010
0000
0100
0010
,
1001
0000
1001
0000
1001
0000
0100
0100
,
0000
0010
0010
0000
1000
0000
0001
0000
,
1000
0100
0010
0000
0001
0000
1000
0000
,
0100
0000
0001
1000
,
0010
0100
0001
0000
1000
0000
0110
0000
,
0001
0110
1000
0001
,
0010
0100
1000
0000
0001
0000
0100
0000
,
0010
0000
1000
0001
,
0010
0100
0010
0000
1001
0000
1001
0000
,
1001
0000
0100
0010
0100
0000
0000
0000
,
0000
0000
0000
0000
;

//---------------dance-single - ----------------
#NOTES:
     dance-single:
     :
     Hard:
     11:
     :
0000
0000
0000
0000
,
0000
0000
0000
0000
,
0010
0000
0001
0100
0010
1000
0001
0000
,
1000
0100
1000
0010
0100
0000
0001
1000
,
0100
0100
1001
1001
0100
0100
1001
1001
,
1000
0100
1000
0010
0100
0000
0001
0100
,
0010
0000
0001
0100
0010
1000
0001
0000
,
1000
0100
1000
0010
0100
0000
0001
1000
,
0100
0000
0010
0100
0000
0010
0100
0000
1000
0000
0001
1000
0001
0000
0000
0000
,
1000
0000
0001
1000
0000
0000
0001
0000
0100
0000
0010
0000
1000
0000
0000
0000
,
0001
0000
1000
0001
0000
0000
1000
0000
0100
0000
0010
0000
0001
0000
0000
0000
,
1000
0010
1000
0010
0000
0000
0000
0000
0001
0010
0001
0010
0000
0000
0000
0000
,
1000
0010
1000
0010
0000
0000
0000
0000
0001
0000
0010
0000
0100
0000
1000
0000
,
0001
0000
1000
0001
0000
0000
1000
0000
0100
0000
0010
0000
0001
0000
0000
0000
,
1000
0000
0001
1000
0000
0000
0010
0000
0100
0000
0001
0000
1000
0000
0000
0000
,
0100
0010
0100
0010
0000
0000
0000
0000
0001
1000
0001
1000
0000
0000
0000
0000
,
0010
0100
0010
0100
0000
0000
0000
0000
0001
0000
1000
0000
0100
0000
0010
0000
,
0001
0000
1000
0000
0001
0000
1000
0000
0001
0100
0000
0010
0000
0000
0000
0000
,
1000
0000
0001
0000
1000
0000
0001
0000
1000
0100
0000
0010
0000
0000
0000
0000
,
0001
0100
0001
0100
0000
0000
0000
0000
1000
0100
1000
0100
0000
0000
0000
0000
,
0001
0100
0001
0100
0000
0000
0000
0000
0010
0000
1000
0000
0100
0000
0010
0000
,
0001
0000
0100
0000
0010
0000
1000
0000
0001
0010
0000
0100
0000
0000
0000
0000
,
1000
0000
0010
0000
0100
0000
0001
0000
1000
0001
0000
0100
0000
0000
0000
0000
,
0010
1000
0010
1000
0000
0000
0000
0000
0001
0100
0001
0100
0000
0000
0000
0000
,
0010
1000
0010
1000
0000
0000
0000
0000
0001
0000
0010
0000
0100
0000
1000
0000
,
0001
0000
1000
0000
0001
0000
1000
0010
,
0100
0000
0100
0001
1000
0000
0000
0000
,
0100
0000
0100
0010
0001
0000
1000
0000
,
0110
0001
1000
0100
,
0010
0001
0100
1000
0100
0000
0001
1000
,
0100
0000
0010
0001
0100
0010
1000
0000
,
0001
0010
1000
0010
0001
0000
1000
0010
,
0100
0100
1001
1001
0100
0100
1001
1001
,
0010
0100
0001
0010
0100
0000
1000
0001
,
0100
0000
0010
1000
0100
0001
0100
0000
,
1000
0010
0001
0010
1000
0000
0001
0010
,
0011
0000
1001
0000
1100
0000
1001
1001
,
0200
0300
0200
0300
,
0010
0010
1001
1001
0100
0100
1001
1001
,
0200
0300
0200
0300
,
0010
0000
0001
1000
0001
0000
0010
0000
,
0200
0300
0200
0300
,
1001
0000
0110
0000
1001
0000
0110
1001
,
0200
0300
0200
0300
,
0010
0000
0001
1000
0001
0000
0010
0000
,
1100
0000
0011
0000
0101
0000
1010
1010
,
0000
0001
0001
0000
1000
0100
1000
0010
,
0100
0000
0001
0100
0010
0000
0001
0100
,
0010
1000
0001
0000
1000
0100
1000
0010
,
0100
0000
0001
1000
0100
0100
1001
1001
,
0100
0100
1001
1001
0010
0100
0001
0010
,
0100
0000
1000
0001
0100
0000
0010
1000
,
0100
0001
0100
0000
1000
0010
0001
0010
,
1000
0000
0001
0010
0011
0000
1001
0000
,
1100
0000
1001
1001
0110
0000
0000
0000
,
0000
0000
0000
0000
;

//---------------dance-single - ----------------
#NOTES:
     dance-single:
     :
     Challenge:
     13:
     :
0000
0000
0000
0000
,
0000
0000
0000
0000
,
0000
0000
0000
0000
,
0000
0000
0000
0000
,
0000
0000
0000
0000
,
0001
0001
0010
0001
1000
1000
0010
1000
,
0100
0001
0100
0010
0100
0001
0100
1000
,
0001
0001
0010
0001
1000
1000
0010
1000
,
0100
0000
1000
0001
0000
1000
0001
0000
0100
0000
0010
1000
0001
0000
0000
0000
,
0011
0000
0100
1000
0000
1000
0001
0000
0100
0000
1000
0000
0100
0000
0010
0000
,
0100
0000
0001
0010
0000
0001
1000
0000
0010
0000
0100
0000
0010
0000
1000
0000
,
0002
0000
0023
0000
2030
0000
3010
0001
,
0011
0000
0000
1100
0000
0000
0101
0000
0000
0000
1000
0100
1000
0000
0001
0000
,
0010
0000
0001
1000
0000
0010
0000
1000
0000
0100
0010
0000
0001
0000
1000
0000
,
0010
0000
1000
0001
0000
0000
0010
0001
0100
0000
0010
0000
1000
0000
0001
0000
,
2000
0000
3200
0000
0302
0000
0103
1000
,
1100
0000
0000
0101
0000
0000
1010
0000
0000
0000
0001
0010
0001
0000
1000
0000
,
0001
0100
0010
0000
0001
0100
0010
0000
1000
0001
0000
1100
0000
0000
0010
0000
,
0001
0000
0100
0000
1000
0000
0100
0000
0001
1000
0000
0100
0000
0010
0001
0000
,
2000
0000
3020
0000
0032
0000
0013
1000
,
1010
0000
0000
1001
0000
0000
1100
0000
0000
0000
0001
1000
0001
0000
0100
0000
,
0010
0000
0010
0000
1000
0000
1000
0000
0100
0010
0000
0011
0000
0000
0000
1000
,
0001
0000
0001
0000
0100
0000
0100
0000
0010
0000
1000
0100
0000
0100
1000
0000
,
0002
0000
0203
0000
2300
0000
3100
0001
,
0101
0000
0000
0011
0000
0000
1100
0000
0000
0000
0001
0100
0001
0000
1000
0000
,
0010
1000
0100
0010
0001
0100
0001
1000
,
0001
0010
1000
0010
0001
0100
0010
0000
,
1000
0100
0001
0010
1000
0001
0100
0000
,
0110
1001
1100
0101
,
0001
0001
0010
0001
1000
1000
0010
1000
,
0100
0001
0100
0010
0100
0001
0100
1000
,
0001
0001
0010
0001
1000
1000
0010
1000
,
0100
0000
0010
0001
1000
0000
1000
0000
0100
0000
0010
0001
1000
0000
1000
0000
,
0001
0001
0010
0001
1000
1000
0010
1000
,
0100
0001
0100
0010
0100
0001
0100
1000
,
0001
0001
0010
0001
1000
1000
0010
1000
,
0100
0000
1000
0010
1000
0000
0001
0010
0001
0000
1000
0100
0010
0000
0010
0000
,
0002
0000
0103
0010
2000
0000
3100
0010
,
0001
0000
1000
0010
0100
0000
0100
0000
0001
0000
1000
0010
0100
0000
0100
0000
,
0002
0000
0013
0100
2000
0000
3001
1000
,
0010
0001
0010
1000
0010
0100
0001
1000
,
0200
0000
1300
0001
0020
0000
0130
0010
,
0001
0000
1000
0100
1000
0000
0001
0100
0001
0000
1000
0010
0100
0000
0100
0000
,
0020
0000
1030
0001
0200
0000
0310
1000
,
0100
0000
0001
0000
0100
0000
1000
0000
0010
0100
0001
1000
0010
0000
0100
0000
,
0001
0000
0010
0001
0100
0000
0010
1000
0100
0000
0010
0001
0100
0000
0100
0000
,
0000
1010
0101
0000
0001
0001
0010
0001
,
1000
1000
0010
1000
0100
0001
0100
0010
,
0100
0001
0100
1000
0001
0001
0010
0001
,
1000
0000
1000
0000
0010
0000
1000
0000
0001
0000
1000
0010
0100
0000
0100
0000
,
0001
0000
1000
0010
0100
0000
0100
0000
0001
0000
0001
0000
0010
0000
0001
0000
,
1000
1000
0010
1000
0100
0001
0100
0010
,
0100
0001
0100
1000
0001
0001
0010
0001
,
1000
0000
1000
0000
0010
0000
1000
0000
0100
0000
0010
0001
1000
0000
0010
1000
,
0001
0000
0010
0001
0100
0000
0100
0000
1001
0000
0000
0000
0000
0000
0000
0000
;

//---------------dance-double - ----------------
#NOTES:
     dance-double:
     :
     Easy:
     4:
     :
00000000
00000000
00000000
00000000
,
00000000
00000000
00000000
00000000
,
00001000
00000000
00010000
00000000
,
00001000
00010000
00000010
00000000
,
00000000
00001001
00000000
00001001
,
00000010
00000100
00001000
00000000
,
00010000
00000000
00001000
00000000
,
00010000
00001000
00000010
00000000
,
00000001
00000000
00001000
00000000
,
00000001
00000000
00000100
00000100
,
00001000
00000000
00000100
00000100
,
00010000
00000000
00001000
00000000
,
00100000
00000000
00010000
00000000
,
10000000
00000000
01000000
01000000
,
00010000
00000000
01000000
01000000
,
00001000
00000000
00010000
00000000
,
00000010
00000000
00001000
00000000
,
00000001
00000010
00000100
00000000
,
00001000
00000000
00000001
00000001
,
00000100
00000000
00001000
00000000
,
00010000
00000000
01000000
00000000
,
10000000
00100000
01000000
00000000
,
00010000
00000000
10000000
10000000
,
01000000
00000000
00010000
00000000
,
00001000
00000000
00000100
00000000
,
00000001
00000000
00001000
00000001
,
00000100
00000000
00000010
00000000
,
00001000
00000000
00000100
00010000
,
00001000
00000000
00011000
00000000
,
00010000
00001000
00100000
00000000
,
00001000
00000000
00010000
00000000
,
00001000
00010000
00000010
00000000
,
00000000
00001001
00000000
00001001
,
00000010
00000100
00001000
00000000
,
00010000
00000000
00001000
00000000
,
00010000
00001000
00100000
00000000
,
01000000
01000000
01000000
10010000
,
01000000
00000000
01000000
00000000
,
00000000
00011000
00000000
00011000
,
00000010
00000000
00000010
00000000
,
00001000
00000001
00001000
00000000
,
00000100
00000000
00000100
00000000
,
00010000
00001000
00010000
00011000
,
00100000
00000000
00100000
00000000
,
00010000
10000000
00010000
00000000
,
00100000
00000000
01000000
10010000
,
00000000
00000000
01000000
00001000
,
00010000
00000000
00000010
00000000
,
00000010
00000000
00001000
00000001
,
00000100
00000000
00000000
00001001
,
00000000
00000110
00001000
00010000
,
00100000
00000000
10000000
00000000
,
10000000
00000000
01000000
00010000
,
00001000
00000000
00000010
00000100
,
00000010
00001001
00000100
00000000
,
00000000
00000000
00000000
00000000
;

//---------------dance-double - ----------------
#NOTES:
     dance-double:
     :
     Medium:
     7:
     :
00000000
00000000
00000000
00000000
,
00000000
00000000
00000000
00000000
,
01100000
00000000
10010000
00000000
,
01000000
00001000
00010000
00000000
00000010
00000000
00001000
00000000
,
00000001
00000000
00000100
00000100
00000010
00000000
00001000
00001000
,
00000100
00010000
00001000
00000000
00100000
00000000
01000000
00000000
,
10010000
00000000
01100000
00000000
,
10000000
00010000
01000000
00000000
00001000
00000000
00010000
00000000
,
00000010
00000000
00001000
00000000
00000000
00000001
00000000
00000000
00000100
00000000
00000010
00000000
00000000
00000000
00000000
00000000
,
00001000
00000000
00000001
00000010
00000001
00000000
00001000
00000000
,
00000100
00000000
00010000
00001000
00010000
00000000
00000010
00000000
,
00000100
00000000
00000100
00000000
,
00001000
00010000
00100000
00000000
,
10000000
00000000
00010000
00100000
00010000
00000000
10000000
00000000
,
01000000
00000000
00010000
00001000
00010000
00000000
00000010
00000000
,
00000100
00000000
00000100
00000000
,
00000001
00000010
00000100
00000000
,
00001000
00000000
00000001
00000100
00001000
00000000
00010000
00000000
,
00000010
00000000
00001000
00000100
00000001
00000000
00001000
00000000
,
00000010
00000000
00000010
00000000
,
00000100
00001000
00010000
00000000
,
00100000
00000000
10000000
01000000
10000000
00000000
00100000
00000000
,
01000000
00000000
00001000
00010000
00001000
00000000
00000010
00000000
,
00000001
00000000
00000001
00000000
,
00000100
00001000
00010000
00000000
,
00001000
00000000
00010000
00000000
,
00000010
00001000
00000100
00000000
00010000
00000000
00000000
00000000
,
00001000
00100000
00010000
00000100
,
00001001
00000100
00000010
00000100
,
00001000
00000001
00000100
00000000
00000001
00000000
00001000
00000000
,
00000110
00000000
00001001
00000000
,
00000100
00010000
00001000
00000000
00100000
00000000
00010000
00000000
,
10000000
00000000
01000000
01000000
00100000
00000000
00010000
00010000
,
01000000
00001000
00010000
00000000
00000010
00000000
00001000
00000000
,
00000110
00000000
00001001
00000000
,
00000100
00010000
00001000
00000000
00100000
00000000
00010000
00000000
,
10000000
00000000
00010000
00000000
10000000
00000000
01000000
01000000
,
00100000
00000000
10010000
00000000
,
01000000
00000000
00001000
00001000
00010000
00000000
00000010
00000010
,
00000100
00000000
00001001
00000000
,
00000100
00010000
00001000
00000000
,
00100000
00000000
10010000
00000000
,
10000000
00000000
00010000
00000000
10000000
00000000
01000000
01000000
,
00010000
00000000
00011000
00000000
,
00000010
00000001
00000100
00000000
,
00001000
00000000
00000001
00000000
00001000
00000000
00000100
00000100
,
00000000
00000010
00000010
00000000
00000001
00000100
00001000
00000000
,
00010000
00001000
00110000
00000000
,
11000000
00000000
00000000
00000000
00100000
00010000
01000000
00000000
,
00001000
00000000
00010000
00000000
00000010
00000000
00001000
00001000
,
00000100
00000000
00000010
00000010
00000001
00000100
00001000
00000000
,
00010000
00001000
00110000
00000000
,
11000000
00000000
00000000
00000000
00100000
00010000
01000000
00000000
,
00001000
00010000
00000010
00001000
,
00000001
00000000
00000010
00000010
00000100
00000000
00000000
00000000
,
00000000
00000000
00000000
00000000
;

//---------------dance-double - ----------------
#NOTES:
     dance-double:
     :
     Hard:
     11:
     :
00000000
00000000
00000000
00000000
,
00000000
00000000
00000000
00000000
,
00000100
00000000
00000100
00000010
00001000
00000000
00000100
00000010
,
00000001
00000100
00001000
00000000
00001000
00000100
00000001
00000000
,
00001100
00000000
00000001
00000001
00001100
00000000
00000001
00000001
,
00000010
00001000
00000100
00000000
00000100
00010000
00001000
00000000
,
00001000
00000000
00001000
00100000
00010000
00000000
10000000
00100000
,
01000000
00010000
00100000
00000000
01000000
10000000
00100000
00000000
,
01000000
00000000
00010000
10000000
00000000
00010000
10000000
00000000
01000000
00000000
00100000
01000000
00100000
00000000
00000000
00000000
,
00010000
01000000
00001000
00000000
00010000
00000010
00001000
00000000
,
00000001
00000010
00000100
00000000
00001000
00000010
00000100
00000000
,
00000001
00000000
00001000
00000100
00010000
00000000
00000010
00001000
,
00000100
00000000
00000000
00010000
00000000
00000000
00001000
00000000
00000000
00000000
00000000
00000000
00000000
00000000
00000000
00000000
,
00100000
00010000
01000000
00000000
00100000
10000000
01000000
00000000
,
00010000
00001000
00000100
00000000
00001000
00010000
01000000
00000000
,
10000000
00000000
00010000
01000000
00100000
00000000
10000000
01000000
,
00010000
00000000
00000000
00001000
00000000
00000000
00000100
00000000
00000000
00000000
00000000
00000000
00000000
00000000
00000000
00000000
,
00000001
00000100
00000000
00000000
00000001
00000100
00000000
00000000
00000010
00000000
00001000
00000000
00000100
00000000
00000000
00000000
,
00010000
00001000
00000000
00000000
00010000
00001000
00000000
00000000
00100000
00000000
00010000
00000000
01000000
00000000
00000000
00000000
,
00010000
00000000
10000000
01000000
00010000
00000000
00010000
00001000
,
00000100
00000000
00000000
00000001
00000000
00000000
00001000
00000000
00000000
00000000
00000000
00000000
00000000
00000000
00000000
00000000
,
00001000
00000100
00000000
00000000
00010000
00001000
00000000
00000000
00100000
00000000
00010000
00000000
10000000
00000000
00000000
00000000
,
00010000
01000000
00000000
00000000
00001000
00010000
00000000
00000000
00000010
00000000
00001000
00000000
00000001
00000000
00000000
00000000
,
00000100
00000000
00000010
00001000
00000100
00000000
00010000
00001000
,
00100000
00000000
00000000
00010000
00000000
00000000
10000000
00000000
00000000
00000000
00000000
00000000
00000000
00000000
00000000
00000000
,
10000000
01000000
00010000
01000000
10000000
00000000
10000000
00100000
,
00010000
00000000
00001000
00000010
00000001
00000000
00000000
00000000
,
00000001
00000100
00001000
00000100
00000001
00000000
00001000
00000000
,
00000110
00000001
00001000
00000100
,
00010000
00001000
00100000
00000000
00001000
00010000
00000010
00000000
,
00001000
00000000
00000001
00000100
00001000
00000000
00000001
00000010
,
00000100
00010000
00001000
00000000
00100000
00001000
00010000
00000000
,
00001010
00000000
00000001
00000010
00001100
00000000
00000001
00000100
,
00001000
00010000
00100000
00000000
00010000
00001000
00000010
00000000
,
00000001
00000000
00001000
00000100
00000001
00000000
00000100
00001000
,
00000001
00000100
00000010
00000000
00001000
00000100
00000010
00000000
,
00001001
00000000
00010100
00000000
00101000
00000000
10010000
10010000
,
01000000
00000000
00100000
10000000
01000000
00000000
00100000
00010000
,
01001000
00000000
00010000
00000010
00001001
00000000
00000100
00000010
,
00001000
00000000
00000001
00000100
00001000
00000000
00000001
00000010
,
00000100
00001000
00000001
00000000
,
00000100
00000000
00001000
00010000
01000000
00000000
10000000
00100000
,
01010000
00000000
00011000
00000000
00001010
00000000
00001001
00001001
,
00000100
00000000
00000010
00000001
00000100
00000000
00000010
00001000
,
00000100
00010000
00001000
00000000
,
00110000
00000000
00011000
00000000
00001100
00000000
00000011
00000011
,
00000000
00000100
00000100
00000000
00000001
00000100
00001000
00000000
,
00001000
00010000
00100000
00000000
10000000
00000000
00010000
00100000
,
01000000
00000000
10000000
00100000
01000000
00001000
00010000
00000000
,
00010000
00001000
00000010
00000000
00001001
00000000
00000100
00000010
,
00001001
00000000
00000100
00010000
00001000
00100000
00010000
00000000
,
01000000
00100000
10000000
00000000
01000000
00000000
00010000
00001000
,
00000100
00000000
00000001
00000010
00000100
00001000
00000001
00000000
,
00000100
00001000
00010000
00000000
00110000
00000000
00011000
00000000
,
00001100
00000000
00000011
00000011
00001100
00000000
00000000
00000000
,
00000000
00000000
00000000
00000000
;
