#TITLE:WOOKIE WOOKIE;
#SUBTITLE:(Overhead Champion Remix);
#ARTIST:MACHOMAN;
#BANNER:WOOKIE WOOKIE (Overhead Champion Remix)-bn.png;
#BACKGROUND:WOOKIE WOOKIE (Overhead Champion Remix)-bg.png;
#JACKET:WOOKIE WOOKIE (Overhead Champion Remix)-jacket.png;
#MUSIC:WOOKIE WOOKIE (Overhead Champion Remix).ogg;
#SAMPLESTART:87.275;
#SAMPLELENGTH:20;
#DISPLAYBPM:143;
#BPMS:0=143;
#BGCHANGES:;

//---------------dance-single - ----------------
#NOTES:
     dance-single:
     :
     Beginner:
     3:
     :
0000
0000
0000
0000
,
0000
0000
0000
0000
,
0000
0000
0000
0000
,
0000
0000
0000
0000
,
0001
0000
0001
0000
,
1000
0000
0000
0000
,
0010
0000
0010
0000
,
0100
0000
0000
0000
,
0001
0000
0000
0000
,
0100
0000
0000
0000
,
0010
0000
0000
0000
,
1000
0000
0000
0000
,
1001
0000
0000
0000
,
0110
0000
0000
0000
,
1000
0000
0001
0000
,
1000
0000
0000
0000
,
0010
0000
0010
0000
,
0010
0000
0000
0000
,
1000
0000
1000
0000
,
0001
0000
0100
0000
,
0001
0000
0001
0000
,
0001
0000
0000
0000
,
0010
0000
0001
0000
,
0100
0000
0001
0001
,
0001
0000
1000
0000
,
0100
0000
0010
0000
,
0100
0000
1000
0000
,
0001
0000
1000
1000
,
1000
0000
0010
0000
,
0100
0000
0001
0000
,
0010
0000
0001
0000
,
0100
0000
0000
0000
,
0001
0000
0000
0000
,
1000
0000
0000
0000
,
0010
0000
1000
0000
,
0001
0000
0000
0000
,
0010
0000
0000
0000
,
0100
0000
0000
0000
,
0010
0000
0001
0000
,
1000
0000
0000
0000
,
0001
0001
0001
0000
,
0100
0100
0100
0000
,
0010
0000
1000
0000
,
0001
0000
0100
0000
,
0010
0010
0010
0000
,
0100
0100
0100
0000
,
0001
0000
0010
0000
,
0100
0000
1000
0000
,
0010
0000
1000
0000
,
0100
0000
0001
0000
,
0010
0000
0001
0000
,
0100
0000
0000
0000
,
0001
0000
0010
0000
,
0001
0000
1000
0000
,
0010
0000
1000
0000
,
1001
0000
0110
0000
,
1000
0000
0010
0000
,
1000
0000
0100
0000
,
0010
0000
0001
0000
,
1001
0000
0110
0000
,
1000
0000
1000
0000
,
0001
0000
0000
0000
,
0010
0000
0010
0000
,
0001
0000
0100
0000
,
1000
0000
0010
0000
,
1001
0000
0000
0000
,
0010
0000
0010
0000
,
1000
0000
0000
0000
,
0110
0000
0000
0000
;

//---------------dance-single - ----------------
#NOTES:
     dance-single:
     :
     Easy:
     6:
     :
0000
0000
0000
0000
,
0000
0000
0000
0000
,
0000
0000
0000
0000
,
0000
0000
0000
0000
,
0001
0001
1000
1000
,
0010
0000
0100
0000
,
0001
0001
1000
1000
,
0110
0000
1001
0000
,
0001
0010
1000
0000
,
0100
0100
0100
0000
,
1000
0010
0100
0000
,
0001
0001
0001
0000
,
1001
0100
0010
0000
,
0110
0001
1000
0000
,
0001
0010
1000
0100
,
2000
0000
3001
0100
,
0010
1000
0100
0001
,
0000
0010
0000
0001
,
0100
0010
1000
0001
,
0010
0000
0001
0100
,
1000
0010
0100
0001
,
0000
1000
0000
0100
,
0010
0100
1000
0001
,
0100
0000
0110
1001
,
0001
0010
0001
0100
,
1000
0010
0010
0000
,
1000
0001
0010
0001
,
0100
0010
1000
0000
,
0100
1000
0010
1000
,
0001
0010
0001
0000
,
0010
0010
0001
0100
,
1000
0000
0001
0000
,
0100
0100
0010
0000
,
1000
1000
0001
0000
,
0020
0030
0002
0003
,
0100
0010
0110
0000
,
0001
0010
0001
0000
,
1000
0010
1000
0000
,
0200
0300
0020
0030
,
0001
1000
1001
0000
,
0010
0010
1000
0001
,
0100
0100
0010
0000
,
2000
3000
0002
0003
,
1000
0100
0110
0000
,
0010
0010
0001
0000
,
1000
1000
0001
0000
,
0020
0030
0200
0300
,
1000
0010
1001
0000
,
0001
0001
1000
1000
,
0010
1000
0100
0000
,
1000
0010
1000
0001
,
0200
0000
0010
0310
,
1000
0100
1000
0001
,
0010
0010
0010
0000
,
0001
0100
0001
1000
,
0110
0000
1001
0000
,
0100
0001
0010
0001
,
1000
1000
1000
0000
,
0010
1000
0100
0001
,
1001
0000
0110
0000
,
0002
0003
2000
3000
,
0010
0010
0010
1001
,
0200
0300
0020
0030
,
1000
0001
1000
0000
,
0002
0003
2000
3000
,
0010
0010
0010
0010
,
2000
3000
0002
0003
,
0010
0001
1000
0100
,
0110
0000
0000
0000
;

//---------------dance-single - ----------------
#NOTES:
     dance-single:
     :
     Medium:
     9:
     :
0000
0000
0000
0000
,
0000
0000
0000
0000
,
0000
0000
0000
0000
,
0000
0000
0000
0000
,
0001
1000
0010
0000
1000
0001
0010
0000
,
0100
0100
1000
0001
,
1000
0001
0010
0000
0001
1000
0010
0000
,
0101
1100
0101
1100
,
1001
0000
0010
0000
1000
0001
0100
0000
,
1000
0010
0001
0000
0100
0000
0010
0000
,
1000
0000
0100
0000
0001
1000
0010
0000
,
0101
1100
0101
1100
,
1001
0000
0010
0000
1000
0001
1000
0000
,
0110
0000
0001
0000
0010
0100
1000
0000
,
0101
0000
0010
1000
0001
0000
0010
0100
,
2000
0000
0000
0000
3001
1000
0100
0000
,
0020
0000
0032
0000
2003
0000
3001
0100
,
0000
0010
0000
1000
0000
0100
1000
0001
,
2000
0000
3002
0000
0023
0000
0130
0010
,
0000
0001
0000
0100
0010
0000
1010
0000
,
0002
0000
0023
0000
0230
0000
1300
0010
,
0000
1000
0000
0001
0000
0010
0001
0100
,
0002
0000
2003
0000
3020
0000
1030
0100
,
0000
0010
0000
0001
1000
0001
1000
0001
,
0020
0000
0230
0000
0320
0000
0031
2000
,
0000
3200
0000
2300
0000
3010
0100
0001
,
2000
0000
3002
0000
0023
0000
0031
0200
,
0000
0320
0000
1030
0001
0000
0011
0000
,
2000
0000
3200
0000
0320
0000
0130
0020
,
0000
0032
0000
2003
0000
3001
1000
0100
,
0020
0000
0032
0000
2003
0000
3001
0200
,
0000
0320
0000
1030
0100
1000
0001
0000
,
0010
0000
0010
0000
0001
0100
1000
0000
,
0010
0000
0010
0000
1000
0100
0001
0000
,
2000
3020
0230
0302
,
0013
1001
0220
0330
,
1000
0100
0001
0000
0010
0000
0010
0000
,
0100
0010
0001
0000
1000
0001
0100
0000
,
0002
2003
3020
0230
,
0310
0000
0101
0000
1100
0000
0001
1000
,
0001
0000
0101
0000
0010
1000
0100
0000
,
1000
0010
0100
0000
0001
0010
1000
0000
,
0200
0320
0032
2003
,
3001
0011
2200
3300
,
0010
1000
0100
0000
1001
0000
0110
0000
,
0001
0010
1000
0000
1100
0000
0011
0000
,
0200
0320
2030
3002
,
1003
0101
2020
3030
,
0001
0010
1000
0000
1100
0000
0010
0100
,
0002
2003
3200
0300
,
0010
0001
0100
0001
2000
0000
3020
0000
,
0230
0300
0110
1001
,
0001
1000
0010
0000
1000
0001
0010
0000
,
0100
0000
0010
0000
0001
0100
1000
0000
,
0001
1000
0010
0000
1000
0001
0010
0000
,
0101
1100
0101
1100
,
0001
1000
0010
0000
1000
0001
0010
0000
,
1000
0000
0100
0000
1000
0010
0001
0000
,
0001
1000
0010
0000
1000
0001
0010
0000
,
0101
1100
0101
1100
,
0020
1030
0020
1030
,
0101
0000
1100
0000
0101
0000
0010
0100
,
0020
1030
0002
0103
,
0001
0010
1000
0000
0101
0000
1010
0000
,
0020
0130
2000
3001
,
1000
0100
0010
0000
0001
0100
1000
0000
,
0021
0130
1020
0130
,
0002
0000
2003
0000
3010
1000
0100
0000
,
0110
0000
0000
0000
;

//---------------dance-single - ----------------
#NOTES:
     dance-single:
     :
     Hard:
     12:
     :
0000
0000
0000
0000
,
0000
0000
0000
0000
,
0000
0000
0000
0000
,
0000
0000
0000
0000
,
0001
0001
0010
0001
1000
1000
0010
1000
,
0100
0000
0010
0000
0001
0100
1000
0000
,
0001
0001
0010
0001
1000
1000
0010
1000
,
0100
0100
1001
0000
0100
0100
1001
0000
,
0110
0001
0100
0000
1000
0100
1000
0000
,
0010
0000
0001
0000
0100
0010
1000
0000
,
0010
0001
0100
0000
0001
0010
1000
0000
,
0100
0100
1001
0000
0100
0100
1001
0000
,
1010
0001
0100
0010
1000
0100
0001
0000
,
0011
1000
0001
0010
0001
0100
1000
0000
,
0011
0000
0100
0000
1000
0000
0010
0000
0100
0000
0001
0000
1000
0100
1000
0100
,
2000
0000
0000
0000
0000
0000
0001
0000
3001
0000
0100
0010
0100
0000
0000
0000
,
0002
0013
2000
3010
0200
0310
1000
0001
,
0000
0011
0000
1100
0000
0010
0100
0001
,
2000
3010
0002
0013
0200
0310
0001
1000
,
0000
1100
0000
0001
0001
0100
0010
1000
,
0200
0310
0200
1300
0002
0013
0001
1000
,
0000
0110
0000
1001
0000
0010
1000
0001
,
2000
3010
0200
0310
2000
3001
0010
0100
,
0000
0000
1001
0000
0000
0000
0010
0000
1000
0001
1000
0001
1000
0000
0100
0000
,
0002
0103
2000
3010
2000
3001
0010
0100
,
0000
1000
0010
0001
0000
0100
0010
0100
,
0002
0013
0200
1300
0020
1030
0001
0100
,
0000
0110
0000
0001
0010
1000
0001
1000
,
0200
0310
0200
1300
0200
0301
0100
1000
,
0000
0001
0010
0100
0000
1000
0010
1000
,
0200
0310
0002
0103
2000
3001
1000
0010
,
0100
0000
0000
0100
0000
0000
0100
0000
0001
0000
1000
0100
1000
0000
0000
0000
,
0001
0000
0000
0010
0000
0000
0001
0000
0100
0000
0010
0000
1000
0000
0001
0000
,
1000
0000
0000
0100
0000
0000
0010
0000
0001
0000
0100
0000
1000
0000
0001
0000
,
0020
0000
0230
0000
2300
0000
3010
0100
,
0002
0000
0000
2003
0000
0000
3020
0000
0000
0000
0000
0000
0030
0000
0000
0000
,
1000
0010
0100
0001
0010
0100
0010
0001
,
1000
0100
1000
0010
0100
0001
1000
0000
,
0002
0000
2003
0000
3200
0000
1300
0010
,
2000
0000
0000
3002
0000
0000
0203
0000
0000
0000
0310
0000
1000
0001
1000
0001
,
1000
0100
1000
0010
1000
0001
0100
0000
,
0001
0010
0001
0100
0001
1000
0010
0000
,
2000
0000
3200
0000
0320
0000
0031
0100
,
2000
0000
0000
3020
0000
0000
0230
0000
0000
0000
0000
0000
0300
0000
0000
0000
,
0001
0001
1000
0010
1000
0001
0100
0000
,
0010
1000
0100
1000
0001
0100
0010
0000
,
2000
0000
3020
0000
2030
0000
3100
0010
,
0002
0000
0000
0203
0000
0000
0320
0000
0000
0000
0000
0000
0030
0000
0000
0000
,
1000
0100
0001
0000
0011
0000
0100
0001
,
1000
0010
0001
0010
2000
0000
3000
0000
,
0100
0010
0001
0100
1000
0010
0001
0000
,
1100
0101
0011
1100
,
0001
0001
0010
0001
1000
1000
0010
1000
,
0100
0010
0001
0000
0001
0010
1000
0000
,
0001
0001
0010
0001
1000
1000
0010
1000
,
0100
0100
1001
1001
0100
0100
1001
1001
,
0001
0001
0010
0001
1000
1000
0010
1000
,
0001
0010
1000
0000
0001
0100
0010
0000
,
0001
0001
0010
0001
1000
1000
0010
1000
,
0100
0100
1001
1001
0100
0100
1001
1001
,
0020
2030
3200
0302
,
0103
0010
0100
0010
0100
0010
1001
1001
,
0020
0032
2003
3200
,
1300
0010
0001
0010
2000
0000
3200
0000
,
0320
0000
0031
0100
2000
0000
3001
0000
,
1010
0100
0010
0100
0001
0010
1000
1000
,
2100
3001
0012
1003
,
0001
0000
0100
0000
1000
0000
0100
0000
0001
0000
0100
0010
0100
0000
0000
0000
,
0110
0000
0000
0000
;
