#TITLE:WONDER WALKER;
#SUBTITLE:;
#ARTIST:L.E.D.;
#TITLETRANSLIT:;
#SUBTITLETRANSLIT:;
#ARTISTTRANSLIT:;
#GENRE:;
#CREDIT:;
#BANNER:WONDER WALKER-bn.png;
#BACKGROUND:WONDER WALKER-bg.png;
#LYRICSPATH:;
#CDTITLE:;
#MUSIC:WONDER WALKER.ogg;
#OFFSET:0.000000;
#SAMPLESTART:39.271500;
#SAMPLELENGTH:20.000000;
#SELECTABLE:YES;
#DISPLAYBPM:165.000000;
#BPMS:0.000000=165.000000
;
#STOPS:
;
#BGCHANGES:;
#KEYSOUNDS:;
#ATTACKS:;

//---------------dance-single - ----------------
#NOTES:
     dance-single:
     :
     Hard:
     12:
     0.593505,0.749902,0.344875,0.056142,0.112285,518.000000,475.000000,43.000000,7.000000,0.000000,0.000000,0.593505,0.749902,0.344875,0.056142,0.112285,518.000000,475.000000,43.000000,7.000000,0.000000,0.000000:
0000
0000
0000
0000
,
0000
0000
0000
0000
,
0000
0000
0000
0000
,
0000
0000
0000
0000
,
0000
0000
0000
0000
,
0010
0000
1000
0001
0000
1000
0100
0010
,
0000
0001
0001
0000
1000
0000
0001
0000
,
0100
0000
0100
0000
0000
0010
0000
1000
,
1000
0001
1000
0100
0000
0010
0000
0010
,
0001
0100
0010
1000
0000
1000
0100
0001
,
0000
0010
0010
0000
0001
0000
0100
0000
,
0010
1000
0001
0100
0000
0001
0010
1000
,
0000
0100
0100
0000
0010
0000
0001
0000
,
0100
0010
1000
0001
0000
0010
1000
0100
,
0000
1000
1000
0000
0001
0000
0100
0000
,
0010
1000
0100
0000
0000
1000
0000
0001
,
0001
0010
1000
0100
0010
0001
0100
0010
,
1001
0000
1000
0100
0000
0010
0011
0000
,
1100
0000
0001
0100
0000
0010
1010
0000
,
0101
1000
0001
0010
0000
0100
1100
0000
,
0101
0010
0001
1000
0000
0010
0110
0000
,
1001
0100
0001
0000
0011
0100
1000
0000
,
0110
0001
1000
0000
0101
0010
0100
0000
,
0001
0010
0001
0100
0001
0010
0001
0100
,
0001
0001
1000
1000
0100
0100
0010
0010
,
0022
0000
0000
0000
0000
0000
0030
1000
,
1003
0001
0000
0100
0100
0000
0010
1000
,
0100
0010
0001
0100
0001
0010
0100
1000
,
0001
0000
0000
0001
0000
0000
1000
0000
0010
0000
1000
0000
0100
0000
0000
0000
,
0010
0001
0010
0100
1000
0010
1000
0001
,
0100
0000
0000
0100
0000
0000
0010
0000
1000
0000
0100
0000
1000
0000
0000
0000
,
0001
0010
1000
0001
1000
0100
0010
0001
,
1000
0000
0000
1000
0000
0000
0010
0000
0100
0000
0001
0000
0010
0000
0000
0000
,
0001
0000
0000
0010
0000
0000
0001
0000
0100
0000
0000
0010
0000
0000
1000
0000
,
0100
0000
0000
0100
0000
0000
0100
0000
0010
0000
0001
0000
1000
0000
0001
0000
,
1000
0100
0010
0100
1000
0001
0100
0010
,
1000
0000
0000
0001
0000
0000
0010
0000
0001
0000
1000
0000
0100
0000
0000
0000
,
0010
0001
0100
0001
0010
1000
0100
1000
,
0001
0000
0000
0010
0000
0000
1000
0000
0100
0000
0010
0000
0001
0000
0000
0000
,
0100
0001
0010
0100
1000
0001
0010
0100
,
0010
0000
0000
0010
0000
0000
0001
0000
0100
0000
0010
0000
1000
0000
0000
0000
,
0001
0000
0010
0000
0001
0000
0010
0000
1000
0000
0000
1000
0000
0000
1000
0000
,
1010
0000
0000
1010
0000
0000
1010
0000
0101
0000
0000
0101
0000
0000
0101
0000
,
1000
0100
0001
0100
0010
0100
0001
0100
,
1000
0010
0100
0001
0000
0010
0000
1000
,
0001
0100
0010
0100
1000
0100
0010
0100
,
1000
0100
0001
0010
0000
0100
0000
1000
,
0001
0010
1000
0010
0100
0010
1000
0010
,
0001
0100
0010
1000
0000
0100
0000
0001
,
0010
1000
0010
0001
0010
0100
0010
1000
,
0010
0001
1000
0100
0000
1000
0010
0001
,
0100
0001
0010
0001
0100
0010
1000
0100
,
0001
0010
1000
0100
0000
0010
0000
0001
,
1000
0001
0010
1000
0100
0010
0100
1000
,
0010
0001
0100
1000
0000
0001
0000
0100
,
1001
0000
0010
1000
0100
0010
0001
0100
,
0110
0000
1000
0010
0000
1000
0100
0011
,
0011
0000
0100
0010
1010
0000
1000
0001
,
1000
0010
1000
0001
0010
0100
1000
0001
,
0202
0000
0000
0000
,
0000
0000
0000
0000
,
0303
0000
0000
0000
,
0000
0000
2000
3000
,
1100
0000
0001
0100
0000
0010
0000
0101
,
0101
0000
1000
0001
0000
0010
0000
0011
,
0011
0000
1000
0001
0110
0000
1000
0100
,
0010
0001
0100
0001
0010
0001
1000
0100
,
0010
0000
0000
0010
0000
0000
0001
0000
1000
0000
0000
0010
0000
0000
1000
0000
,
0100
0000
0000
0100
0000
0000
0010
0000
0001
0000
0100
0000
0001
0000
0000
0000
,
1000
0010
1000
0001
1000
0100
0010
0001
,
0100
0000
0000
0010
0000
0000
0100
0000
0001
0000
0010
0000
1000
0000
0000
0000
,
0001
0000
0000
0010
0000
0000
1000
0000
0100
0000
0000
0010
0000
0000
0001
0000
,
1000
0000
0000
1000
0000
0000
1000
0000
0001
0000
0100
0000
0010
0000
0000
0000
,
1000
0100
0001
0000
0010
0001
0100
0000
,
0001
0010
1000
0000
0100
0010
0001
0100
,
1000
0000
0000
0001
0000
0000
0010
0000
0001
0000
0100
0000
0010
0000
1000
0000
,
0100
0000
0000
0100
0000
0000
0010
0000
0001
0000
0100
0000
0001
0000
1000
0000
,
0010
1000
0000
0001
0000
1000
0100
0010
,
0001
0000
0000
0001
0000
0000
0010
0000
1000
0000
0100
0000
0000
1000
0000
0000
,
1001
0100
0010
0000
1000
0100
0001
0000
,
0011
0000
0000
1000
0000
0000
0001
0000
1000
0000
0010
0000
1000
0000
1010
0000
,
1010
0000
0000
0001
0000
0000
1000
0000
0101
0000
0000
0010
0000
0000
0100
0000
,
0110
0000
0000
0110
0000
0000
0110
0000
1001
0000
0000
1001
0000
0000
1001
0000
,
0220
0000
0000
0000
,
0000
0000
0000
0000
,
0330
0000
0000
0000
;

//---------------dance-single - ----------------
#NOTES:
     dance-single:
     :
     Medium:
     9:
     0.434244,0.545383,0.256651,0.192488,0.016041,379.000000,347.000000,32.000000,24.000000,0.000000,0.000000,0.434244,0.545383,0.256651,0.192488,0.016041,379.000000,347.000000,32.000000,24.000000,0.000000,0.000000:
0000
0000
0000
0000
,
0000
0000
0000
0000
,
0000
0000
0000
0000
,
0000
0000
0000
0000
,
0000
0000
0000
0000
,
0010
1000
0000
0001
,
0000
1000
0100
0001
,
0010
0000
0010
0000
0000
0001
0000
1000
,
0001
0000
0001
0100
0000
0010
0000
0010
,
1000
0000
0100
0000
0000
0000
1000
0001
,
0000
1000
0100
0000
0010
0000
0100
0000
,
0010
0000
0001
0000
0000
0000
1000
0001
,
0000
1000
0010
0000
0100
0000
0010
0000
,
0100
0000
0001
0000
0000
0000
1000
0010
,
0000
1000
0100
0000
1000
0000
0001
0000
,
0100
0000
0100
0000
0000
0001
0000
1000
,
0001
0000
0100
1000
0000
0010
0000
0010
,
2000
0001
3100
1100
,
0012
1000
0103
0101
,
2010
0100
3001
1001
,
0210
1000
0301
0101
,
1100
0001
0101
1000
,
1010
0100
0011
0100
,
1001
0110
1001
0110
,
1000
0001
1000
0000
0100
0010
0100
0000
,
2000
0000
0000
0000
,
3001
1000
0000
0010
0100
0000
0000
0000
,
0010
0000
1000
0000
0100
0010
0001
0000
,
1000
0000
1000
0000
0001
0100
0010
0000
,
1000
0100
0000
0000
0001
0100
0000
0000
,
0010
0000
0010
0000
0001
1000
0001
0000
,
1000
0100
0000
0000
0001
0100
1000
0000
,
0001
0000
0001
0000
1000
0100
1000
0000
,
0001
0100
1000
0010
,
0100
0000
0001
0000
1000
0010
1000
0010
,
1000
0000
0001
0000
0010
1000
0100
0000
,
0001
0000
0001
0000
0010
0001
1000
0000
,
0100
0010
0000
0000
0100
0001
0000
0000
,
0010
0000
1000
0000
0100
1000
0001
0000
,
0100
0001
0010
0000
0001
0100
1000
0000
,
0001
0000
0010
0000
1000
0001
1000
0000
,
0110
0110
1001
1001
,
0001
0000
0000
0001
0000
0000
0001
0000
1000
0000
0000
1000
0000
0000
1000
0000
,
0002
0203
2300
3020
,
0031
0000
1000
0001
0000
1000
0000
0100
,
0020
2030
3200
0302
,
0013
0000
0001
0100
0000
1000
0000
0001
,
2000
3020
0032
0203
,
1300
0000
0010
0100
0000
0001
0000
0001
,
0200
0302
0023
2030
,
3100
0000
0001
1000
0000
0010
0000
0010
,
0001
0000
0100
0000
1000
0010
0001
0000
,
0100
0000
0010
1000
0000
1000
0000
0001
,
0010
0000
1000
0000
0100
1000
0001
0000
,
0010
0000
0100
0001
0000
1000
0000
1000
,
0001
0000
0100
0000
0010
1000
0001
0000
,
1010
0000
1000
0001
0000
0100
0000
0010
,
0100
0001
1000
0000
0101
0000
1100
0000
,
0001
0010
0100
1000
0001
0100
0010
1000
,
0002
0000
0000
0000
,
0000
0000
0000
0000
,
0003
0000
0000
0000
,
0000
0000
2000
3000
,
1001
0000
0010
0100
0000
0001
1000
0000
,
1100
0000
0010
0001
0100
0000
1000
0000
,
0101
0010
1100
0010
,
0001
1000
0001
1000
0100
0010
0001
0000
,
1000
0000
0010
0000
0001
0100
0010
0000
,
1000
0000
0001
0000
0010
1000
0100
0000
,
0010
0000
0001
0000
1000
0010
0001
0000
,
0100
0000
0010
0000
0100
0010
1000
0000
,
0001
0010
0000
0000
1000
0100
0000
0000
,
0001
0000
0100
0000
0001
0010
1000
0000
,
0100
1000
0001
0100
,
0010
0000
0001
0000
1000
0100
1000
0100
,
1000
0001
1000
0001
,
1000
0000
0100
0000
1000
0100
0010
0000
,
0001
0100
0000
0000
0100
0010
0000
0000
,
0100
0000
0010
0000
0001
1000
0001
0000
,
1000
0100
0010
0000
0001
0100
1000
0000
,
0101
0000
1010
0000
0001
0010
1000
0000
,
1100
1100
0011
0011
,
1000
0000
0000
1000
0000
0000
1000
0000
0001
0000
0000
0001
0000
0000
0001
0000
,
0200
0000
0000
0000
,
0000
0000
0000
0000
,
0300
0000
0000
0000
;

//---------------dance-single - ----------------
#NOTES:
     dance-single:
     :
     Easy:
     6:
     0.281858,0.340864,0.224570,0.264671,0.000000,246.000000,218.000000,28.000000,33.000000,0.000000,0.000000,0.281858,0.340864,0.224570,0.264671,0.000000,246.000000,218.000000,28.000000,33.000000,0.000000,0.000000:
0000
0000
0000
0000
,
0000
0000
0000
0000
,
0000
0000
0000
0000
,
0000
0000
0000
0000
,
0000
0000
0000
0000
,
0010
0000
1000
0000
,
0100
0000
0001
0001
,
1000
0001
0000
0000
,
1000
0010
0100
0001
,
0010
0100
0000
1000
,
0000
0010
1000
0001
,
1000
0100
0000
0010
,
0000
0001
0100
1000
,
0001
0010
0000
0001
,
0000
1000
0001
1000
,
0010
0100
0000
0000
,
0001
0010
0100
1000
,
2002
0000
3003
1100
,
0202
0000
0303
0011
,
2200
0000
3300
0101
,
2020
0000
3030
0110
,
2002
3003
0220
0330
,
2002
3003
0220
0330
,
1000
1000
0001
0001
,
0100
0100
0010
0010
,
0202
0000
0000
0300
,
2000
0003
0002
3003
,
0010
0001
0100
1000
,
0001
0000
1000
0000
,
0001
0010
0001
0100
,
1000
0000
0010
0000
,
0100
0001
0100
0010
,
1000
0000
0001
0000
,
1000
1000
0001
0001
,
1000
0100
0001
0010
,
0100
0010
0100
1000
,
0010
0000
0100
0000
,
0001
0010
0001
0100
,
1000
0000
0001
0000
,
1000
0001
0010
0100
,
0010
0000
0001
0000
,
1000
1000
0010
0010
,
0001
0001
0100
0100
,
0001
0000
0001
0000
,
1000
0100
1000
0010
,
0001
0000
0100
0000
,
0001
1000
0100
0000
,
0010
0000
0010
0000
,
0001
0100
0001
1000
,
0100
0000
0010
0000
,
0001
1000
1010
0101
,
0011
0000
1000
0000
,
0100
0010
0001
0100
,
0001
0000
0010
0000
,
1000
0100
0001
0000
,
1001
0000
0010
1000
,
1100
0000
1000
0001
,
0101
0000
1100
0000
,
0001
0010
1000
0001
,
0202
0000
0000
0000
,
0000
0000
0000
0000
,
0303
0000
0000
0000
,
0000
0000
2000
3000
,
2002
0000
0000
3003
,
0220
0000
0000
0330
,
2020
3030
0202
0303
,
1000
0010
0001
0100
,
0001
0001
1000
0100
,
0010
0000
0010
0000
,
0001
0010
0001
0100
,
1000
0000
1000
0000
,
0001
0010
0001
0100
,
0010
0000
1000
0000
,
0100
0000
0010
0000
,
0001
0000
1000
0001
,
1000
0010
1000
0100
,
0001
0001
0001
0000
,
0010
0001
0100
0010
,
1000
1000
1000
0000
,
1001
0000
0100
0010
,
0110
0000
0001
1000
,
0100
0100
1000
1000
,
0010
0010
0001
0001
,
2002
0000
0000
0000
,
0000
0000
0000
0000
,
3003
0000
0000
0000
;

//---------------dance-single - ----------------
#NOTES:
     dance-single:
     :
     Beginner:
     3:
     0.150095,0.204519,0.080203,0.016041,0.000000,131.000000,121.000000,10.000000,2.000000,0.000000,0.000000,0.150095,0.204519,0.080203,0.016041,0.000000,131.000000,121.000000,10.000000,2.000000,0.000000,0.000000:
0000
0000
0000
0000
,
0000
0000
0000
0000
,
0000
0000
0000
0000
,
0000
0000
0000
0000
,
0000
0000
0000
0000
,
0010
0000
0000
0000
,
1000
0000
0000
0000
,
0001
0001
0000
0000
,
0100
0000
0010
0000
,
1000
0000
0001
0000
,
0100
0000
0010
0000
,
1000
0000
0001
0000
,
1000
0000
0100
0000
,
0010
0000
0001
0000
,
0100
0000
0010
0000
,
1000
1000
0000
0000
,
0001
0000
0100
0000
,
1001
0000
0000
0000
,
0110
0000
0000
0000
,
1001
0000
0000
0000
,
0110
0000
0000
0000
,
1000
0000
0001
0000
,
1000
0000
0001
0000
,
0100
0000
0100
0000
,
0100
0100
0100
0000
,
0010
0000
0000
0000
,
0000
0000
0000
0000
,
1000
0000
0010
0000
,
1000
0000
0000
0000
,
0001
0000
0100
0000
,
0001
0000
0000
0000
,
0010
0000
0100
0000
,
0010
0000
0000
0000
,
0001
0000
0001
0000
,
1000
0000
0010
0000
,
1000
0000
0100
0000
,
1000
0000
0000
0000
,
0001
0000
0010
0000
,
0001
0000
0000
0000
,
0100
0000
0010
0000
,
1000
0000
0000
0000
,
0100
0000
0100
0000
,
0010
0000
0010
0000
,
0001
0000
0000
0000
,
1000
0000
0001
0000
,
0010
0000
0000
0000
,
0001
0001
0000
0000
,
0100
0000
0000
0000
,
0010
0000
1000
0000
,
0010
0000
0000
0000
,
0100
0100
0000
0000
,
0001
0000
0000
0000
,
1000
0000
0100
0000
,
1000
0000
0000
0000
,
0010
0010
0000
0000
,
1001
0000
0000
0000
,
0110
0000
0000
0000
,
0001
0000
0001
0000
,
1000
0000
0010
0000
,
0200
0000
0000
0000
,
0000
0000
0000
0000
,
0300
0000
0000
0000
,
0000
0000
0000
0000
,
1001
0000
0000
0000
,
0110
0000
0000
0000
,
1000
0000
0010
0000
,
0001
0000
0100
0000
,
0001
0000
0010
0000
,
0001
0000
0000
0000
,
0100
0000
0010
0000
,
1000
0000
0000
0000
,
0100
0000
1000
0000
,
0010
0000
0000
0000
,
0001
0000
0001
0000
,
1000
0000
0001
0000
,
1000
0000
1000
0000
,
0100
0000
0100
0000
,
0010
0000
0010
0000
,
0001
0000
0001
0000
,
1001
0000
0000
0000
,
0110
0000
0000
0000
,
1000
0000
0001
0000
,
1000
0000
0010
0000
,
0200
0000
0000
0000
,
0000
0000
0000
0000
,
0300
0000
0000
0000
;

//---------------dance-single - ----------------
#NOTES:
     dance-single:
     :
     Challenge:
     16:
     0.843281,0.920334,0.336854,0.024061,0.641627,736.000000,694.000000,42.000000,3.000000,0.000000,0.000000,0.843281,0.920334,0.336854,0.024061,0.641627,736.000000,694.000000,42.000000,3.000000,0.000000,0.000000:
// measure 0
0000
0000
0000
0000
,  // measure 1
0000
0000
0000
0000
,  // measure 2
0000
0000
0000
0000
,  // measure 3
0000
0000
0000
0000
,  // measure 4
0000
0000
0000
0000
,  // measure 5
0010
0000
1000
0100
0000
1000
0010
0001
,  // measure 6
0000
0100
0100
0000
0010
0000
0100
0000
,  // measure 7
0101
0000
1100
0000
0000
0001
0000
1000
,  // measure 8
1000
0010
0001
0100
0000
0010
0000
0100
,  // measure 9
0001
0010
1000
0100
1000
0001
1000
0010
,  // measure 10
0100
0000
1000
0000
0100
0000
0001
0010
0001
0000
0100
0000
1000
0000
0000
0000
,  // measure 11
0010
1000
0001
0010
0100
0001
0100
1000
,  // measure 12
0001
0000
0010
0000
1000
0000
0100
0010
0100
0000
1000
0000
0001
0000
0000
0000
,  // measure 13
0101
0010
1000
0100
0010
0001
1000
0001
,  // measure 14
0100
0000
1000
0000
0100
0000
0010
1000
0010
0000
0100
0000
0001
0000
0000
0000
,  // measure 15
0011
0000
0000
0000
1100
0000
0001
1000
0001
0000
0100
0000
0010
0000
1000
0000
,  // measure 16
0100
0001
0100
1000
0010
0100
0001
1000
,  // measure 17
1001
0010
1000
0100
0000
0010
0011
1000
,  // measure 18
1010
0001
1000
0100
0000
0010
0011
0100
,  // measure 19
1100
0010
1000
0100
0000
0001
0110
1000
,  // measure 20
1100
0010
1000
0001
0000
1000
1010
0100
,  // measure 21
1001
0010
1000
0100
0110
0010
0001
0100
,  // measure 22
0101
0010
1000
0001
1010
1000
0100
0001
,  // measure 23
0011
0010
0110
0100
1100
1000
1001
0001
,  // measure 24
0100
0000
0100
0000
0100
0000
0100
0000
0001
0010
0001
0010
0001
1000
0001
1000
,  // measure 25
0200
0000
0000
0000
0000
0000
0000
1000
,  // measure 26
1300
0000
0001
0000
0000
0000
0100
0000
1001
0000
0000
0000
0010
1000
0001
0100
,  // measure 27
0010
0000
1000
0100
0000
0010
0001
0000
0100
0000
0010
1000
0100
0000
0001
0010
,  // measure 28
0100
0000
0000
1000
0000
0000
0001
1000
0010
0000
0100
0000
0001
1000
0001
1000
,  // measure 29
0100
0000
0010
0001
0000
1000
0100
0000
1000
0000
0010
0100
0000
0001
1000
0000
,  // measure 30
0001
0100
0000
0010
0000
0000
1000
0001
1000
0000
0100
0000
0010
0001
0010
0100
,  // measure 31
1000
0000
0001
0000
0100
0010
0100
0010
1000
0000
0100
0000
0010
0001
0010
0001
,  // measure 32
1000
0000
0000
0001
0000
0000
1000
0010
0100
0000
0001
0000
1000
0000
0001
0010
,  // measure 33
0001
0100
0000
0100
0010
0000
1000
0000
0001
0000
0010
0001
0000
0100
0010
0000
,  // measure 34
1000
0000
0100
0000
0000
0000
0010
0001
1000
0001
0100
0010
1000
0001
0010
0100
,  // measure 35
1000
0000
0001
0100
0000
0010
1000
0000
0001
0010
0000
0100
1000
0000
0010
0100
,  // measure 36
0001
0000
0000
1000
0000
0000
0100
0010
0100
0000
1000
0000
0001
0100
0010
0100
,  // measure 37
0001
0000
1000
0001
0000
0010
0100
0000
1000
0000
0010
0000
1000
0100
0010
0001
,  // measure 38
0100
0000
0000
0010
0000
0000
1000
0000
0001
0000
0001
0000
1000
0100
0000
0010
,  // measure 39
0001
0000
0100
0000
0001
1000
0001
1000
0010
0000
0100
0000
0001
0010
0001
0010
,  // measure 40
0100
0000
0000
1000
0000
0001
0100
0001
0010
0000
0100
0000
1000
0010
1000
0001
,  // measure 41
0100
0000
0010
1000
0100
0000
0001
0000
0010
0000
0001
1000
0000
0001
0100
0000
,  // measure 42
0101
0000
0000
1100
0000
0000
0011
0000
1000
0001
0000
1100
0000
0000
0101
0000
,  // measure 43
0001
0010
1000
0100
0010
0100
0001
1000
,  // measure 44
0100
1000
0001
0010
1000
0100
0001
0010
,  // measure 45
0010
0001
1000
0010
0100
1000
0001
0100
,  // measure 46
0100
0000
0001
0000
0100
0000
1000
0000
0001
0000
0010
0000
0010
0000
1000
0100
,  // measure 47
1000
0001
0010
1000
0010
0100
0100
0001
,  // measure 48
1000
0100
0010
0001
0010
1000
0100
0001
,  // measure 49
1000
0001
0001
0010
1000
0100
0100
0010
,  // measure 50
1000
0000
0001
0000
0100
0000
0010
0000
0001
1000
0010
0000
1000
0000
0100
0010
,  // measure 51
0001
1000
0100
1000
0100
0001
0010
0010
,  // measure 52
0001
0100
0010
0100
1000
0010
1000
0001
,  // measure 53
0100
0010
0001
0001
1000
0100
0010
1000
,  // measure 54
0010
0000
0100
0000
0010
0000
1000
0000
1000
0000
0001
0000
0100
0000
0001
1000
,  // measure 55
0010
0000
0001
0000
0100
0000
0001
0000
0100
0000
1000
0000
0010
0000
1000
0001
,  // measure 56
0100
0000
0001
0000
0010
0000
0100
0000
1000
0000
0001
0000
0010
0000
1000
0100
,  // measure 57
0010
0001
0100
0010
1001
0100
1000
0001
,  // measure 58
1000
0010
1000
0010
0100
0001
0100
0001
0010
0100
0010
0100
1000
0001
1000
0001
,  // measure 59
0100
0010
0100
0001
0000
1000
0010
0001
,  // measure 60
1000
0100
0001
0100
1000
0000
0010
0000
,  // measure 61
0100
0001
0010
0100
0000
1000
0010
0001
,  // measure 62
0100
1000
0100
0010
0100
0001
0100
0110
,  // measure 63
1001
0010
1000
0001
0000
1000
0100
0011
,  // measure 64
1100
0001
0100
0010
1000
0000
0100
1001
,  // measure 65
0011
0100
1000
0001
1010
0100
0010
1000
,  // measure 66
0001
0010
0100
0010
0001
0100
0010
0100
0001
0010
0100
0010
0001
0100
0010
0100
,  // measure 67
0001
0000
1000
0100
0000
1000
0100
0000
0010
0000
0001
1000
0000
0001
1000
0000
,  // measure 68
0010
0000
0000
1000
0000
0000
0100
0010
0001
0000
1000
0000
0001
0100
0010
0100
,  // measure 69
0010
0000
1000
0001
0000
1000
0010
0000
0100
0000
0001
1000
0000
0100
0010
0000
,  // measure 70
0001
1000
0000
0100
0000
0000
1000
0000
0001
0000
0001
0000
0100
0010
0100
0001
,  // measure 71
1000
0000
0010
0000
0100
0000
0001
1000
0001
0000
1000
0100
0000
0010
0001
0100
,  // measure 72
0001
1000
0000
0010
0000
0010
0100
0001
0100
0000
0010
0000
1000
0100
0010
0001
,  // measure 73
1000
0000
0010
0100
0000
0010
1000
0000
0001
0000
0100
0000
0001
0010
0000
0100
,  // measure 74
1000
0000
0001
0000
0000
1000
0010
1000
0010
0100
0001
1000
0010
0100
0001
1000
,  // measure 75
0100
0000
0010
0000
0001
0000
0100
0000
0001
0000
0010
0000
1000
0000
0100
0010
,  // measure 76
0001
0000
1000
0001
0000
1000
0100
0000
0010
0000
0010
0000
0000
0001
0100
0001
,  // measure 77
0100
0000
0010
0000
1000
0000
0001
0010
0000
0010
0100
0000
1000
0001
1000
0100
,  // measure 78
0010
0000
0001
0100
0000
0001
1000
0000
0010
0000
0010
0000
0000
1000
0000
0001
,  // measure 79
0100
0000
0010
1000
0000
1000
0100
0000
0010
0000
0001
0100
0000
0100
0010
0000
,  // measure 80
0110
0000
0000
1000
0000
0000
0001
0000
0010
0000
0100
0000
0010
0001
1000
0010
,  // measure 81
0100
0000
0001
0010
0000
0001
1000
0000
1100
0000
0010
1000
0000
0001
0100
0010
,  // measure 82
1000
0000
0000
1010
0000
0000
0101
0000
0001
1000
0000
1100
0000
0000
0011
0000
,  // measure 83
2002
0000
0000
0000
,  // measure 84
0000
0000
0000
0000
,  // measure 85
3003
0000
0000
0000
;
