#VERSION:0.83;
#TITLE:WONDER COASTER;
#SUBTITLE:;
#ARTIST:MUGIPONG;
#TITLETRANSLIT:;
#SUBTITLETRANSLIT:;
#ARTISTTRANSLIT:;
#GENRE:;
#ORIGIN:;
#CREDIT:;
#BANNER:WONDER COASTER-bn.png;
#BACKGROUND:WONDER COASTER-bg.png;
#PREVIEWVID:;
#JACKET:WONDER COASTER-jacket.png;
#CDIMAGE:;
#DISCIMAGE:;
#LYRICSPATH:;
#CDTITLE:;
#MUSIC:WONDER COASTER.ogg;
#OFFSET:0.000000;
#SAMPLESTART:4.186000;
#SAMPLELENGTH:20.000000;
#SELECTABLE:YES;
#DISPLAYBPM:172.000000;
#BPMS:0.000=172.000;
#STOPS:;
#DELAYS:;
#WARPS:;
#TIMESIGNATURES:0.000=4=4;
#TICKCOUNTS:0.000=4;
#COMBOS:0.000=1;
#SPEEDS:0.000=1.000=0.000=0;
#SCROLLS:0.000=1.000;
#FAKES:;
#LABELS:0.000=Song Start;
#BGCHANGES:;
#KEYSOUNDS:;
#ATTACKS:
;

//---------------dance-single - ----------------
#NOTEDATA:;
#CHARTNAME:;
#STEPSTYPE:dance-single;
#DESCRIPTION:;
#CHARTSTYLE:;
#DIFFICULTY:Beginner;
#METER:3;
#RADARVALUES:0.101252,0.173314,0.044298,0.062017,0.000000,80.000000,75.000000,5.000000,7.000000,0.000000,0.000000,0.000000,0.000000,0.000000,0.101252,0.173314,0.044298,0.062017,0.000000,80.000000,75.000000,5.000000,7.000000,0.000000,0.000000,0.000000,0.000000,0.000000;
#CREDIT:;
#NOTES:
0000
0000
0000
0000
,
0000
0000
0000
0000
,
0000
0000
0000
0000
,
0001
0000
0000
0000
,
0001
0000
0000
0000
,
0010
0000
0000
0000
,
0010
0000
0000
0000
,
1000
0000
0000
0000
,
1000
0000
0000
0000
,
0010
0000
0000
0000
,
0010
0000
0000
0000
,
0001
0000
0000
0000
,
0000
0000
0000
0000
,
1000
0000
0000
0000
,
0000
0000
0000
0000
,
0001
0000
0010
0000
,
0001
0000
0000
0000
,
0020
0000
0000
0000
,
0030
0000
0000
0000
,
0010
0000
0010
0000
,
1000
0000
0000
0000
,
0100
0000
0000
0000
,
1000
0000
0000
0000
,
1000
0000
1000
0000
,
0010
0000
0000
0000
,
0001
0000
0000
0000
,
0010
0000
0000
0000
,
0002
0000
0000
0000
,
0003
0000
0000
0000
,
0020
0000
0000
0000
,
0030
0000
0000
0000
,
0100
0000
1000
0000
,
1000
0000
0000
0000
,
0010
0000
0000
0000
,
1001
0000
0000
0000
,
2000
0000
0000
0000
,
3000
0000
0000
0000
,
0020
0000
0000
0000
,
0030
0000
0000
0000
,
0002
0000
0000
0000
,
0003
0000
0000
0000
,
0020
0000
0000
0000
,
0030
0000
0000
0000
,
1000
0000
1000
0000
,
0010
0000
0000
0000
,
0100
0000
0000
0000
,
0100
0000
0000
0000
,
0001
0000
0001
0000
,
0010
0000
0000
0000
,
0100
0000
0000
0000
,
0000
0000
0000
0000
,
1001
0000
0000
0000
,
0000
0000
0000
0000
,
0001
0000
0001
0000
,
0010
0000
0000
0000
,
0001
0000
0001
0000
,
0100
0000
0000
0000
,
0010
0000
1000
0000
,
0010
0000
0000
0000
,
1000
0000
0000
0000
,
0010
0000
0000
0000
,
0100
0000
0100
0000
,
0010
0000
0000
0000
,
0001
0000
0000
0000
,
0010
0000
0000
0000
,
0100
0000
0100
0000
,
0010
0000
0000
0000
,
1001
0000
0000
0000
,
0000
0000
0000
0000
,
1001
0000
0000
0000
,
0000
0000
0000
0000
,
0001
0000
0001
0000
,
0010
0000
0000
0000
,
1000
0000
1000
0000
,
0010
0000
0000
0000
,
0000
0000
1001
0000
,
0000
0000
0000
0000
,
0000
0010
0000
0000
,
0000
0010
0000
0000
,
0000
0000
0000
0000
;

//---------------dance-single - ----------------
#NOTEDATA:;
#CHARTNAME:;
#STEPSTYPE:dance-single;
#DESCRIPTION:;
#CHARTSTYLE:;
#DIFFICULTY:Easy;
#METER:6;
#RADARVALUES:0.246801,0.311966,0.212628,0.097455,0.000000,195.000000,171.000000,24.000000,11.000000,0.000000,0.000000,0.000000,0.000000,0.000000,0.246801,0.311966,0.212628,0.097455,0.000000,195.000000,171.000000,24.000000,11.000000,0.000000,0.000000,0.000000,0.000000,0.000000;
#CREDIT:;
#NOTES:
0000
0000
0000
0000
,
0000
0000
0000
0000
,
0000
0000
0000
0000
,
0001
0010
0001
0000
,
1000
0100
1000
0000
,
0001
0010
0100
1000
,
0001
1000
0001
0000
,
1000
0000
0110
0000
,
0001
0000
0110
0000
,
1000
0001
0010
0000
,
0001
1000
0010
0000
,
0200
0000
0000
0000
,
0300
0000
1001
0000
,
0020
0000
0000
0000
,
0030
0000
1001
0000
,
0001
0000
0010
0000
,
1000
1000
1000
0000
,
0020
0000
0000
0030
,
1001
0000
0000
0000
,
1000
0000
0010
0000
,
0001
0000
0010
0000
,
1000
0010
1000
0000
,
1000
0100
1000
0000
,
0001
0000
0010
0000
,
1000
0000
0010
0000
,
0001
0010
0001
0000
,
0001
0100
0001
0000
,
1001
0000
0000
0000
,
1000
0010
0100
0000
,
1001
0000
0000
0000
,
0001
0010
0100
0000
,
0110
0000
1001
0000
,
1000
1000
1000
0000
,
0110
0000
0000
0000
,
1001
0000
0000
0000
,
0002
0000
0000
0003
,
0100
0010
0100
0000
,
0020
0000
0000
0030
,
1000
0001
1000
0000
,
0200
0000
0000
0300
,
0010
0100
0010
0000
,
0002
0000
0000
0003
,
0001
1000
0001
0000
,
1000
0010
1000
0010
,
1000
0000
0001
0000
,
0001
0010
0001
0010
,
0001
0000
1000
0000
,
1000
0100
1000
0100
,
1000
0000
0001
0000
,
0001
0100
0001
0100
,
0001
0000
0000
0000
,
0020
0000
0000
0030
,
0200
0000
0000
0300
,
1001
0000
1001
0000
,
0001
1000
1001
0000
,
0001
0010
0001
0010
,
0100
0000
1000
0000
,
1000
0010
1000
0010
,
0100
0000
0001
0000
,
1000
1000
0010
0000
,
0100
0100
0001
0000
,
0001
0001
0010
0000
,
0100
0100
1000
0000
,
1000
0001
0010
0001
,
1000
0000
1001
0000
,
0001
1000
0010
1000
,
0001
0000
1001
0000
,
2000
0000
3000
0000
,
0100
0000
0110
0000
,
0002
0000
0003
0000
,
0100
0000
0110
0000
,
1001
0000
0110
0000
,
1000
0001
1000
0000
,
0010
0000
0110
0000
,
0001
1000
0001
0000
,
0100
0000
0110
0000
,
0000
0000
0000
0000
,
0000
1001
0000
0000
,
0000
0110
0000
0000
,
0000
0000
0000
0000
;

//---------------dance-single - ----------------
#NOTEDATA:;
#CHARTNAME:;
#STEPSTYPE:dance-single;
#DESCRIPTION:;
#CHARTSTYLE:;
#DIFFICULTY:Medium;
#METER:10;
#RADARVALUES:0.463226,0.519943,0.256926,0.248066,0.097455,366.000000,337.000000,29.000000,28.000000,0.000000,0.000000,0.000000,0.000000,0.000000,0.463226,0.519943,0.256926,0.248066,0.097455,366.000000,337.000000,29.000000,28.000000,0.000000,0.000000,0.000000,0.000000,0.000000;
#CREDIT:;
#NOTES:
0000
0000
0000
0000
,
0000
0000
0000
0000
,
0000
0000
0000
0000
,
0001
0100
0001
0100
0000
0001
0010
0000
,
0100
1000
0100
1000
0000
1000
0001
0000
,
0100
0110
1000
1001
,
0001
0100
0001
0020
0000
0000
0030
0000
,
0001
0000
0000
0001
0000
0000
0100
0000
0010
0000
0000
0000
0110
0000
0000
0000
,
1000
0000
0000
1000
0000
0000
0100
0000
0010
0000
0000
0000
0110
0000
0000
0000
,
0001
0000
0000
0001
0000
0000
0010
0000
0100
0000
0000
0000
0110
0000
0000
0000
,
1000
0001
0010
0000
0001
1000
0010
0000
,
0200
0010
0010
0010
,
0310
1001
0110
1001
,
0020
0100
0100
0100
,
0130
0110
1001
0110
,
1000
0000
0000
1000
0000
0000
0000
0000
0001
0000
0000
0001
0000
0000
0001
0000
,
0000
0000
1000
0000
0001
0000
0000
0000
0010
0000
0000
0100
0000
0000
0010
0000
,
0200
0000
0000
0000
0000
0300
0000
0110
,
0000
1000
0100
0010
0001
0000
0000
0000
,
1000
0000
0001
0010
0001
1000
0000
1000
,
0001
0010
0001
2000
0000
0000
3000
0000
,
0001
0000
1000
0010
1000
0001
0000
0001
,
1000
0010
1000
0002
0000
0000
0003
0000
,
1000
0100
0001
0000
0100
0000
1000
0000
,
0001
0100
1000
0000
0100
0000
0001
0000
,
1000
0010
1000
0000
0010
0100
0001
0010
,
0000
0001
1000
0001
0000
1001
0000
0000
,
0001
0010
0100
1000
0100
0010
0001
0000
,
1000
0100
0010
0001
0010
0100
1000
0000
,
0002
0010
1000
0103
,
2000
0010
0001
3100
,
1000
1010
0110
0100
,
0001
0011
0110
0100
,
1000
1000
0000
1000
0000
0001
0001
0000
,
0001
0000
0000
0000
,
0002
0000
0023
0000
,
1030
0010
0001
0000
,
2000
0000
3020
0000
,
0031
0010
1000
0000
,
0002
0000
0203
0000
,
1300
0100
0001
0000
,
2000
0000
3200
0000
,
0301
0100
1000
0000
,
0001
0010
0001
0000
0100
0010
0000
0010
,
0000
1000
0000
0010
1000
0000
0010
0000
,
1000
0100
1000
0000
0100
0010
0000
0010
,
0000
0001
0000
0010
0001
0000
0001
0000
,
1000
0110
0001
0110
,
1000
0110
0001
0110
,
1000
0100
1000
0000
0001
0100
0001
0000
,
0000
1000
0001
1000
0001
0000
0000
0000
,
1000
0010
1000
0010
0000
1000
1000
0000
,
0001
0010
0001
0010
0000
0001
0001
0000
,
1000
0100
0001
0000
0001
0100
1000
0000
,
1100
0011
1100
0000
,
1000
0000
0000
0010
0000
0000
1000
0000
0010
0000
0000
0000
1010
0000
0000
0000
,
0001
0000
0000
0100
0000
0000
0001
0000
0100
0000
0000
0000
0101
0000
0000
0000
,
0002
0103
0200
0310
,
0020
1030
2000
3001
,
0000
1000
0010
0100
0020
0000
1030
0000
,
1000
0001
0100
0010
0200
0000
0300
0000
,
0001
0100
0001
0000
1000
0010
1000
0000
,
0010
0000
0000
0100
0000
0000
0010
0000
2000
0000
0000
0000
3000
0000
0000
0000
,
1000
0000
0000
0100
0000
0000
0100
0000
0010
0000
0000
0001
0000
0000
0001
0000
,
0010
0000
0000
0100
0000
0000
0100
0000
1000
0000
0000
0001
0000
0000
0001
0000
,
1000
0001
0010
0100
0010
0001
1000
0000
,
0010
0010
1000
0000
0010
0010
0100
0000
,
0002
0103
2000
3100
,
0001
0010
1000
0001
,
0200
1300
0200
0301
,
0100
0010
0001
0100
,
0010
0010
0000
1000
1000
0001
,
0000
0001
0000
0100
0000
0000
0110
0000
0000
1001
0000
0000
,
0010
0000
0000
0010
0000
0000
0000
0000
0100
0000
0000
0100
0000
0000
0110
0000
,
0000
0000
1000
0000
0001
0000
0000
0000
0010
0000
0000
0100
0000
0000
0010
0000
,
0001
0000
0000
0100
0000
0010
0000
0000
2000
0000
0000
0000
0000
0000
0000
0000
,
0000
0000
0000
0000
,
3000
0000
0001
0000
0001
0001
0000
1000
,
0000
0010
0100
0000
0000
0000
0000
0000
,
0000
0000
0000
0000
;

//---------------dance-single - ----------------
#NOTEDATA:;
#CHARTNAME:;
#STEPSTYPE:dance-single;
#DESCRIPTION:;
#CHARTSTYLE:;
#DIFFICULTY:Hard;
#METER:13;
#RADARVALUES:0.694839,0.762583,0.442976,0.132893,0.292364,549.000000,499.000000,50.000000,15.000000,0.000000,0.000000,0.000000,0.000000,0.000000,0.694839,0.762583,0.442976,0.132893,0.292364,549.000000,499.000000,50.000000,15.000000,0.000000,0.000000,0.000000,0.000000,0.000000;
#CREDIT:;
#NOTES:
0000
0000
0000
0000
,
0000
0000
0000
0000
,
0000
0000
0000
0000
,
0001
0000
0100
0000
0010
0000
1000
0000
0000
0000
1000
0010
1000
0000
0001
0000
,
0010
0100
1000
0001
0000
0001
0100
0100
,
1000
0100
1000
0100
0010
0001
0010
0001
,
0010
1000
0001
0100
0000
0110
0000
0000
,
1000
0000
0010
1000
0000
0010
1000
0000
0100
0000
0010
0000
0001
0000
0100
0000
,
0010
0000
0100
0001
0000
0100
0001
0000
0010
0000
0100
0000
0001
0000
0100
0000
,
1000
0000
0001
0100
0000
0001
0010
0000
0100
0000
1000
0000
0010
0000
0000
0000
,
1010
0011
0101
1100
,
2000
0000
0010
0000
0001
0001
0001
0000
,
3100
0110
1001
0110
,
0002
0000
0010
0000
1000
1000
1000
0000
,
0103
0110
1001
0110
,
0001
0000
0000
0110
0000
0000
0000
0000
1000
0000
0000
0110
0000
0000
1001
0000
,
0000
0000
0001
0000
0010
0000
0100
0000
1000
0000
0000
0001
0000
0000
1000
0000
,
0020
0000
0000
0000
0030
0000
0000
0000
0010
0100
0010
0100
0010
0000
0110
0000
,
0000
0001
0100
0010
1000
0001
0010
0001
,
1000
0000
0100
0000
1000
0000
0001
0010
0001
0000
0010
0000
0001
0000
0000
0000
,
1000
0000
0010
0000
1000
0000
0001
0100
0001
0000
0100
0000
0001
0000
0000
0000
,
1000
0010
1000
0010
0100
0001
0100
0001
,
0100
0010
1000
0001
0000
0001
1000
0000
,
0001
0000
0100
0000
0001
0000
1000
0010
1000
0000
0010
0000
1000
0000
0000
0000
,
0001
0000
0010
0000
0001
0000
1000
0100
1000
0000
0100
0000
1000
0000
0000
0000
,
0001
0010
0001
0010
0100
1000
0100
1000
,
0000
0100
0010
0001
0000
0001
1000
0000
,
0001
0010
1000
0010
0001
0010
1000
0010
,
0001
0100
1000
0100
0001
0100
1000
0100
,
0001
0000
1001
0000
1000
0001
0100
0010
,
0000
0110
0000
1010
0000
1000
0001
0000
,
1000
0100
0001
1000
0010
0001
1000
0000
,
0001
0100
1000
0001
0010
1000
0001
0000
,
1000
1000
0010
1000
0000
0001
0001
0010
,
0001
2000
3020
0230
,
0301
0000
0000
0010
0011
0000
0000
1010
,
0000
1010
0000
0100
1100
0000
0000
0000
,
1000
0000
0000
0100
1100
0000
0000
0101
,
0000
0101
0000
0010
0011
0000
0011
0000
,
0002
0000
0003
0000
0001
1000
0010
0100
,
0000
0110
0000
0010
1000
0010
1000
0010
,
0100
1000
0100
0001
0001
0010
0000
0011
,
0000
0001
1001
1000
1100
0100
0110
0000
,
0001
0000
0010
0001
0010
0000
0001
0000
0100
0000
0010
0100
0010
0000
1000
0000
,
0100
0000
1000
0100
1000
0000
0100
0000
0010
0000
0000
0000
0110
0000
0000
0000
,
1000
0000
0010
1000
0010
0000
1000
0000
0100
0000
0010
0100
0010
0000
0001
0000
,
0100
0000
0001
0100
0001
0000
0100
0000
0010
0000
0000
0000
0110
0000
0000
0000
,
1000
0010
0100
1000
0100
0010
1000
0001
,
0010
0100
0001
1000
0010
0001
1000
0000
,
0001
0000
0100
0000
0010
1000
0000
1000
0000
0100
0000
0100
1000
0000
1000
0000
,
0000
1000
0100
0010
0002
0000
0003
0000
,
0001
0000
0010
0000
1000
0000
0010
0000
0000
0000
0010
0000
0001
1000
0001
0000
,
0100
0010
0100
1000
0000
1000
0100
0001
,
1000
0010
0100
0010
1000
0001
0100
0001
,
1000
0000
0010
0100
0010
0000
1000
0000
0001
0000
0000
0000
1001
0000
0000
0000
,
1000
0000
0100
0010
0000
0100
0010
0000
0001
0000
1000
0000
0001
0000
0010
0000
,
0100
0000
1000
0001
0000
1000
0001
0000
0010
0000
0100
0000
0010
0000
0001
0000
,
2000
3020
0230
0302
,
1003
0010
0100
0001
1000
0010
0100
0001
,
0000
0000
0000
0001
0000
0000
0010
0000
0000
1000
0000
0000
0001
0000
0000
0100
0000
0000
1000
0000
0001
0000
1000
0000
,
0001
0000
0100
0000
0010
0000
1000
0000
1010
0000
0000
0000
0000
0001
1000
0001
,
1000
0000
0010
0000
0110
0000
0100
0000
0001
0000
0010
0100
1000
0000
0100
0000
,
0010
0000
0001
0010
0000
0001
0010
0000
0100
0000
0001
0000
0100
0000
1000
0000
,
0010
0000
0000
0110
0000
0000
0100
0000
0001
0000
0000
0101
0000
0000
0100
0000
,
0010
0000
0000
1010
0000
0000
1000
0000
0100
0000
0000
0110
0000
0000
0010
0000
,
0001
0000
1000
0100
0000
0100
0010
0000
0010
0001
0000
0001
1000
0000
0000
0000
,
0001
0100
0010
0100
1000
0100
0020
0000
,
1030
0000
0001
0100
0001
0000
1000
0000
0010
0000
0100
0000
0010
0000
1000
0000
,
0001
0011
0110
1100
,
1000
0000
0001
0010
0001
0000
1000
0000
0100
0000
0010
0000
0001
0000
1000
0000
,
0001
0011
0110
1100
,
1000
0000
0110
0000
0000
0000
0001
0000
0110
0000
1000
0001
,
0000
0000
1000
0000
0000
0000
1000
0000
0100
0000
0010
0000
0001
0000
0000
0000
0001
0000
0100
0000
0000
0010
0000
0000
,
1000
0010
0000
1000
0000
0000
0000
0000
0001
0010
0000
0001
0000
0000
0100
0010
,
0000
0000
1000
0000
0010
0000
0001
0000
1000
0000
0000
0100
0000
0000
0001
0000
,
0010
0100
0000
0010
0000
0010
0000
0000
2002
0000
0000
0000
0000
0000
0000
0000
,
0000
0000
0000
0000
,
3003
0000
1000
0000
0010
0001
0000
0010
,
0000
1000
0001
0000
0000
0000
0000
0000
,
0000
0000
0000
0000
;

//---------------dance-double - ----------------
#NOTEDATA:;
#CHARTNAME:;
#STEPSTYPE:dance-double;
#DESCRIPTION:;
#CHARTSTYLE:;
#DIFFICULTY:Easy;
#METER:6;
#RADARVALUES:0.244269,0.311966,0.177190,0.088595,0.000000,193.000000,173.000000,20.000000,10.000000,0.000000,0.000000,0.000000,0.000000,0.000000,0.244269,0.311966,0.177190,0.088595,0.000000,193.000000,173.000000,20.000000,10.000000,0.000000,0.000000,0.000000,0.000000,0.000000;
#CREDIT:;
#NOTES:
00000000
00000000
00000000
00000000
,
00000000
00000000
00000000
00000000
,
00000000
00000000
00000000
00000000
,
10000000
00000000
00100000
00000000
,
01000000
00010000
01000000
00000000
,
00001000
00010000
00001000
00000000
,
00011000
00000000
00011000
00000000
,
00010000
00000100
00001000
00000000
,
00000010
00001000
00000100
00000000
,
00000010
00000001
00000010
00000000
,
00000001
00001000
00000100
00010000
,
00002000
00000000
00000000
00000000
,
00003000
00000000
00011000
00000000
,
02000000
00000000
00000000
00000000
,
03000000
00000000
01100000
00000000
,
10000000
00000000
10000000
00000000
,
00010000
00000000
00010000
00000000
,
00100000
00001000
00100000
00001000
,
00010000
00000000
00000000
00000000
,
00001000
00000000
00010000
00000000
,
00000010
00001000
00000010
00000000
,
00000100
00000000
00000001
00000000
,
00000010
00000100
00000010
00000000
,
00000001
00000000
00000100
00000000
,
00001000
00010000
00001000
00000000
,
00010000
00000000
00100000
00000000
,
10000000
00010000
10000000
00000000
,
01100000
00000000
00000000
00000000
,
10010000
00000000
00000000
00000000
,
10000000
00000000
01000000
00000000
,
00100000
00001000
00010000
00000000
,
00011000
00000000
00000000
00000000
,
00010000
00001000
00000010
00000001
,
00001000
00000000
00000000
00000000
,
00001001
00000000
00000000
00000000
,
00002000
00000000
00000000
00003000
,
00000010
00000100
00000010
00000000
,
00020000
00000000
00000000
00030000
,
00001000
00010000
00001000
00000000
,
00200000
00000000
00000000
00300000
,
00010000
01000000
00010000
00000000
,
00200000
00000000
00000000
00300000
,
01000000
00000000
10010000
00000000
,
10000000
10000000
01000000
00000000
,
00100000
00100000
00010000
00000000
,
00001000
00001000
00000100
00000000
,
00000010
00000010
00000001
00000000
,
00000001
00000100
00000010
00000000
,
00000010
00010000
00001000
00000000
,
00001000
00010000
00100000
01000000
,
00100000
00000000
00000000
00000000
,
20000000
00000000
00000000
30000000
,
00020000
00000000
00000000
00030000
,
00100000
00000000
00001000
00000000
,
00010000
00001000
00011000
00000000
,
00010000
00001000
00010000
00000000
,
00001000
00000010
00000001
00000000
,
00001000
00000001
00001000
00000100
,
00001000
00000000
00000100
00000000
,
00010000
00000000
00011000
00000000
,
00001000
01000000
00010000
00000000
,
00100000
00010000
01000000
00000000
,
00100000
10000000
01000000
00000000
,
10000000
01000000
00100000
00001000
,
00010000
00000000
00011000
00000000
,
00001000
00010000
00000100
00001000
,
00000100
00000000
00000110
00000000
,
00000002
00000000
00000003
00000000
,
00000110
00000000
00000110
00000000
,
00002000
00000000
00003000
00000000
,
00000110
00000000
00000110
00000000
,
00000001
00000100
00001000
00000000
,
00001000
00010000
00100000
00000000
,
01000000
00000000
01100000
00000000
,
10000000
01000000
00010000
00000000
,
00001000
00000000
00011000
00000000
,
00000000
00000000
00000000
00000000
,
00000000
00010000
00001000
00000010
,
00000000
00000110
00000000
00000000
,
00000000
00000000
00000000
00000000
;

//---------------dance-double - ----------------
#NOTEDATA:;
#CHARTNAME:;
#STEPSTYPE:dance-double;
#DESCRIPTION:;
#CHARTSTYLE:;
#DIFFICULTY:Medium;
#METER:10;
#RADARVALUES:0.456898,0.519943,0.239207,0.256926,0.097455,361.000000,334.000000,27.000000,29.000000,0.000000,0.000000,0.000000,0.000000,0.000000,0.456898,0.519943,0.239207,0.256926,0.097455,361.000000,334.000000,27.000000,29.000000,0.000000,0.000000,0.000000,0.000000,0.000000;
#CREDIT:;
#NOTES:
00000000
00000000
00000000
00000000
,
00000000
00000000
00000000
00000000
,
00000000
00000000
00000000
00000000
,
10000000
00100000
10000000
00100000
00000000
00100000
01000000
00000000
,
00010000
00100000
00010000
00100000
00000000
00100000
00001000
00000000
,
00010000
00000000
00000100
00000000
00001000
00000010
00001000
00000000
,
00000001
00000000
00000100
00000002
00000000
00000000
00000003
00000000
,
00000001
00000000
00000000
00000001
00000000
00000000
00001000
00000000
00000010
00000000
00000000
00000000
00001010
00000000
00000000
00000000
,
00001000
00000000
00000000
00001000
00000000
00000000
00000100
00000000
00010000
00000000
00000000
00000000
00011000
00000000
00000000
00000000
,
00001000
00000000
00000000
00100000
00000000
00000000
00001000
00000000
01000000
00000000
00010000
00000000
01000000
00000000
00000000
00000000
,
00010000
00100000
01000000
00000000
10000000
00100000
01000000
00000000
,
00020000
00100000
00230000
00001000
,
00301000
00000000
00010000
00001000
00000010
00000000
00000001
00000000
,
00002000
00000010
00003020
00010000
,
00010030
00000000
00001000
00010000
00100000
00000000
10000000
00000000
,
00010000
00000000
00000000
00010000
00000000
00000000
00000000
00000000
01000000
00000000
00000000
01000000
00000000
00000000
00001000
00000000
,
00000000
00000000
00001000
00000000
00010000
00000000
00000000
00000000
00000100
00000000
00000000
00001000
00000000
00000000
00000010
00000000
,
00000200
00000000
00000000
00000000
00000000
00000300
00000000
00000110
,
00000000
00000001
00000100
00000010
00001000
00000000
00000000
00000000
,
00000001
00000000
00000010
00000100
00000010
00000100
00000000
00000100
,
00010000
00001000
00010000
00002000
00000000
00000000
00003000
00000000
,
00001000
00000000
01000000
00010000
01000000
00010000
00000000
00010000
,
00100000
01000000
00100000
02000000
00000000
00000000
03000000
00000000
,
10000000
00100000
00010000
00001000
,
00100000
01000000
00010000
00001000
,
00000010
00000000
00000100
00000000
00010000
00000000
00001000
00000100
,
00000000
00000001
00001000
00000001
00000000
00001001
00000000
00000000
,
00000001
00000100
00000001
00000100
00000010
00001000
00000010
00000000
,
00001000
00000100
00001000
00000100
00010000
00001000
00010000
00000000
,
00002000
02003000
03020000
00230000
,
01300000
10000000
01000000
00000000
00100000
00010000
00100000
00000000
,
00001000
00000000
00011000
00000000
00010100
00000000
00000100
00001000
,
00000010
00000110
00000101
00001001
,
00000001
00000010
00000000
00001000
00000000
00010000
00100000
00000000
,
10000000
00000000
00000000
00000000
,
20000000
00000000
32000000
00000000
,
03010000
00001000
00010000
00000000
,
00020000
00000000
00032000
00000000
,
00003010
00000001
00000010
00000000
,
00000002
00000000
00000203
00000000
,
00001300
00010000
00001000
00000000
,
00020000
00000000
00230000
00000000
,
10300000
00100000
10000000
00000000
,
00010000
00000000
00110000
00000000
00100000
00001000
00000000
00011000
,
00000000
00010000
00000000
00000100
00001000
00000000
00000010
00000000
,
00001000
00000000
00001100
00000000
00000100
00010000
00000000
00011000
,
00000000
00001000
00000000
00100000
00010000
00000000
01010000
00000000
,
01000000
00100000
10000000
00000000
01000000
00100000
00010000
00000000
,
00100000
00001000
00010000
00000000
00000100
00001000
00000100
00000000
,
00000010
00001001
00000100
00001001
,
00000000
00000001
00000100
00000010
00001000
00000000
00000000
00000000
,
00000001
00000000
00000001
00000100
00000000
00000100
00001000
00000000
,
00010000
00001000
00010000
00001000
00000000
00000000
00011000
00000000
,
00001000
00010000
00100000
00000000
00100000
10000000
00010000
00000000
,
00100000
01000000
00100000
00000000
10010000
00000000
00000000
00000000
,
10000000
00000000
00000000
00100000
00000000
00000000
01000000
00000000
00010000
00000000
00000000
00000000
00110000
00000000
00000000
00000000
,
00100000
00000000
00000000
00001000
00000000
00000000
00010000
00000000
00001000
00000000
00000000
00000000
00011000
00000000
00000000
00000000
,
00020000
00030100
00000200
00001300
,
00002000
00003010
00000020
00000130
,
00000000
00000001
00001000
00000001
00002000
00000000
00003000
00000000
,
00001000
00000100
00000010
00000000
00000002
00000000
00000003
00000000
,
00000001
00000000
00000100
00000000
00001000
00010000
00001000
00000000
,
00010000
00000000
00000000
00100000
00000000
00000000
01000000
00000000
00200000
00000000
00000000
00000000
00300000
00000000
00000000
00000000
,
10000000
00000000
00000000
00100000
00000000
00000000
01000000
00000000
00010000
00000000
00000000
00100000
00000000
00000000
01000000
00000000
,
10000000
00000000
00000000
01000000
00000000
00000000
00010000
00000000
00001000
00000000
00000000
00010000
00000000
00000000
00000100
00000000
,
00001000
00000010
00001000
00000000
00000001
00000010
00000001
00000000
,
00000010
00000110
00001100
00010100
,
00011000
00000000
00001000
00000000
00100000
00010000
00100000
00000000
,
00010000
01000000
10000000
01000000
,
00010000
00000000
00100000
00000000
00001000
00010000
00001000
00000000
,
00010000
00000100
00000010
00000001
,
00000100
00000100
00000000
00000010
00000010
00001000
,
00000000
00001000
00000000
00000010
00000000
00000000
00010010
00000000
00000000
00011000
00000000
00000000
,
00001000
00000000
00000000
00001000
00000000
00000000
00000000
00000000
01000000
00000000
00000000
00010000
00000000
00000000
00100000
00000000
,
00000000
00000000
00100000
00000000
00010000
00000000
00000000
00000000
10000000
00000000
00000000
01000000
00000000
00000000
00100000
00000000
,
00001000
00000000
00000000
00010000
00000000
00001000
00000000
00000000
00022000
00000000
00000000
00000000
00000000
00000000
00000000
00000000
,
00000000
00000000
00000000
00000000
,
00033000
00000000
00010000
00000000
00010000
00000100
00000000
00001000
,
00000000
00000010
00001000
00000000
00000000
00000000
00000000
00000000
,
00000000
00000000
00000000
00000000
;

//---------------dance-double - ----------------
#NOTEDATA:;
#CHARTNAME:;
#STEPSTYPE:dance-double;
#DESCRIPTION:;
#CHARTSTYLE:;
#DIFFICULTY:Hard;
#METER:13;
#RADARVALUES:0.683448,0.693257,0.407538,0.150612,0.261356,540.000000,494.000000,46.000000,17.000000,0.000000,0.000000,0.000000,0.000000,0.000000,0.683448,0.693257,0.407538,0.150612,0.261356,540.000000,494.000000,46.000000,17.000000,0.000000,0.000000,0.000000,0.000000,0.000000;
#CREDIT:;
#NOTES:
00000000
00000000
00000000
00000000
,
00000000
00000000
00000000
00000000
,
00000000
00000000
00000000
00000000
,
10000000
01000000
00100000
00010000
00000000
00010000
01000000
00100000
,
01000000
00010000
00100000
01000000
00000000
01000000
00010000
00001000
,
00010000
00001000
00000010
00000000
00000010
00000001
00000100
00000000
,
00000010
00001000
00000001
00000100
00000000
00000110
00000000
00000000
,
00000001
00000000
00001000
00000010
00000000
00001000
00000010
00000000
00000100
00000000
00001000
00000000
00000100
00000000
00000010
00000000
,
00010000
00000000
00001000
00010000
00000000
00001000
00010000
00000000
01000000
00000000
01000000
00000000
10000000
00000000
10000000
00000000
,
00010000
00000000
01000000
00010000
00000000
00100000
00010000
00000000
10000000
00000000
01000000
00000000
00100000
00000000
00010000
00000000
,
01000000
01000000
00001000
00001000
00010000
00010000
00000100
00000100
,
00002000
00000010
00003002
00000010
,
00000103
00000010
00000100
00001000
00010000
00001000
00100000
00000000
,
00020000
00100000
20030000
00100000
,
31000000
00100000
01000000
00010000
00001000
00010000
00000100
00000000
,
00001000
00000000
00000000
00000110
00000000
00000000
00000000
00000000
00000001
00000000
00000000
00000110
00000000
00000000
00001001
00000000
,
00000000
00000000
00000001
00000000
00000100
00000000
00001000
00000000
00010000
00000000
00000000
00100000
00000000
00000000
00010000
00000000
,
00002000
00000000
00000000
00000000
00003000
00000000
00000000
00000000
00010000
00000000
00001000
00010000
00001000
00000000
00011000
00000000
,
00000000
00010000
00001000
01000000
00010000
00000000
10010000
00000000
,
00010000
10000000
01000000
00010000
00001000
00100000
00010000
01000000
,
00100000
00010000
00001000
00000100
00000001
00000000
00001001
00000000
,
00001000
00000100
00000001
00001000
00000010
00000001
00000100
00000010
,
00000100
00001000
00010000
00100000
00000000
00100000
10000000
00000000
,
00010000
01000000
00001000
00100000
00010000
01000000
00100000
00000000
,
10000000
00100000
00010000
00001000
00000100
00000001
00001000
00000000
,
00000100
00000001
00000100
00000010
00000100
00010000
00001000
00010000
,
00000000
00010000
00100000
10000000
00000000
10000000
10010000
00000000
,
00010000
00100000
01000000
00100000
10000000
00100000
01000000
00100000
,
00001000
00010000
00001000
00000100
00000010
00000100
00000001
00000100
,
00000010
00000000
00000110
00000000
00000001
00000100
00001000
00010000
,
00000000
00011000
00000000
00001000
01000000
00010000
00100000
00000000
,
00010000
10000000
10100000
00000000
10000000
00010000
00110000
00000000
,
00100000
00001000
00010000
00000100
00001000
00000010
00001010
00000000
,
00001000
00000001
00000100
00000101
00000000
00000001
00001000
00000100
,
00010000
00002000
00203000
00320000
,
01030000
00000000
00000000
00010000
01010000
00000000
00000000
10100000
,
00000000
10100000
00000000
10000000
11000000
00000000
00000000
00000000
,
10010000
00000000
00000000
00010000
00110000
00000000
00000000
00101000
,
00000000
00101000
00000000
00001000
00011000
00000000
00011000
00000000
,
00020000
00000000
00030000
00000000
00010000
00001000
00000010
00000001
,
00000000
00001001
00000000
00001000
00000010
00000100
00001000
00000100
,
00000010
00001000
00000100
00010000
00010000
00001000
00000000
00011000
,
00000000
00001000
00010000
01000000
00100000
00001000
00010000
00000000
,
01000000
00000000
10000000
00100000
10000000
00000000
01000000
00000000
00100000
00000000
00001000
00010000
00001000
00000000
00010000
00000000
,
00000010
00000000
00001000
00000100
00001000
00000000
00000010
00000000
00000100
00000000
00000000
00000000
00000110
00000000
00000000
00000000
,
00000100
00000000
00000001
00000010
00000001
00000000
00000100
00000000
00000010
00000000
00010000
00001000
00010000
00000000
00001000
00000000
,
00100000
00000000
00010000
01000000
00010000
00000000
00100000
00000000
01000000
00000000
00000000
00000000
01100000
00000000
00000000
00000000
,
10000000
00010000
00100000
01000000
10000000
00100000
01000000
00010000
,
00100000
00001000
00010000
00000010
00001000
00000100
00000010
00000000
,
00000001
00000000
00001000
00000000
00000100
00001000
00000000
00001000
00000000
00000100
00000000
00000100
00010000
00000000
00001000
00000000
,
00000000
00001000
00010000
01000000
20000000
00000000
30000000
00000000
,
10000000
00000000
00100000
00000000
01000000
00000000
00010000
00000000
00000000
00000000
00100000
00000000
00001000
00010000
00001000
00000000
,
00010000
00001000
00000010
00000100
00000000
00000100
00000010
00000001
,
00000100
00000010
00000100
00000010
00010000
00001000
00010000
00001000
,
01000000
00000000
00100000
01000000
00100000
00000000
10000000
00000000
00010000
00000000
00000000
00000000
10010000
00000000
00000000
00000000
,
10000000
00000000
00100000
01000000
00000000
00100000
01000000
00000000
00010000
00000000
00100000
00000000
01000000
00000000
00100000
00000000
,
00001000
00000000
00010000
00001000
00000000
00010000
00001000
00000000
00000010
00000000
00000001
00000000
00001000
00000000
00000100
00000000
,
00000020
00000032
00000203
00002300
,
00003100
00000010
00010000
00000000
00001000
01000000
00100000
10000000
,
00000000
00000000
00000000
10000000
00000000
00000000
00010000
00000000
00000000
00100000
00000000
00000000
01000000
00000000
00000000
00010000
00000000
00000000
00001000
00000000
00010000
00000000
00001000
00000000
,
00010000
00000000
00001000
00000000
00000010
00000000
00000001
00000000
00000011
00000000
00000000
00000000
00000000
00000001
00001000
00000001
,
00001000
00000000
00000010
00000000
00000110
00000000
00000100
00000000
00000001
00000000
00000000
00000001
00000100
00000000
00001000
00000000
,
00010000
00000000
00001000
00100000
00000000
00001000
00100000
00000000
00010000
00000000
01000000
00000000
00100000
00000000
10000000
00000000
,
01000000
00000000
00000000
01100000
00000000
00000000
00100000
00000000
00001000
00000000
00000000
00011000
00000000
00000000
00010000
00000000
,
00000010
00000000
00000000
00001010
00000000
00000000
00001000
00000000
00000001
00000000
00000000
00000101
00000000
00000000
00000100
00000000
,
00000010
00000000
00001000
00000100
00000000
00000100
00010000
00000000
00010000
00001000
00000000
00001000
01000000
00000000
00000000
00000000
,
00010000
10000000
00100000
01000000
00010000
10000000
02000000
00000000
,
03100000
00000000
00001000
00010000
00001000
00000000
00010000
00000000
00000010
00000000
00001000
00000000
00000100
00000000
00001000
00000000
,
00000010
00000110
00000101
00001001
,
00000001
00000100
00001000
00010000
00100000
10000000
00010000
00000000
,
10010000
00110000
00101000
00011000
,
00010000
00000000
00001100
00000000
00000000
00000000
00000010
00000000
00000101
00000000
00000001
00001000
,
00000000
00000000
00000001
00000000
00000000
00000000
00000001
00000000
00000100
00000000
00000010
00000000
00001000
00000000
00000000
00000000
00001000
00000000
00000100
00000000
00000000
00010000
00000000
00000000
,
00001000
00010000
00000000
00001000
00000000
00000000
00000000
00000000
00010000
00001000
00000000
01000000
00000000
00000000
00010000
00100000
,
00000000
00000000
00010000
00000000
10000000
00000000
01000000
00000000
00100000
00000000
00000000
00011000
00000000
00000000
00010000
00000000
,
00001000
00000010
00000000
00000001
00000000
00000001
00000000
00000000
00002002
00000000
00000000
00000000
00000000
00000000
00000000
00000000
,
00000000
00000000
00000000
00000000
,
00003003
00000000
00000001
00000000
00000100
00001000
00000000
00010000
,
00000000
00010000
00001000
00000000
00000000
00000000
00000000
00000000
,
00000000
00000000
00000000
00000000
;

//---------------dance-single - ----------------
#NOTEDATA:;
#CHARTNAME:;
#STEPSTYPE:dance-single;
#DESCRIPTION:;
#CHARTSTYLE:;
#DIFFICULTY:Challenge;
#METER:17;
#RADARVALUES:0.965687,1.039886,0.496133,0.354381,0.890381,763.000000,707.000000,56.000000,40.000000,0.000000,0.000000,0.000000,0.000000,0.000000,0.965687,1.039886,0.496133,0.354381,0.890381,763.000000,707.000000,56.000000,40.000000,0.000000,0.000000,0.000000,0.000000,0.000000;
#CREDIT:;
#DISPLAYBPM:172.000000;
#NOTES:
// measure 0
0000
0000
0000
0000
,  // measure 1
0000
0000
0000
0000
,  // measure 2
0000
0000
0000
0000
,  // measure 3
0001
0000
0010
0000
1000
0000
0100
0000
0000
0000
0010
0001
0010
0000
0100
1000
,  // measure 4
0001
0000
0010
0000
0100
0000
1000
0000
0000
0000
0010
1000
0001
0000
0100
0000
,  // measure 5
0001
0000
0010
0000
1000
0000
0010
0000
0001
0000
0100
0010
1000
0000
0001
0000
,  // measure 6
0010
0001
0100
1000
0010
0100
0010
1000
,  // measure 7
0001
0000
0000
0000
0000
0000
0010
0000
0000
0100
0000
0000
0000
0000
0000
0100
0000
0000
1000
0000
0000
0000
0000
0000
0010
0000
0000
0000
0000
0000
0100
0000
0000
0000
0000
0000
0001
0000
1000
0000
0001
0000
1000
0000
0000
0000
0000
0000
,  // measure 8
0010
0000
0000
0000
0000
0000
0100
0000
0000
0001
0000
0000
0000
0000
0000
0001
0000
0000
1000
0000
0000
0000
0000
0000
0100
0000
0000
0000
0000
0000
1000
0000
0010
0000
1000
0000
0010
0000
0000
0000
0000
0000
0100
0000
0000
0000
0000
0000
,  // measure 9
0001
0000
0000
0000
0000
0000
0010
0000
0000
0001
0000
0000
0000
0000
0000
0001
0000
0000
1000
0000
0000
0000
0000
0000
0010
0000
0000
0000
0000
0000
0100
0000
0001
0000
0100
0000
0001
0000
0000
0000
0000
0000
1000
0000
0000
0001
0000
0000
,  // measure 10
0010
0000
0100
0000
1000
0000
0010
0100
0010
0000
1000
0001
0100
0000
0001
0100
,  // measure 11
0010
0000
1000
0001
1000
0000
0100
0000
0010
0000
0001
1000
0001
0000
0100
0010
,  // measure 12
0100
0101
1100
0101
,  // measure 13
1100
0000
0001
0010
0100
0000
1000
0000
0001
0000
1000
0010
0100
0000
0001
0000
,  // measure 14
0010
0000
0000
0011
0000
0000
1010
0000
0001
1000
0010
0100
,  // measure 15
0001
0000
0000
1001
0000
0000
0010
1000
0100
0000
0000
1100
0000
0000
0011
0000
,  // measure 16
0000
0000
1000
0000
1000
0000
1000
0000
0001
0000
0010
0100
0000
0010
0100
0000
,  // measure 17
1000
0010
0100
0010
1000
0100
0010
0100
1000
0010
0100
0010
1000
0000
0101
0000
,  // measure 18
0000
0002
0023
0230
2300
3020
0230
0302
,  // measure 19
1003
0000
0001
0000
0010
0000
0100
0010
0001
0000
2000
0000
3010
0000
0100
0000
,  // measure 20
0001
0000
1000
0100
0010
0000
0010
0000
0001
0000
0100
0000
0001
0000
1000
0000
,  // measure 21
0010
1000
0100
0000
0010
0000
0001
0000
0100
0000
0010
0000
1000
0001
1000
0001
,  // measure 22
0020
0000
0230
0000
2300
0000
3002
0000
0103
0000
0001
1000
0001
0000
0010
0000
,  // measure 23
0100
0000
1000
0000
0010
0000
1000
0001
0100
0000
0020
0000
0130
0000
0001
0000
,  // measure 24
0010
0000
0001
1000
0200
0000
0320
0000
0032
0000
0203
0000
0302
0000
2003
0000
,  // measure 25
3001
1000
0100
0000
0010
0000
0001
0100
0002
0000
2003
0000
3200
0000
0320
0000
,  // measure 26
0031
0100
0001
0000
1010
0000
0101
0000
0000
0010
0200
0000
0302
0000
1003
0100
,  // measure 27
0010
0000
0001
0000
0100
0000
0001
0000
1000
0000
0010
0000
1000
0100
0001
0000
,  // measure 28
0010
0000
0100
0010
0001
0000
1000
0000
0010
0000
1000
0000
1000
0000
0002
0000
,  // measure 29
0013
0001
0100
0001
1000
0100
0001
1000
,  // measure 30
0010
0000
1000
0000
0100
0000
0010
0000
0001
0100
0001
0000
1000
0000
0020
0000
,  // measure 31
0000
0000
0000
0130
0001
0100
0001
0000
0000
1000
0000
0000
0010
0000
0000
0000
1000
0000
0100
0000
0010
0000
0001
0000
,  // measure 32
0100
0000
0000
0001
1000
0001
1000
0000
0000
0010
0000
0000
0100
0000
0000
0002
0000
0000
1003
0000
0000
1001
0000
0000
,  // measure 33
0011
0110
1100
1010
0000
0101
1001
1100
,  // measure 34
0110
0002
2003
3002
,  // measure 35
0203
0000
0300
0110
0110
0010
1000
0001
,  // measure 36
0000
0011
0000
1100
1100
0000
0001
0000
,  // measure 37
0100
0000
0001
0010
0010
0000
0100
1000
,  // measure 38
0010
1000
0001
1000
1000
0100
0001
0000
,  // measure 39
0020
0000
0030
1001
1001
0100
0010
1010
,  // measure 40
0000
0011
0000
0101
0101
0200
0320
2030
,  // measure 41
3001
0100
0100
0010
0100
0100
0000
0110
,  // measure 42
0000
1001
1000
0100
0001
0010
0001
0100
,  // measure 43
0010
0000
1000
0100
1000
0000
0001
0100
0001
0000
0010
0100
0010
0000
0001
0000
,  // measure 44
0100
1000
0100
0001
0100
0010
1001
0000
,  // measure 45
0100
0000
0010
1000
0010
0000
0100
0001
0100
0000
0001
1000
0001
0000
0010
0000
,  // measure 46
1000
0010
0100
0010
0001
0100
1010
0000
,  // measure 47
0100
0000
0001
0010
0001
0000
0100
0010
0100
0000
0010
1000
0001
0000
1000
0100
,  // measure 48
1000
0000
0010
0100
0010
0000
1000
0001
0100
0000
0010
0000
0010
0000
0010
0000
,  // measure 49
1000
0100
0010
0001
1000
0010
0100
0001
1000
0100
0010
0001
1000
0010
0100
0001
,  // measure 50
0000
0002
2003
3020
0230
0300
1001
0000
,  // measure 51
0100
0001
0100
0000
0010
0000
1000
0000
0000
0000
0100
1000
0001
0100
0010
1000
,  // measure 52
0100
0000
0010
0000
0001
0000
1000
0000
0000
0000
0010
0000
0010
0000
1000
0100
,  // measure 53
0001
0000
0000
0000
0000
0000
0010
0000
0000
0000
0000
0000
0100
0000
0000
0000
0000
0000
1000
0000
0001
0000
1000
0000
0001
0000
0000
0000
0000
0000
0100
0000
0000
0000
0000
0000
0010
0000
0000
0000
0000
0000
1000
0000
0000
0100
0000
0000
,  // measure 54
0010
0000
0000
0000
0000
0000
0001
0000
0100
0000
0001
0000
0100
0000
0000
0000
0000
0000
0010
0000
0000
0000
0000
0000
1000
0000
0000
0000
0000
0000
0100
0000
0000
0010
0000
0000
0100
0000
0000
0000
0000
0000
1000
0000
0000
0001
0000
0000
,  // measure 55
0100
0000
0000
0000
0000
0000
0010
0000
0000
1000
0000
0000
0000
0000
0000
0100
0000
0000
0001
0000
0000
0000
0000
0000
0010
0000
0000
0000
0000
0000
0100
0000
0000
0000
0000
0000
0010
0000
0001
0000
0010
0000
0001
0000
0000
0000
0000
0000
,  // measure 56
1000
0000
0000
0000
0000
0000
0010
0000
0000
0100
0000
0000
0000
0000
0000
0001
0000
0000
1000
0000
0000
0000
0000
0000
0100
0000
0000
0000
0000
0000
1000
0000
0001
0000
1000
0000
0001
0000
0000
0000
0000
0000
0010
0000
0000
0000
0000
0000
,  // measure 57
0001
0100
1000
0001
0010
1000
0001
0100
1000
0001
0010
1000
,  // measure 58
0100
0000
1000
0010
0100
0010
0100
0001
0100
0010
0100
1000
0100
0001
0100
0010
,  // measure 59
1000
0000
0000
1100
0000
0000
0011
0000
0000
1000
0100
1000
0100
0000
0000
0010
0000
0000
0001
0000
1000
0000
0100
0000
,  // measure 60
0010
0000
0001
0000
0100
0000
1000
0000
0001
0000
0010
0100
0000
0010
0001
0100
,  // measure 61
1000
0000
0000
0000
0000
0000
0001
0000
0000
0000
0000
0000
1000
0000
0000
0010
0000
0000
0100
0000
0000
0000
0000
0000
0001
0000
0000
0000
0000
0000
1000
0000
0010
0000
1000
0000
0010
0000
0000
0000
0000
0000
0100
0000
0000
0000
0000
0000
,  // measure 62
0001
0000
0010
0001
0000
0100
1000
0000
0010
0000
0100
0010
1000
0000
0001
0000
,  // measure 63
0010
0000
0001
1000
0000
0001
0100
0000
0010
0000
1000
0100
0000
0010
0001
0000
,  // measure 64
0100
0000
0001
1000
0000
0100
0010
0000
0100
0000
1000
0010
0000
0100
0001
1000
,  // measure 65
0100
0000
0010
0001
0000
0010
0001
0000
0010
0001
0000
1000
0001
0100
0010
1000
,  // measure 66
0100
0000
0000
0000
0000
0000
0010
0000
0000
0000
0000
0000
0100
0000
0000
0000
0000
0000
1000
0000
0001
0000
1000
0000
0001
0000
0000
0000
0000
0000
0100
0000
0000
0001
0000
0000
0010
0000
0000
0000
0000
0000
0100
0000
0000
1000
0000
0000
,  // measure 67
0001
0000
0100
0010
0100
0000
0010
0000
0100
0000
0001
1000
0001
0000
0100
0000
,  // measure 68
0100
0000
0000
0001
0100
0010
1000
0100
0010
0100
1000
0001
,  // measure 69
0100
0000
0010
1000
0010
0000
0100
0000
0001
0000
1000
0100
1000
0000
0001
0000
,  // measure 70
0001
0000
0000
1001
0000
0000
1010
0000
1000
0100
0010
0001
,  // measure 71
0100
0000
0101
0000
0010
1000
0100
0000
1100
0000
1000
0001
,  // measure 72
0000
0110
0000
0100
0001
0010
0100
1000
0001
1000
0010
0100
,  // measure 73
0000
0101
0000
1100
0000
0001
0010
0100
1000
0001
0000
1001
0000
0100
0010
0000
,  // measure 74
0000
0000
1010
0000
0101
0000
0001
0010
0001
1000
0100
0010
0000
0010
0001
0000
,  // measure 75
1000
0001
1000
0100
0000
0011
0000
0000
1000
0010
0001
0100
0001
0010
1000
0001
,  // measure 76
1000
0001
0010
0100
0010
0001
0100
0010
1000
0100
0001
0010
0001
0100
1000
0010
,  // measure 77
0000
0000
0110
0001
1010
0101
0010
1100
,  // measure 78
0000
1001
0110
0000
0000
0000
0000
0000
;
