#TITLE:WONDA (SPEED K MIX);
#SUBTITLE:;
#ARTIST:MM;
#TITLETRANSLIT:;
#SUBTITLETRANSLIT:;
#ARTISTTRANSLIT:;
#GENRE:;
#CREDIT:;
#MUSIC:WONDA (SPEED K MIX).ogg;
#BANNER:WONDA (SPEED K MIX).png;
#BACKGROUND:WONDA (SPEED K MIX)-bg.png;
#CDTITLE:;
#SAMPLESTART:67.058;
#SAMPLELENGTH:20.000;
#SELECTABLE:YES;
#OFFSET:0.000;
#BPMS:0.000=170.003;
#STOPS:;
#DISPLAYBPM:170.000;
#JACKET:WONDA (SPEED K MIX)-jacket.png;
#BGCHANGES:;
#FGCHANGES:;

//--------------- dance-single - ----------------
#NOTES:
     dance-single:
     :
     Beginner:
     3:
     0,0,0,0,0:
0000
0000
0000
0000
,
0000
0000
0000
0000
,
0000
0000
0000
0000
,
0000
0000
0000
0000
,
0000
0000
0000
0000
,
1001
0000
0010
0000
,
0100
0000
0010
0000
,
1000
0000
0100
0000
,
1000
0000
0001
0000
,
1001
0000
0010
0000
,
1000
0000
0100
0000
,
1000
0000
0001
0000
,
0200
0000
0300
0000
,
0010
0000
1000
0000
,
0001
0000
0000
0010
,
0000
0001
0000
0100
,
0000
0000
0010
0010
,
0010
0010
0000
0000
,
0000
0000
1000
1000
,
1000
1000
0000
0000
,
0000
0000
0001
0000
,
0010
0000
0100
0000
,
0000
1000
0000
0001
,
0000
0100
0000
0000
,
0010
0000
0100
0000
,
0001
0000
0000
1000
,
0000
0100
0000
0001
,
0000
0000
0010
0000
,
0001
0000
0100
0000
,
1000
0000
0010
0000
,
0000
0000
1000
0000
,
0000
0000
0001
0000
,
0010
0000
0100
0000
,
1000
0000
0001
0000
,
0000
0000
0100
0000
,
0000
0000
0010
0000
,
1000
0000
0001
0000
,
0100
0000
0110
0000
,
0000
1000
0000
0000
,
0001
0000
1001
0000
,
0001
0000
0100
0000
,
0001
0001
0001
0000
,
1000
0000
0001
0000
,
0100
0100
0100
0000
,
0000
0000
0010
0000
,
1000
1000
1000
0000
,
0001
0000
1000
1000
,
1000
1000
1000
0000
,
0010
0000
0100
0000
,
0000
0001
0000
0010
,
0000
1000
0000
0000
,
0001
0001
0001
0001
,
0000
0000
0000
0000
,
0100
0100
0100
0100
,
0000
0000
0000
0000
,
0010
0000
1000
0000
,
0100
0000
0000
0010
,
0000
0001
0000
1000
,
0000
0000
0001
0000
,
1000
0000
0010
0000
,
0000
1000
0000
0100
,
0000
0010
0000
0000
,
0001
0000
0000
0000
,
1000
0000
0000
0010
,
0000
1000
0000
0200
,
0000
0000
0300
0000
;

//--------------- dance-single - ----------------
#NOTES:
     dance-single:
     :
     Easy:
     7:
     0,0,0,0,0:
0000
0000
0000
0000
,
0000
0000
0000
0000
,
0000
0000
0000
0000
,
0000
0000
0000
0000
,
0000
0000
0000
0000
,
0100
0001
0100
1000
,
0100
0010
0100
0001
,
0100
1000
0100
0001
,
0100
0010
0100
1000
,
0100
0001
0100
1000
,
0100
0010
0100
0001
,
0010
0010
0100
0100
,
1000
0000
0001
0000
,
0010
0010
0100
0100
,
0001
1000
0100
0010
,
0001
0100
1000
0100
,
0010
0001
0100
1000
,
0100
0001
0100
1000
,
0100
1000
0100
0001
,
0100
1000
0100
0001
,
0100
0001
0010
0010
,
0100
0100
0001
1000
,
0100
0010
0001
0100
,
1000
0100
0010
0001
,
0100
0100
0010
0010
,
1000
0001
0010
0100
,
1000
0010
0001
0010
,
0100
1000
0001
0001
,
0010
0100
1000
1000
,
0100
0010
0001
0100
,
1000
0100
0001
0010
,
1000
0100
0001
0001
,
0010
0100
1000
1000
,
0100
0010
0001
0100
,
1000
0100
0001
0010
,
1000
0100
0001
0001
,
0010
0100
1000
1000
,
0100
0010
0001
0001
,
0100
1000
1000
0100
,
0001
0100
1000
1000
,
1000
0010
0001
0001
,
1000
0100
0001
0001
,
0001
0010
1000
1000
,
0001
0100
1000
1000
,
1000
0010
0001
0001
,
1000
0100
0010
0000
,
0100
0000
0001
0001
,
1000
1000
0010
0010
,
0100
0100
0001
1000
,
0100
0010
0001
0100
,
1000
0100
0010
0001
,
0100
1000
0100
0001
,
0100
1000
0100
1000
,
0100
0001
0100
1000
,
0100
0001
0100
0001
,
0010
0010
0100
0100
,
0001
1000
0100
0010
,
0001
0100
1000
0100
,
0010
0001
0010
0010
,
0100
0100
0001
1000
,
0100
0010
0001
0100
,
1000
0100
0010
0001
,
0010
0010
0100
0100
,
0001
1000
0100
0010
,
0001
0100
1000
1000
;

//--------------- dance-single - ----------------
#NOTES:
     dance-single:
     :
     Medium:
     8:
     0,0,0,0,0:
0000
0000
0000
0000
,
0000
0000
0000
0000
,
0000
0000
0000
0000
,
0000
0000
0000
0000
,
0000
0000
0000
0000
,
0010
1000
0010
0100
,
0010
0001
0100
1010
,
0001
0101
1000
1010
,
0100
0001
0010
1100
,
0010
0001
0010
0100
,
0010
1000
0100
0011
,
1000
0100
0001
0000
0010
0000
0010
0000
,
1000
0000
0001
0000
,
0100
1000
0001
0100
,
0010
0100
0001
1000
0100
0000
0010
0000
,
1000
0001
0100
1100
,
0101
0000
1000
0001
0100
0000
1000
0000
,
0100
0000
0001
0000
0010
0100
1000
0000
,
0010
0100
1000
0100
,
0001
0000
0100
0000
0010
1000
0100
0000
,
0001
0010
0100
1000
,
0001
0000
0100
0000
0010
0100
0001
1000
,
0100
0010
1000
0001
,
0100
1100
0101
1000
,
0100
0001
1000
0100
,
0010
0100
1000
0001
0100
0000
0010
0000
,
0001
1000
0100
0101
,
1100
0000
0001
0000
1000
0100
0001
0000
,
1000
0011
1000
0100
,
0010
0000
0001
0000
1000
0001
0100
0000
,
0010
0000
0100
0000
0010
0100
0001
0000
,
0010
0000
0100
0000
0010
1000
0001
0000
,
0101
1000
0010
0001
,
1100
0000
0001
0000
0010
1000
0010
0000
,
0101
0000
0010
0000
0001
0100
1000
0000
,
0010
0000
1001
0000
0010
0001
0100
0000
,
0010
1000
0100
0011
,
1000
0000
0100
0000
0010
0000
0000
0001
,
0000
1000
0000
0100
,
0010
0010
0100
1000
,
0001
0100
0010
1000
,
1000
0010
0001
0010
1000
0000
0001
0000
,
0101
1000
1100
0010
,
0001
0010
0100
1000
0010
0000
1001
0000
,
0010
0001
0110
1000
,
0010
0001
0010
0000
,
0100
0000
0010
1000
,
0010
1000
0100
0000
0010
0000
0101
0000
,
0010
0000
0100
0000
1000
0100
0010
0001
,
0100
1010
0001
0010
,
0100
0000
1001
0000
1100
0000
0001
0100
,
0010
0101
1000
0011
,
1000
0001
0010
0000
0100
0000
1000
0000
,
0011
1001
0010
0100
,
0001
0100
0010
0000
0001
0000
0010
0000
,
0010
1100
0010
0100
,
0001
0100
0010
1000
0100
0000
0011
0000
,
1000
0010
0100
1001
,
0101
1000
0010
0101
,
0010
0000
0100
0000
1000
0100
0010
0001
,
0100
1010
0001
0010
,
0100
1001
1100
0001
,
0010
1000
0100
0001
,
1000
0100
0001
0100
1000
0000
0010
0000
,
1001
0010
0100
0010
;

//--------------- dance-single - ----------------
#NOTES:
     dance-single:
     :
     Hard:
     13:
     0,0,0,0,0:
0000
0000
0000
0000
,
0000
0000
0000
0000
,
0000
0000
0000
0000
,
0000
0000
0000
0000
,
0000
0000
0000
0000
,
1000
0100
0010
1000
0001
0100
0010
0001
,
1000
0100
0010
1000
0001
0100
0010
0001
,
1000
0100
0010
1000
0001
0100
0010
0001
,
1000
0100
0010
1000
0001
0100
0010
0001
,
1000
0100
0010
1000
0001
0100
0010
0001
,
1000
0100
0010
1000
0001
0100
0010
0001
,
0010
0010
1000
1000
0100
0100
0001
0001
,
0001
0000
1000
0000
,
0010
1000
0010
0100
0001
0100
0010
0000
,
1000
0001
0010
0100
1000
0000
0010
0001
,
0010
0100
1000
0100
0010
0000
0001
1000
,
0010
0100
0001
0000
1001
0000
1100
0000
,
0010
0001
0100
0000
0110
0000
0101
0000
,
1000
0100
0001
0000
1001
0000
1100
0000
,
0010
1000
0100
0000
0110
0000
1001
0000
,
0010
0100
0001
0000
0010
1000
0010
0100
,
0001
0100
0010
0000
1000
0001
0010
0100
,
1000
0000
0010
0001
0010
0100
1000
0100
,
0010
0000
0001
1000
0010
0100
0001
0000
,
0010
0001
0010
0100
1000
0100
0010
0000
,
0001
1000
0010
0100
0001
0000
0010
1000
,
0010
0100
0001
0100
0010
0000
1000
0001
,
0010
0100
1000
0000
0011
0000
0101
0000
,
0010
1000
0001
0000
1000
0100
0001
0000
,
0110
0000
1000
0000
0010
1000
0001
0100
,
0010
1000
0100
0000
0100
0010
1000
0000
,
0010
0100
1000
0000
0011
0000
1100
0000
,
0010
1000
0100
0000
1000
0010
0001
0000
,
0110
0000
0001
0000
0010
1000
0001
0010
,
1000
0001
0100
0000
0100
0010
0001
0000
,
0010
0100
1000
0000
1001
0000
0101
0000
,
0010
1000
0100
0000
0010
0001
0010
0000
,
1000
0000
0100
0000
0001
0001
0000
1000
,
1000
0000
0010
0010
0000
0000
0100
0100
,
0010
1000
0100
0000
0110
1000
0100
0000
,
0010
0000
0001
0000
0010
1000
0010
0001
,
0010
1000
0010
0000
0101
1000
0100
0000
,
0010
0000
0100
0000
0010
0100
1000
0010
,
0100
1000
0100
0000
1001
0100
0010
0000
,
1000
0000
0001
0000
1000
0100
0001
0100
,
1000
0100
0001
0000
0010
0100
0010
0000
,
1000
0100
1000
0000
0001
0100
1000
0100
,
0001
0100
1000
0000
0010
0100
1000
0001
,
0100
0010
1001
0000
0010
1000
0010
0100
,
0001
0000
0010
0100
0001
1000
0100
0010
,
1001
0000
0010
0001
0010
0100
1000
0000
,
0011
0000
0101
0000
1000
0001
0100
0000
,
1001
0000
0100
0000
0010
0001
0100
0000
,
0110
0000
1001
0000
0010
1000
0001
0000
,
0110
0000
0001
0000
1000
0100
0001
0000
,
0010
0100
1000
0010
0100
1000
0110
0000
,
1000
0010
0001
0010
1000
0000
0010
0100
,
0001
0010
0100
0001
0110
0000
0001
0010
,
1000
0010
0001
0000
1000
0100
0010
0100
,
1000
0001
0100
0000
1000
0100
0001
0010
,
1000
0000
0001
0100
0010
0100
0001
1000
,
0100
0000
0001
0100
1000
0010
0001
0000
,
0010
1000
0001
0100
1000
0100
0001
0000
,
0010
0100
1000
0001
0100
0000
0010
1000
,
0100
0010
0100
1000
0001
0100
0010
0000
;

//--------------- dance-single - ----------------
#NOTES:
     dance-single:
     :
     Challenge:
     16:
     0,0,0,0,0:
0000
0000
0000
0000
,
0000
0000
0000
0000
,
0000
0000
0000
0000
,
0000
0000
0000
0000
,
0000
0000
0000
0000
,
1001
0010
1000
0100
0001
0100
0010
0100
,
0001
0100
1000
0010
0100
1000
0100
0001
,
0100
1000
0100
0010
0001
0010
1000
0001
,
0010
0000
1000
0000
0010
0000
0001
0000
0100
0010
1000
0010
0100
0001
1000
0000
,
0100
0010
1000
0010
0100
0001
0100
1000
,
0001
0100
0010
0001
0010
1000
0010
0100
,
0001
0000
0010
0000
1000
0000
0010
0000
0100
0010
0001
1000
0010
0100
0001
1000
,
0020
0000
0000
0000
0000
0000
0000
0000
1030
0100
0000
0000
0110
0000
0000
0000
,
1001
0100
0001
0010
1000
0001
0010
0100
,
0001
0000
0100
0000
1000
0000
0010
0000
0100
0001
1000
0000
0010
0000
0001
0000
,
0010
1000
0100
0010
0001
1000
0010
1000
,
0100
0000
0001
0000
0100
1000
0010
0000
0100
0000
0001
0000
1000
0000
0100
0000
,
0010
0001
0100
0000
0001
0010
0100
1000
0010
0000
0100
0000
0010
1000
0001
0000
,
0010
0000
0100
0010
0001
0000
1000
0001
0010
0000
0100
0000
0001
0000
0100
0000
,
1000
0001
0100
0000
0010
1000
0001
0100
0010
0000
1000
0000
0100
0000
1000
0001
,
0010
0000
1100
0000
0101
0000
0010
0100
1000
0000
0010
0000
0001
0000
0100
0000
,
0010
0000
0001
0000
0010
0000
1000
0000
0100
0000
0001
0000
0100
0000
1000
0010
,
0100
0001
0010
0000
1000
0000
0010
0000
0100
0000
0010
0000
0001
0000
1000
0000
,
0100
0000
0001
0000
0100
0000
0010
0000
0001
0000
0100
0000
0010
1000
0001
1000
,
0100
0010
0001
0100
1000
0100
0010
1000
,
0001
0000
0010
0000
0100
0000
1000
0010
1000
0001
0100
0000
0010
0000
1000
0000
,
0100
0010
1000
0010
0001
0100
1000
0100
,
0010
1000
0010
0100
0001
0010
0100
1000
0001
0000
0100
0000
0010
0000
1000
0100
,
1000
0000
0001
0000
0100
0000
0010
0000
1000
0000
0100
0000
0010
0000
0001
1000
,
0001
0000
0100
0000
0010
0000
1000
0000
0100
0000
0010
0000
0001
0000
0100
1000
,
0100
0000
0001
0000
1000
0001
0010
0100
0010
0001
0010
0001
1000
0010
1000
0010
,
0100
0001
0100
0001
1000
0100
1000
0100
0010
0000
0100
0000
0001
0000
0100
1000
,
0100
0000
0010
0000
0001
0000
1000
0000
0100
0000
1000
0000
0001
0000
0010
0100
,
0010
0000
0001
0000
1000
0000
0010
0000
0100
0000
0001
0000
0010
0100
0010
0100
,
1000
0001
1000
0001
0100
0010
1000
0001
0010
0001
0010
0001
0100
0001
0100
0001
,
1000
0010
1000
0010
1000
0100
1000
0100
0010
0000
0001
0000
0100
0000
0010
1000
,
0001
0000
0100
0000
1000
0000
0100
0000
0010
0000
1000
0000
0001
0000
0010
0100
,
1000
0000
0001
0000
0100
0010
1000
0001
0200
0000
0010
0000
0310
0000
1000
0001
,
0100
0000
0010
0000
1000
0001
0100
0001
1000
0000
0010
0000
0100
0000
0001
0000
,
0010
0100
1000
0000
0001
0100
0010
0000
1010
0000
0000
0000
0101
0000
0010
1000
,
0001
0000
0100
0000
1000
0000
0100
0000
0010
0000
0100
0000
0001
0000
0010
0100
,
1000
0001
0100
0000
0110
0000
0001
0100
,
1000
0000
0100
0000
0001
0000
0100
0000
0010
1000
0100
0000
0001
0000
0100
1000
,
0010
0000
0100
0000
0001
0000
1000
0000
1100
0000
0000
0000
0010
0000
0001
0100
,
0001
0000
1000
0000
0010
0000
0100
0000
0001
1000
0100
0000
0010
0000
0001
0100
,
0010
0000
1000
0000
0001
1000
0100
0000
0011
0000
0100
0000
1000
0001
1000
0000
,
1010
0000
0100
0000
0001
1000
0001
0000
1001
0000
0000
0000
0110
0000
0000
0000
,
1010
1010
0101
0101
0011
0100
1000
0010
,
0001
1000
0100
0001
0010
0001
0100
0010
,
1000
0100
0010
0000
0001
0000
0100
0000
1000
0000
0100
0000
0010
0000
1000
0000
,
0100
0000
0001
0000
0100
0000
1000
0000
0001
0000
1000
0000
0010
0100
0001
0000
,
1000
0010
0001
0100
0010
1000
0100
0001
,
0010
0000
0100
0000
0001
0000
0100
0000
1000
0000
0010
0000
0001
0000
1000
0001
,
0100
0010
0100
1000
0100
0001
0010
1000
,
0010
0001
0010
0001
1000
0100
1000
0100
1000
0010
1000
0010
0100
0001
0100
0001
,
1000
0001
0100
0000
0010
0000
1000
0000
0100
0000
0001
0000
0100
0000
0010
0000
,
0001
0000
0100
0000
1000
0000
0010
0100
0010
1000
0001
0000
0100
0000
0010
0000
,
1000
0100
0001
0010
1000
0001
0100
1000
,
0100
0000
0010
0000
1000
0001
0100
0000
0010
0000
0001
0000
0010
0000
1000
0000
,
0100
1000
0001
0010
1000
0100
1000
0010
,
0100
0001
1000
0000
0010
0000
1000
0000
0100
0000
0010
0000
1000
0000
0010
0000
,
0001
0000
1000
0000
0001
0100
0001
0100
0010
1000
0010
1000
0100
0010
0100
0010
,
0001
0000
0100
1010
0000
0100
0011
0000
,
1000
0001
0100
0010
1000
0000
1001
0000
,
0010
0101
0000
1000
0002
0200
0000
0000
,
0000
0000
0303
0000
;

//--------------- dance-double - ----------------
#NOTES:
     dance-double:
     :
     Easy:
     7:
     0,0,0,0,0:
00000000
00000000
00000000
00000000
,
00000000
00000000
00000000
00000000
,
00000000
00000000
00000000
00000000
,
00000000
00000000
00000000
00000000
,
00000000
00000000
00000000
00000000
,
00001000
00000100
00001000
00010000
,
00010100
00011000
01000000
00010000
,
00001000
00000100
00001000
00010000
,
00010100
00011000
01000000
00010000
,
00001000
00000100
00001000
00010000
,
00010100
00011000
01000000
00010000
,
00010100
00011000
01001000
00011000
,
00001000
00000100
00000001
00000000
,
00000010
00000010
00001000
00000100
,
00000010
00000001
00000100
00001000
,
00010000
01000000
10000000
01000000
,
00010000
00001000
00000100
00000001
,
00000010
00000100
00000010
00001000
,
00000100
00000100
00000010
00000001
,
00000100
00000010
00001000
00001000
,
00000100
00000001
00000010
00000010
,
00001000
00000100
00000010
00000001
,
00000100
00001000
00010000
01000000
,
10000000
01000000
00010000
01000000
,
00100000
00100000
00010000
01000000
,
00100000
10000000
01000000
00010000
,
00001000
00000100
00000001
00000100
,
00001000
00010000
01001000
00011000
,
00001000
00000100
00000001
00000100
,
00001000
00010000
01001000
00011000
,
00001000
00000100
00000001
00000100
,
00001000
00010000
00010010
00011000
,
00000100
00001000
00010010
00011000
,
00000100
00001000
00010000
01000000
,
00100000
00010000
01000000
01000000
,
00100000
10000000
01100000
00010000
,
00100000
10000000
01000000
00010000
,
00001000
00000100
00000001
00000001
,
00000010
00000100
00000010
00001000
,
00000100
00000100
00000010
00001001
,
00000100
00000001
00000010
00000100
,
00001000
00010000
00010010
00011000
,
01000000
10000000
00100000
00010000
,
00100000
01000000
00100000
10010000
,
01000000
10000000
00100000
01000000
,
00010000
01000000
00100000
00100000
,
01000000
01000000
10000000
01000000
,
10000000
10000000
01000000
00010000
,
00001000
00000100
00000001
00000001
,
00000001
00000010
00001000
00000010
,
00000100
00000010
00000001
00000100
,
00000010
00000010
00001000
00000010
,
00000100
00000010
00000001
00000100
,
00000010
00000010
00001000
00000100
,
00000001
00000100
00001000
00010000
,
01000000
00010000
00001000
00000100
,
00000001
00000001
00000001
00000010
,
00001000
00000010
00000100
00000010
,
00000001
00000100
00000100
00001000
,
00010000
01000000
10000000
10000000
,
10000000
00100000
00010000
00100000
,
01000000
00100000
10000000
01000000
,
00100000
00100000
01000000
00100000
,
01000000
00010000
00001000
00010010
,
00011000
00001000
00000100
00000001
;

//--------------- dance-double - ----------------
#NOTES:
     dance-double:
     :
     Medium:
     8:
     0,0,0,0,0:
00000000
00000000
00000000
00000000
,
00000000
00000000
00000000
00000000
,
00000000
00000000
00000000
00000000
,
00000000
00000000
00000000
00000000
,
00000000
00000000
00000000
00000000
,
00100000
00010000
01000000
10100000
,
01000000
00000000
00100000
00000000
01000000
00000000
00010000
00001000
,
00000100
00000001
00000010
00001100
,
00000010
00000000
00000001
00000000
00000100
00000000
00001000
00010000
,
01000000
00010000
00001000
00000100
,
00000110
00000000
00000001
00000000
00000010
00000000
00001000
00000010
,
00000001
00001000
00000010
00000010
,
00000001
00000100
00001000
00000000
,
00000101
00001010
00000001
00000100
,
00001000
00010000
01000000
00000000
10000000
00000000
01100000
00000000
,
10000000
00000000
01000000
00000000
00010000
00000000
10000000
01000000
,
00010000
00001000
00010010
00011000
,
00001000
00000100
00000001
00000000
00001010
00000000
00000101
00000000
,
00000100
00001000
00010000
00000000
00101000
00000000
00011000
00000000
,
00010000
01000000
10000000
00000000
00110000
00000000
11000000
00000000
,
00100000
00010000
01000000
00000000
10100000
00000000
00010000
00000000
,
01010000
00000000
10000000
00000000
10000000
01000000
00010000
00000000
,
00001000
00010010
00001010
00000100
,
00000001
00000000
00000010
00000001
00000100
00000000
00001000
00000000
,
00000011
00001000
00001100
00000001
,
00000001
00000100
00001000
00000000
00010000
00000000
00101000
00000000
,
00110000
00000000
01000000
00000000
10000000
00000000
00100000
10000000
,
01000000
00010000
01010000
10010000
,
01000000
00010000
00100000
10000000
,
00100000
00000000
01000000
00000000
00100000
00010000
00001000
00000000
,
01001000
00000000
00011000
00000000
00001000
00000100
00000001
00000000
,
00001010
00000001
00001100
00000001
,
00000100
00001000
00000010
00001001
,
00000100
00000000
00001000
00000000
00010000
01000000
00100000
00000000
,
10010000
00000000
01000000
00000000
00100000
00010000
00001000
00000000
,
01001000
01010000
00100000
10000000
,
01000000
00110000
11000000
00100000
,
00010000
01000000
00100000
10000000
,
01000000
00000000
00010000
00001000
00000100
00000000
00000001
00000000
,
00000010
00001000
00000110
00000001
,
00000010
00000000
00001000
00000000
00000010
00000100
00001000
00000000
,
00010000
01000000
00110000
11000000
,
00010000
00000000
01000000
00000000
00100000
01000000
00010000
00000000
,
00001000
00000100
00000110
00000001
,
00000010
00000000
00001000
00000000
00000010
00000100
00001000
00000000
,
00010000
01000000
11000000
00010000
,
01010000
10000000
00100000
01000000
,
10000000
01000000
00010000
00000000
10000000
00000000
00100000
00000000
,
11000000
00000000
10010000
00000000
00100000
00010000
00001000
00000000
,
00000100
00000110
00000001
00000010
,
00001000
00000000
00000001
00000100
00001000
00000000
00000110
00000000
,
00000001
00000010
00001000
00001100
,
00000011
00001000
00000100
00000001
,
00000100
00001000
00010000
00000000
00010100
00000000
00011000
00000000
,
00010000
01000000
10000000
00000000
00110000
00000000
10000000
00000000
,
01100000
10000000
00100000
00010000
,
10000000
01000000
00010000
00000000
00001000
00000000
01001000
00000000
,
00011000
00000000
00000100
00000000
00000001
00000000
00000010
00000001
,
00001000
00000010
00000110
00000001
,
00000010
00000000
00001000
00000000
00000001
00000100
00001000
00000000
,
00010000
00010100
00011000
01000000
,
10000000
00000000
00100000
10000000
00010000
00000000
00100000
00000000
,
11000000
10010000
01010000
00100000
,
01000000
00010000
00001000
00000000
00000110
00000000
00000001
00000000
,
00000010
00001000
00000100
00000001
;

//--------------- dance-double - ----------------
#NOTES:
     dance-double:
     :
     Hard:
     13:
     0,0,0,0,0:
00000000
00000000
00000000
00000000
,
00000000
00000000
00000000
00000000
,
00000000
00000000
00000000
00000000
,
00000000
00000000
00000000
00000000
,
00000000
00000000
00000000
00000000
,
00010000
00100000
10000000
00100000
00000000
10000000
01000000
00010000
,
00001000
00000100
00000001
00000100
00000000
00000001
00000010
00001000
,
00010000
00100000
10000000
00100000
00000000
10000000
01000000
00010000
,
00001000
00000100
00000001
00000100
00000000
00000001
00000010
00001000
,
00010000
01000000
00100000
00010000
00000000
10000000
01000000
00010000
,
00001000
00000010
00000100
00001000
00000000
00000001
00000010
00001000
,
00010000
01000000
00100000
00010000
10000000
01000000
00100000
10000000
,
00100000
01000000
00010000
00001000
00000100
00000000
00000000
00000000
,
00000101
00000000
00000010
00000001
00000100
00000000
00001010
00000000
,
00000100
00001000
00000010
00000000
00010010
00000000
00011000
00000000
,
00010000
01000000
10000000
00000000
01100000
00000000
00010000
00100000
,
10000000
00000000
01100000
00000000
01000000
10000000
00100000
00010000
,
00100000
00010000
00001000
00000000
00001000
00000100
00000001
00000000
,
00001010
00000000
00000101
00000000
00000001
00000010
00001000
00010000
,
00001000
00000100
00000001
00000000
00000100
00001000
00010000
00000000
,
00101000
00000000
00011000
00000000
00010000
00000000
00100000
00010000
,
00001000
00000000
00001000
00000000
00000010
00001000
00010000
00000000
,
00101000
00000000
00010000
00000000
01000000
00010000
00001000
00000000
,
00001000
00000000
00000100
00001000
00010000
00000000
00010100
00000000
,
00001100
00000000
00000010
00000001
00000100
00000000
00001010
00000000
,
00000100
00001000
00010000
00000000
01000000
00000000
11000000
00000000
,
00100000
10000000
01000000
00000000
00110000
00000000
01000000
00010000
,
00001000
00000000
00000100
00000000
00000010
00001000
00000001
00000010
,
00000100
00001000
00000001
00000100
00001000
00010000
01000000
00100000
,
00010000
01000000
10000000
00000000
10000000
01000000
00010000
00000000
,
10000000
00100000
00010000
00000000
00100000
10000000
01000000
00010000
,
01000000
00010000
00001000
00000000
00000100
00001000
00010000
01000000
,
00010000
00001000
00000010
00001000
00010000
00100000
00010000
00001000
,
00000010
00000001
00000100
00000000
00000010
00000100
00001000
00000000
,
00000010
00000100
00000001
00000000
00000010
00000001
00000100
00001000
,
00010000
00001000
00000100
00000000
00000010
00001000
00000001
00000010
,
00001000
00010000
00001000
00000100
00000001
00001000
00000100
00000010
,
00000001
00001000
00000010
00000000
00001000
00000000
00000100
00000000
,
00000001
00000000
00000010
00000000
00000100
00001000
00010000
00000000
,
00101000
00000000
00011000
00000000
00100000
00010000
00001000
00000000
,
00101000
00000000
00011000
00000000
00010000
01000000
10000000
00000000
,
00110000
00000000
11000000
00000000
01000000
00010000
00001000
00000000
,
00010010
00000000
00011000
00000000
00001000
00000100
00000001
00000000
,
00001010
00000000
00000101
00000000
00000100
00001000
00010000
00000000
,
00010010
00000000
00011000
00000000
00001000
00000010
00000001
00000000
,
00001100
00000101
00001000
00001000
,
00000001
00000001
00000010
00000100
,
00001000
00000100
00000001
00000000
00000010
00000000
00000001
00001000
,
00000100
00000000
00000011
00000000
00000100
00001000
00010000
00000000
,
00101000
00000000
00110000
00000000
01000000
00010000
00100000
00000000
,
11000000
00000000
00010000
00001000
00000100
00000000
00001001
00000000
,
00000010
00000001
00000100
00000010
00001000
00000100
00000010
00001000
,
00010000
00100000
10000000
01000000
00100000
00010000
01000000
00000000
,
10000000
00010000
01000000
00000000
10000000
00010000
00100000
00000000
,
10000000
00100000
00010000
00001000
00000010
00000001
00000100
00000000
,
00000110
00000000
00001000
00010000
01000000
00000000
11000000
00000000
,
00100000
00010000
00001000
00000000
00010100
00000000
00011000
00000000
,
00010000
01000000
10000000
00000000
00110000
00000000
00100000
00001000
,
00010000
00000000
00010010
00000000
00001010
00000000
00000010
00001000
,
00000100
00000000
00010100
00000000
00001000
00010000
01000000
00000000
,
01100000
00000000
00110000
00000000
01000000
00010000
00001000
00000000
,
00101000
00000000
00100000
00010000
01000000
00000000
10010000
00000000
,
10000000
00000000
01000000
00010000
00001000
00000000
00000110
00000000
,
00000100
00000001
00000010
00000000
00001000
00000000
00010000
00000000
,
01000000
00010000
00001000
00000000
00101000
00000000
00110000
00000000
;

//--------------- dance-couple - ----------------
#NOTES:
     dance-couple:
     :
     Medium:
     9:
     0,0,0,0,0:
00000000
00000000
00000000
00000000
,
00000000
00000000
00000000
00000000
,
00000000
00000000
00000000
00000000
,
00000000
00000000
00000000
00000000
,
00000000
00000000
00000000
00000000
,
10001000
01000000
00100000
10000000
00010001
01000000
00100000
00010000
,
10001000
01000000
00100000
10000000
00010001
01000000
00100000
00000000
,
10001000
00000100
00000010
00001000
00010001
00000100
00000010
00000001
,
10001000
00000100
00000010
00001000
00010001
00000100
00000010
00000000
,
01000100
00010001
01000100
10001000
,
01000100
00100010
01000100
00010001
,
00100010
00100010
01000100
01000100
,
10001000
00000000
00010001
00000000
,
00100001
10000000
00010000
01000000
00101000
10000000
00010000
00000000
,
10000001
01000000
00010000
01000000
10001000
00000000
00010010
00001000
,
00000001
00000100
10000010
00001000
00000001
00000000
00011000
00000100
,
00000001
00000100
10001000
00000000
00010001
00100000
01000000
00010000
,
01001000
10000000
01000000
10000000
00100001
01000000
00100000
01000000
,
00011000
01000000
00010000
00000000
00010001
00000010
00000100
00000001
,
10000100
00001000
00000100
00001000
00010010
00000100
00000010
00000100
,
10000001
00000100
00000001
00000000
00100001
10000000
00100000
01000000
,
00011000
01000000
00100000
00000000
10000001
00010000
00100000
01000000
,
10001000
00000000
00100001
00010000
00100000
01000000
10001000
01000000
,
00100000
00000000
00010001
10000000
00100000
01000000
00011000
00000000
,
00010010
00001000
00000010
00000100
10000001
00000100
00000010
00000000
,
00011000
00000001
00000010
00000100
10001000
00000000
00010010
00000001
,
00000010
00000100
10001000
00000100
00000010
00000000
00010001
00001000
,
00000010
00000100
10000001
00000000
10000001
01000000
10000000
00000000
,
00011000
01000000
00010000
00000000
00100001
10000000
00010000
00100000
,
01001000
10000000
00010000
00000000
10000001
01000000
10000000
00100000
,
01001000
00010000
00100000
00000000
10000001
00100000
01000000
00000000
,
00011000
00100000
01000000
00000000
00011000
00000100
00001000
00000000
,
10000001
00000100
00000001
00000000
00010010
00001000
00000001
00000010
,
10000100
00001000
00000001
00000000
00011000
00000100
00001000
00000010
,
10000100
00000001
00000010
00000000
00011000
00000010
00000100
00000000
,
10000001
00000010
00000100
00000000
00100010
00010001
01000100
00000000
,
00100010
00010001
10001000
00000000
00100010
01000100
00010001
00100010
,
01000100
10001000
00100010
00000000
10011001
00000000
00000000
01010101
,
00000000
11001100
00000000
01100110
,
00010001
00000000
10001000
00000000
00011000
00000010
00000100
00001000
,
10000100
00000010
00000001
00000000
10000001
00100000
01000000
10000000
,
01001000
00100000
00010000
00000000
00010010
00001000
00000100
00000010
,
10000100
00001000
00000010
00000000
00100001
10000000
01000000
00100000
,
01001000
10000000
00100000
00000000
00010010
00000001
00001000
00000010
,
10001000
00000100
00000001
00000000
00100001
00010000
10000000
00100000
,
10001000
01000000
00010000
00000000
10001000
00000000
00000000
00000000
,
00010001
00000000
00100010
10011001
,
01000100
00000000
10011001
00000000
00010010
00001000
00000010
00000100
,
10000001
00000100
00010001
00000000
00000001
00000010
10001000
00000010
,
00000001
00000000
00100001
10000000
00100000
01000000
00011000
01000000
,
00010001
00000000
00010000
00100000
10001000
00100000
00010000
00000000
,
00010001
00000010
00000100
00001000
10000100
00000010
00000001
00000000
,
00011000
00000001
00000100
00000010
10000100
00000001
00001000
00000000
,
00010001
00100000
01000000
10000000
01001000
00100000
00010000
00000000
,
10000001
00010000
01000000
00100000
01001000
00010000
10000000
00000000
,
00010010
00000001
00000100
00000000
10000010
00000001
00000010
00001000
,
00010010
00001000
00000100
00001000
10000010
00000000
00011000
00000001
,
00000010
00000100
10001000
00000010
00000100
00000001
00010010
00001000
,
00000010
00000100
10000001
00000000
00100001
00010000
01000000
00000000
,
00101000
00010000
00100000
10000000
00100001
10000000
01000000
10000000
,
00101000
00000000
10000001
00010000
00100000
01000000
10001000
00100000
,
01000000
00010000
00100001
10000000
00100000
01000000
00011000
00000000
,
00010001
00100010
00010001
01000100
00100010
10001000
01000100
10001000
,
00100010
01000100
00010001
00100010
00010001
01000100
00100010
10001000
,
01000100
10001000
00100010
01000100
00010001
00100010
00010001
00000000
;

//--------------- dance-solo - ----------------
#NOTES:
     dance-solo:
     :
     Easy:
     4:
     0,0,0,0,0:
000000
000000
000000
000000
,
000000
000000
000000
000000
,
000000
000000
000000
000000
,
000000
000000
000000
000000
,
000000
000000
000000
000000
,
000100
000010
000001
001000
,
000001
000100
000001
001000
,
000100
010000
100000
001000
,
100000
000100
100000
001000
,
000100
000010
000001
001000
,
000001
000100
000001
001000
,
100000
000100
000001
000001
,
100000
000000
000001
000000
,
010000
000001
001000
000001
,
000100
100000
001000
000010
,
100000
001000
100000
000100
,
000001
001000
000100
100000
,
000100
001000
000100
000001
,
010010
100001
001000
000001
,
001000
000100
001000
100000
,
010010
100001
000010
100000
,
001000
000001
000100
100000
,
001000
010000
000001
001000
,
100000
000100
000001
001000
,
000010
100000
001000
000001
,
000100
100000
001000
010000
,
000001
001000
100000
000100
,
000001
001000
100001
010010
,
000100
100000
000001
000100
,
010001
100000
000100
000001
,
001000
100001
010010
000100
,
100001
001000
100001
010010
,
000100
100000
000001
000100
,
010001
100000
000100
000001
,
001000
100001
010010
000100
,
100001
001000
100000
000100
,
001000
000001
000100
001000
,
100000
010010
100001
001000
,
100001
001000
000001
000100
,
100000
010010
000100
000010
,
000100
010000
000001
100000
,
010010
100001
000100
100000
,
001000
000001
010000
000010
,
100001
010010
000100
100000
,
000001
000100
001000
100000
,
000001
001000
100001
000100
,
010010
100001
000100
000100
,
001000
001000
000010
000100
,
100000
001000
000100
000001
,
000100
010000
000100
000001
,
001000
000100
100000
001000
,
000100
000001
000100
001000
,
000100
100000
010010
100001
,
001000
100000
001000
000100
,
001000
000001
010010
100001
,
000010
100000
000001
000100
,
000001
001000
100000
010000
,
000001
100000
000100
100000
,
001000
000001
000100
010000
,
000010
000100
000001
001000
,
100000
000100
000010
010000
,
000100
100000
001000
000001
,
000100
000010
000001
100000
,
000100
100000
001000
000100
,
010000
100000
000001
000100
;

//--------------- dance-solo - ----------------
#NOTES:
     dance-solo:
     :
     Medium:
     6:
     0,0,0,0,0:
000000
000000
000000
000000
,
000000
000000
000000
000000
,
000000
000000
000000
000000
,
000000
000000
000000
000000
,
000000
000000
000000
000000
,
000100
000010
000100
010000
,
000001
100000
001000
000001
,
000100
000010
000100
010000
,
000001
100000
001000
000001
,
100010
001001
000100
100000
,
101000
010001
000100
000010
,
000001
000001
010000
100000
,
000010
000000
010000
000000
,
000010
000001
000100
100000
,
000010
001000
000001
000000
000100
000000
010000
000000
,
100000
000000
000100
000000
000001
000000
010000
001000
,
100000
000000
000100
000000
010000
001000
000100
000000
,
000010
001000
000100
000000
100001
000000
000100
000000
,
000001
000000
001000
000000
000010
001000
000001
000000
,
010000
001000
100000
000000
000101
000000
100000
000000
,
101000
000001
010001
100000
,
000100
000000
000001
000000
010000
000010
000100
000000
,
100001
100010
000001
000100
,
100000
000000
000010
010000
000100
000000
100001
000000
,
000010
000100
001000
100000
,
000010
000100
001000
000000
100000
000000
010000
000000
,
000100
000000
001000
000000
000001
000000
010000
000100
,
001000
000000
000001
000000
000100
000001
001000
000000
,
101000
000101
010000
000100
,
000001
000000
001000
000000
000100
000010
100000
000000
,
010100
000000
001001
000000
010000
000001
000100
000000
,
100000
000000
101000
000000
000100
100000
000001
000000
,
010000
000100
000010
000100
,
000001
000000
001000
000000
000100
000010
000001
000000
,
000100
000000
100000
000000
000100
010000
100000
000000
,
000100
000000
000001
000000
000100
001000
000001
000000
,
010000
100000
001100
100000
,
000100
000000
000001
000000
000010
001000
000001
000000
,
000100
001000
010000
100000
,
000010
000010
101000
000001
,
010010
000000
100001
000000
000100
000001
001000
000000
,
101000
000101
010000
100000
,
000010
000000
000001
000000
000100
001000
000001
000000
,
100000
001000
000100
000010
,
000001
000000
000100
000000
010000
100000
000100
000000
,
001100
100001
000010
000000
,
010000
000000
000100
100001
,
001000
001000
100010
000100
,
010000
000000
100000
000000
000100
000010
000001
000000
,
010000
010001
000100
000010
,
000001
000000
000100
010000
100000
000000
000010
000000
,
000100
000010
000001
000000
000100
010000
100000
000000
,
001100
100001
001000
000001
,
010000
001000
100000
000000
000010
001000
000001
000000
,
100001
001100
100000
000001
,
000010
001000
000001
000100
,
100000
010000
000100
000000
000001
000000
010000
000000
,
001000
000000
100000
000000
000100
000000
000001
000010
,
000100
100000
011000
100000
,
000001
000000
001000
000000
000100
000010
001000
000000
,
001001
001010
000001
100000
,
001000
000000
000100
010000
001000
000000
101000
000000
,
000100
100000
000001
000100
,
000010
001000
000001
000000
100001
000000
010000
000000
,
000001
001000
000100
100000
;

//--------------- dance-solo - ----------------
#NOTES:
     dance-solo:
     :
     Hard:
     9:
     0,0,0,0,0:
000000
000000
000000
000000
,
000000
000000
000000
000000
,
000000
000000
000000
000000
,
000000
000000
000000
000000
,
000000
000000
000000
000000
,
010000
000100
100000
001000
010000
100000
000100
000000
,
000010
000100
000001
001000
000010
000001
000100
000000
,
001000
000001
000100
001000
010000
000001
001000
000000
,
000100
100000
001000
000100
000010
100000
000100
000000
,
010000
000010
000100
000001
001000
100000
001000
000000
,
000010
010000
000100
100000
001000
000001
001000
000000
,
000100
000001
001000
000010
000100
000001
001000
000100
,
100000
000000
000001
000000
,
000100
100000
001000
000001
,
000010
010000
000100
100000
000001
000000
000101
000000
,
101000
000000
000100
000000
000001
000000
000010
010000
,
000100
100000
000001
000000
000010
000100
000001
100000
,
000100
010000
001000
000000
000010
000100
000001
000000
,
010000
000100
100000
000000
001000
010000
001000
100000
,
000001
001000
000010
000000
010000
000001
100000
000000
,
000010
100000
000001
000000
000010
000000
000001
000000
,
000100
000000
100000
000000
000010
001000
010000
001000
,
000010
100000
000100
000001
,
000100
000000
010000
001000
000010
001000
010000
000000
,
001000
000001
010000
100000
,
010000
001000
100000
000100
000001
000000
000100
000000
,
010000
000000
100000
000000
000100
000000
000010
001000
,
000001
000100
100000
000000
010000
001000
100000
000000
,
000010
001000
000001
000100
000010
001000
000001
000000
,
010000
001000
100000
000000
000010
000100
001000
100000
,
000001
001000
000100
000000
010000
000100
001000
000001
,
100000
001000
000100
000000
000100
000001
000010
000000
,
000100
100000
010000
001000
000100
000001
000010
000000
,
000100
100000
010000
000000
000010
000100
000001
010000
,
000100
100000
000001
000000
010000
000100
100000
000010
,
000100
000001
100000
000000
001000
010000
100000
000000
,
001000
000010
000001
000100
001000
010000
100000
000000
,
001000
000010
000001
000000
100000
000100
001000
000000
,
001010
000001
100010
000001
,
010001
000000
100000
000000
000010
000100
000001
000000
,
001000
000001
000100
000000
000010
001000
000001
000100
,
001000
000010
000001
000000
010000
000100
100000
000000
,
001000
100000
000100
000000
010000
001000
100000
000100
,
001000
010000
100000
000000
000001
000100
000010
000000
,
100000
000100
010000
000000
000010
100000
000001
010000
,
000100
100000
000001
000000
100010
000000
000000
000000
,
010001
000000
101000
001001
,
000100
100000
000001
001000
000100
000000
001001
000000
,
000100
000000
101000
000000
000010
010000
000100
001000
,
000001
000100
100001
001000
,
010010
000000
010000
000010
000100
001000
100000
000000
,
000010
010000
000001
000000
000100
000001
010000
000000
,
000100
100000
001000
010000
000100
100000
001000
000000
,
010000
000010
100000
000000
000100
100000
000010
000000
,
000100
000001
001000
000010
000100
000001
001000
000000
,
100000
000001
001000
000100
010000
000010
000100
000000
,
100000
001000
000001
001000
100000
000000
000100
001000
,
010000
000001
100000
000010
001000
000000
010000
001000
,
000010
001000
010000
000000
000001
000100
000010
010000
,
000100
100000
001000
000000
100000
001000
000001
001000
,
100000
000000
000001
001000
000010
010000
001000
100000
,
000001
000000
010000
001000
000010
001000
010000
000000
,
000100
100000
000010
010000
000001
000100
001000
000000
,
100000
001000
000001
001000
100000
000000
000100
000001
,
100000
000100
001000
000010
001000
010000
001000
000000
;
