#VERSION:0.83;
#TITLE:WHEN YOU SAY NOTHING AT ALL;
#SUBTITLE:;
#ARTIST:DEJA VU featuring TASMIN;
#TITLETRANSLIT:;
#SUBTITLETRANSLIT:;
#ARTISTTRANSLIT:;
#GENRE:;
#ORIGIN:;
#CREDIT:;
#BANNER:WHEN YOU SAY NOTHING AT ALL-bn.png;
#BACKGROUND:WHEN YOU SAY NOTHING AT ALL-bg.png;
#PREVIEWVID:;
#JACKET:WHEN YOU SAY NOTHING AT ALL-jacket.png;
#CDIMAGE:;
#DISCIMAGE:;
#LYRICSPATH:;
#CDTITLE:;
#MUSIC:WHEN YOU SAY NOTHING AT ALL.ogg;
#OFFSET:0.000000;
#SAMPLESTART:37.907001;
#SAMPLELENGTH:20.000000;
#SELECTABLE:YES;
#DISPLAYBPM:129.000000;
#BPMS:0.000=129.000;
#STOPS:;
#DELAYS:;
#WARPS:;
#TIMESIGNATURES:0.000=4=4;
#TICKCOUNTS:0.000=4;
#COMBOS:0.000=1;
#SPEEDS:0.000=1.000=0.000=0;
#SCROLLS:0.000=1.000;
#FAKES:;
#LABELS:0.000=Song Start;
#BGCHANGES:;
#KEYSOUNDS:;
#ATTACKS:
;

//---------------dance-single - ----------------
#NOTEDATA:;
#CHARTNAME:;
#STEPSTYPE:dance-single;
#DESCRIPTION:;
#CHARTSTYLE:;
#DIFFICULTY:Hard;
#METER:11;
#RADARVALUES:0.435816,0.468007,0.034667,0.104001,0.112668,352.000000,348.000000,4.000000,12.000000,0.000000,0.000000,0.000000,0.000000,0.000000,0.435816,0.468007,0.034667,0.104001,0.112668,352.000000,348.000000,4.000000,12.000000,0.000000,0.000000,0.000000,0.000000,0.000000;
#CREDIT:;
#DISPLAYBPM:129.000000;
#NOTES:
0000
0000
0000
0000
,
0000
0000
0000
0000
,
0000
0000
0000
0000
,
0000
0000
0000
0000
,
0001
0010
0001
0100
0000
0010
1000
0100
,
1000
0010
0100
0001
0010
0100
1000
0000
,
0010
1000
0001
1000
0000
0100
0010
0001
,
0100
0010
1000
0001
1000
0100
0010
0000
,
0001
0100
0010
1000
0000
0010
1000
0100
,
0000
0100
1000
0001
0000
0010
0001
0100
,
0010
0000
0000
0010
0000
0000
0010
0000
0000
1000
0000
0000
0001
0000
0100
0000
,
0001
0000
0000
0001
0000
0000
0001
0000
0000
1000
0000
0000
0100
0000
0010
0000
,
0000
0001
0100
0001
0000
0010
0100
1000
,
0000
0000
0001
0000
0000
0000
1000
0100
1000
0000
0010
0000
0100
0000
0001
0000
,
1000
0000
0000
1000
0000
0000
1000
0000
0000
0100
0000
0000
0010
0000
0001
0000
,
0100
0000
0000
0100
0000
0000
0100
0000
0000
0010
0000
0000
1000
0000
0001
0000
,
0010
0001
0100
0010
0000
1000
0100
1000
,
0010
0100
0001
1000
0100
0010
0001
0000
,
1000
0010
0100
0010
1000
0001
0010
0100
,
1000
0010
0100
0001
2002
0000
0000
0000
,
0000
0000
3003
0001
0001
0100
0001
1000
,
0100
0010
0001
0100
0010
1000
0001
1000
,
0000
0000
0010
0000
0000
0000
0100
0001
0100
0000
0010
0000
1000
0000
0001
0000
,
0010
0100
0010
0001
0100
0010
1000
0001
,
0000
0100
0000
0010
0010
0100
0001
1000
,
0100
0010
0001
1000
0000
0001
0000
0100
,
0010
0000
1000
0000
0100
0000
1000
0000
0001
0000
0000
0010
0000
0000
0100
0000
,
1000
0000
0000
0010
0000
0000
0100
0000
0010
0000
0000
1000
0000
0000
0001
0000
,
0100
0000
0000
0001
0000
0000
1000
0000
0100
0000
1000
0000
0010
0000
1000
0000
,
0100
0000
0000
0010
0000
0000
0001
0000
2002
0000
0000
0000
0000
0000
0000
0000
,
0000
0000
3003
0000
0010
0000
0001
0100
,
1000
0000
0000
0000
0010
0000
1000
0000
0100
0000
0000
0000
0000
0000
1000
0001
,
1000
0000
0000
0010
0000
0000
0100
0000
0001
0000
0010
0000
0001
0000
0010
0000
,
0100
1000
0100
1000
0010
0100
0010
0100
,
0001
1000
0001
1000
0000
0100
1000
0001
,
0000
0010
0100
1000
0000
0010
1000
0001
,
0000
0000
0100
0000
0001
0000
0010
0000
0100
0000
0000
0100
0000
0000
0100
0000
,
0000
1000
0000
0000
0001
0000
0010
0000
0001
0000
0000
0001
0000
0000
0001
0000
,
0000
1000
0000
0000
0010
0000
0100
0000
0001
0000
0010
0000
0001
0000
0100
0000
,
0010
1000
0100
1000
0001
0000
0000
0100
,
0100
0000
0010
0000
1000
0000
0001
0000
0010
0000
0000
0001
0000
0000
0100
0000
,
0010
0000
1000
0000
0001
0000
1000
0000
0100
0000
0000
0010
0000
0000
0001
0000
,
1000
0000
0000
0001
0000
0000
0100
0000
0010
0000
1000
0000
0100
0000
1000
0000
,
0000
0001
0010
0100
1000
0010
1000
0001
,
0010
0100
1000
0000
0001
0010
0001
0100
,
0010
1000
0001
1000
0100
0010
0001
0100
,
0220
0000
0000
0000
0000
0000
0330
1000
,
1000
0010
1000
0001
0100
0010
0100
0001
,
1000
0000
0100
0000
0010
0000
0001
0000
0100
0000
0001
0000
0000
0000
1000
0010
,
1000
0100
0010
0001
1000
0001
1000
0010
,
0100
0000
0001
0000
1000
0000
0010
0000
1000
0001
1000
0000
0200
0000
0000
0000
,
0000
0000
0000
0000
0020
0000
0330
0001
,
0001
1000
0001
0100
0000
0010
1000
0100
,
0000
1000
0000
0001
0010
0001
1000
0020
,
0100
0100
0100
0130
,
0001
0010
0001
0100
2000
0000
3000
0000
,
0010
1000
0010
0100
0010
1000
0001
0100
,
0000
0001
0001
1000
0010
1000
0001
0100
,
0220
0000
0000
0000
,
0000
0000
0000
0000
,
0330
0000
0000
0000
;

//---------------dance-single - ----------------
#NOTEDATA:;
#CHARTNAME:;
#STEPSTYPE:dance-single;
#DESCRIPTION:;
#CHARTSTYLE:;
#DIFFICULTY:Medium;
#METER:9;
#RADARVALUES:0.340481,0.364005,0.121335,0.138669,0.000000,275.000000,261.000000,14.000000,16.000000,0.000000,0.000000,0.000000,0.000000,0.000000,0.340481,0.364005,0.121335,0.138669,0.000000,275.000000,261.000000,14.000000,16.000000,0.000000,0.000000,0.000000,0.000000,0.000000;
#CREDIT:;
#DISPLAYBPM:129.000000;
#NOTES:
0000
0000
0000
0000
,
0000
0000
0000
0000
,
0000
0000
0000
0000
,
0000
0000
0000
0000
,
0001
0010
0001
0100
0000
0010
1000
0100
,
1000
0100
0010
0002
0000
0000
0003
0000
,
0100
0001
0100
0010
0000
1000
0001
1000
,
0100
1000
0001
0020
0000
0000
0030
0000
,
0000
0001
0100
0001
0000
1000
0100
1000
,
0000
0010
0100
0010
0000
1000
0001
0100
,
0000
0000
0110
0000
0001
0100
1000
0000
,
0010
0000
1001
0000
0100
0001
1000
0000
,
0000
0010
1000
0100
0000
1000
0001
0100
,
0000
0000
0000
0010
0100
0010
1000
0001
,
0000
0000
1001
0000
0010
0100
0001
0000
,
1000
0000
0110
0000
0001
0100
0010
0000
,
1000
0100
1000
0001
0000
0010
0000
0100
,
0000
1000
0001
0100
0000
0000
0020
0000
,
1030
0100
1000
0000
0010
0100
0001
0000
,
1000
0001
0100
0000
2002
0000
0000
0000
,
0000
0000
3003
0000
0010
1000
0010
0100
,
0000
0001
0000
1000
0000
0001
0010
0100
,
0000
1000
0000
0000
0010
0100
0001
1000
,
0000
0100
1000
0010
0000
0100
0000
0001
,
0000
1000
0000
0001
0010
0001
0100
0000
,
0010
1000
0100
0000
1000
0001
0100
0000
,
0010
0100
0001
0000
1010
0000
0100
0001
,
1000
0000
0010
0000
0101
0000
1000
0001
,
0100
0000
0010
0000
1000
0100
0010
0001
,
0000
0100
0000
0010
0220
0000
0000
0000
,
0000
0000
0330
0000
0001
0000
0010
0001
,
0100
0000
0010
0000
1000
0000
0100
1000
,
0010
0000
0101
0000
1000
0010
0100
0000
,
0001
0010
0100
0000
1000
0000
0001
1000
,
0010
0000
0101
0000
0000
0010
1000
0100
,
0000
1000
0010
0100
0000
0001
0010
0100
,
0000
1000
0001
1000
0000
0000
1100
0000
,
0010
1000
0001
0000
0010
0000
1001
0000
,
0100
0001
1000
0000
0000
0001
0010
0100
,
0000
1000
0001
1000
0000
0000
0000
0010
,
0100
0010
1000
0001
0000
0010
0000
0100
,
0000
1000
0001
0100
0000
0010
0000
1000
,
0001
0000
0010
0000
0001
1000
0001
0010
,
0000
0100
0000
1000
0000
0010
1000
0001
,
0000
0000
0200
0000
0310
0100
0001
0000
,
0010
0100
1000
0000
0001
1000
0100
0000
,
2002
0000
0000
3003
,
0010
1000
0010
0100
0000
0001
0000
1000
,
0000
0001
0010
0100
0000
1000
0000
0000
,
0010
1000
0001
1000
0000
0100
0010
0001
,
0000
1000
0000
0001
0000
0000
0200
0000
,
0000
0000
0020
0330
,
0100
0100
0010
0010
,
1000
0000
0001
0000
1000
0100
0010
0002
,
0000
0000
0000
0000
,
1000
0100
2000
3003
,
0010
1000
0010
0100
0000
0000
0000
0000
,
0000
0001
1000
0001
0010
0001
1000
0100
,
0220
0000
0000
0000
,
0000
0000
0000
0000
,
0330
0000
0000
0000
;

//---------------dance-single - ----------------
#NOTEDATA:;
#CHARTNAME:;
#STEPSTYPE:dance-single;
#DESCRIPTION:;
#CHARTSTYLE:;
#DIFFICULTY:Easy;
#METER:5;
#RADARVALUES:0.201812,0.234003,0.086668,0.069334,0.000000,163.000000,153.000000,10.000000,8.000000,0.000000,0.000000,0.000000,0.000000,0.000000,0.201812,0.234003,0.086668,0.069334,0.000000,163.000000,153.000000,10.000000,8.000000,0.000000,0.000000,0.000000,0.000000,0.000000;
#CREDIT:;
#DISPLAYBPM:129.000000;
#NOTES:
0000
0000
0000
0000
,
0000
0000
0000
0000
,
0000
0000
0000
0000
,
0000
0000
0000
0000
,
0001
0010
0001
0100
,
0010
1000
0001
0000
,
1000
0100
1000
0010
,
0100
0001
1000
0000
,
0010
0000
0100
0000
,
0001
0000
1000
0000
,
0100
0100
1000
0010
,
1000
1000
0001
0100
,
0001
0000
0010
0000
,
0100
0000
1000
0000
,
0010
0010
1000
0100
,
0001
0001
0010
0100
,
1000
0010
1000
0000
,
0100
0010
0001
0000
,
1000
1000
0001
0001
,
1000
0001
2002
0000
,
0000
3003
0010
1000
,
0010
0100
0001
0010
,
0100
0000
1000
1000
,
0001
1000
0010
0100
,
0001
0000
0011
0000
,
1100
0000
0101
0000
,
1000
0001
0100
0000
,
0100
0000
0010
0000
,
0010
0000
1000
0010
,
0100
0001
0220
0000
,
0000
0330
1000
0000
,
0010
0000
0100
0000
,
0001
0000
0010
0000
,
0100
0000
1000
0000
,
0001
0000
0100
0000
,
0010
0000
1000
0000
,
0001
0000
0010
0010
,
0001
1000
0100
0100
,
0010
0001
0100
0000
,
0010
0000
1000
0000
,
0001
0000
1000
1000
,
0100
0010
0001
0001
,
1000
0010
0100
0000
,
0001
0000
0010
0100
,
1000
0000
0001
0001
,
1000
1000
0001
1000
,
2002
0000
0000
3003
,
0010
1000
0010
1000
,
0100
0010
0001
0000
,
0100
0001
0100
0010
,
1000
0001
1000
0100
,
0000
0000
0000
0000
,
1100
0000
0011
0000
,
0101
0000
1000
0001
,
1000
0000
0000
0000
,
0010
0000
0100
0000
,
0001
0010
0001
1000
,
0010
0000
0100
0000
,
0220
0000
0000
0000
,
0000
0000
0000
0000
,
0330
0000
0000
0000
;

//---------------dance-single - ----------------
#NOTEDATA:;
#CHARTNAME:;
#STEPSTYPE:dance-single;
#DESCRIPTION:;
#CHARTSTYLE:;
#DIFFICULTY:Beginner;
#METER:2;
#RADARVALUES:0.102763,0.125668,0.034667,0.000000,0.000000,83.000000,79.000000,4.000000,0.000000,0.000000,0.000000,0.000000,0.000000,0.000000,0.102763,0.125668,0.034667,0.000000,0.000000,83.000000,79.000000,4.000000,0.000000,0.000000,0.000000,0.000000,0.000000,0.000000;
#CREDIT:;
#DISPLAYBPM:129.000000;
#NOTES:
// measure 0
0000
0000
0000
0000
,  // measure 1
0000
0000
0000
0000
,  // measure 2
0000
0000
0000
0000
,  // measure 3
0000
0000
0000
0000
,  // measure 4
0001
0000
1000
0000
,  // measure 5
0001
0000
0000
0000
,  // measure 6
0100
0000
0010
0000
,  // measure 7
0100
0000
0000
0000
,  // measure 8
0001
0000
0010
0000
,  // measure 9
0100
0000
1000
0000
,  // measure 10
0010
0000
0000
0000
,  // measure 11
0100
0000
0000
0000
,  // measure 12
0010
0000
1000
0000
,  // measure 13
0001
0000
0100
0000
,  // measure 14
0001
0000
0000
0000
,  // measure 15
1000
0000
0000
0000
,  // measure 16
0100
0000
0100
0000
,  // measure 17
0100
0000
0000
0000
,  // measure 18
0010
0000
0001
0000
,  // measure 19
1000
0000
1001
0000
,  // measure 20
0000
0000
0010
0000
,  // measure 21
0010
0000
1000
0000
,  // measure 22
1000
0000
0001
0000
,  // measure 23
0001
0000
0100
0000
,  // measure 24
0100
0000
0001
0000
,  // measure 25
0001
0000
1000
0000
,  // measure 26
1000
0000
0010
0000
,  // measure 27
0000
0000
0100
0000
,  // measure 28
0000
0000
0010
0000
,  // measure 29
1000
0000
0110
0000
,  // measure 30
0000
0000
0001
0000
,  // measure 31
0000
0000
1000
0000
,  // measure 32
0000
0000
0010
0000
,  // measure 33
0000
0000
0100
0000
,  // measure 34
0000
0000
0010
0000
,  // measure 35
0100
0000
0001
0000
,  // measure 36
1000
0000
0001
0000
,  // measure 37
0000
0000
0010
0000
,  // measure 38
0000
0000
0100
0000
,  // measure 39
0010
0000
0001
0000
,  // measure 40
1000
0000
0100
0000
,  // measure 41
0000
0000
1000
0000
,  // measure 42
0000
0000
0010
0000
,  // measure 43
0010
0000
0010
0000
,  // measure 44
0000
0000
0100
0000
,  // measure 45
0001
0000
1000
0000
,  // measure 46
1001
0000
0000
0000
,  // measure 47
0001
0000
0001
0000
,  // measure 48
0100
0000
0100
0000
,  // measure 49
0010
0000
1000
0000
,  // measure 50
0001
0000
0000
0000
,  // measure 51
0000
0000
0000
0000
,  // measure 52
1000
0000
0000
0000
,  // measure 53
0001
0000
0000
0000
,  // measure 54
0100
0000
0000
0000
,  // measure 55
0000
0000
0000
0000
,  // measure 56
0010
0000
1000
0000
,  // measure 57
0001
0000
0000
0000
,  // measure 58
0110
0000
0000
0000
;
