#TITLE:WE WILL ROCK YOU;
#ARTIST:HOUSEBOYZ;
#BANNER:WE WILL ROCK YOU-bn.png;
#BACKGROUND:WE WILL ROCK YOU-bg.png;
#JACKET:WE WILL ROCK YOU-jacket.png;
#DISCIMAGE:;
#MUSIC:WE WILL ROCK YOU.ogg;
#SAMPLESTART:50.654;
#SAMPLELENGTH:20;
#DISPLAYBPM:90;
#BPMS:0=90;
#BGCHANGES:0=WE WILL ROCK YOU.mp4=1=0=0=0,
;

//---------------dance-single - ----------------
#NOTES:
     dance-single:
     :
     Beginner:
     2:
     :
0000
0000
0000
0000
,
0000
0000
0000
0000
,
0000
0000
0000
0000
,
0010
0010
0000
1000
,
0000
0100
0000
0001
,
0000
1001
0000
1001
,
0000
0110
0000
1001
,
0000
1000
0000
0100
,
0000
0001
0000
0100
,
0000
0010
0000
0010
,
0000
0001
0000
1000
,
1000
0000
1000
0000
,
1001
0000
0010
0010
,
0000
0100
0000
0100
,
0000
0000
0010
0010
,
0000
0001
0000
0001
,
0000
1000
0000
1000
,
0000
1001
0000
1001
,
0000
0010
0010
0000
,
0001
0001
0000
1000
,
0000
0000
0100
0100
,
0000
0010
0000
0100
,
0000
0000
0001
0000
,
0001
0000
0001
0000
,
1001
0000
0010
0000
,
0010
0000
0010
0000
,
0110
0000
0001
0000
,
0010
0000
0010
0000
,
1001
0000
0010
0000
,
0001
0000
0010
0000
,
1001
0000
0000
0000
,
0000
0000
0000
0000
,
0010
0000
0000
0000
;

//---------------dance-single - ----------------
#NOTES:
     dance-single:
     :
     Easy:
     4:
     :
0000
0000
0000
0000
,
0000
0000
0000
0000
,
0000
0000
0000
0000
,
0010
0010
1000
1000
,
0100
0100
0001
0001
,
0000
1001
0000
1001
,
0000
0110
0000
1001
,
0001
1000
0100
0100
,
1000
0001
0100
0100
,
0001
0010
1000
0010
,
0100
0001
0100
1000
,
1000
0100
1000
0100
,
1001
0000
0010
0010
,
0001
0100
0001
0100
,
1001
0000
0010
0010
,
0100
0001
0010
0001
,
0100
1000
0010
1000
,
0010
1001
0100
1001
,
0010
0010
0010
0000
,
0001
0001
1000
1000
,
1001
0000
0100
0100
,
0010
0010
0100
0100
,
0110
0000
0001
1000
,
0001
1000
0001
1000
,
1001
0000
0010
0100
,
0010
0100
0010
0100
,
0110
0000
0001
1000
,
0010
0100
0010
0100
,
1001
0000
0010
0100
,
0001
1000
0010
0100
,
2002
3003
0000
0000
,
0000
0000
0000
0000
,
0010
0000
0000
0000
,
0000
0000
0000
0000
;

//---------------dance-single - ----------------
#NOTES:
     dance-single:
     :
     Medium:
     7:
     :
0000
0000
0000
0000
,
0000
0000
0000
0000
,
0000
0000
0000
0000
,
0010
0010
1001
0000
0100
0100
1001
0000
,
0001
0001
0110
0000
1000
1000
0110
0000
,
0001
1000
1001
0000
1000
0001
1001
0000
,
0010
0001
1000
0100
0010
0100
1001
0000
,
0010
0100
0010
0000
1000
0001
0100
0000
,
1000
0010
0001
0010
0001
1000
1001
0000
,
0010
0010
1000
0000
0100
0100
0001
0000
,
1000
0010
0100
0010
1000
0001
0010
0000
,
0001
1000
0010
0100
,
0001
1000
0000
0000
0100
0100
0001
0000
,
0010
1001
0100
1001
,
1000
0001
0000
0000
0100
0100
1000
0000
,
0010
1000
0100
0010
0001
1000
0010
0100
,
0001
1000
0100
0010
0100
1000
1001
0000
,
0001
0010
1000
0000
1000
0100
0001
0000
,
1000
0010
0100
0001
1000
0100
0010
0000
,
0002
0103
2000
3100
,
0001
1000
0000
0000
0010
0010
0100
0000
,
1001
0110
1001
0110
,
1000
0001
0000
0000
0010
0010
0100
0000
,
0101
1100
1010
0011
,
0001
1000
0000
0000
0100
0100
1001
0000
,
0002
1000
1003
0000
0020
0100
0130
0000
,
0100
0110
0000
0000
0100
0010
1001
0000
,
0020
0100
1030
0000
0200
0010
0301
0000
,
1000
1001
0000
0000
0001
0100
1001
0000
,
0010
0001
1100
0000
0100
1000
0011
0000
,
1001
2002
0000
0000
0000
0000
0000
0000
,
3003
0000
0000
0000
,
0220
0000
0000
0000
,
0330
0000
0000
0000
,
0000
0000
0000
0000
;

//---------------dance-single - ----------------
#NOTES:
     dance-single:
     :
     Hard:
     10:
     :
0000
0000
0000
0000
,
0000
0000
0000
0000
,
0000
0000
0000
0000
,
0001
0001
0011
0000
0001
0001
0101
0000
,
0001
0001
0011
0001
0100
0100
0110
0000
,
1000
1000
1010
0000
1000
1000
1100
0000
,
1000
1000
1100
1000
0010
0010
0110
0000
,
0001
0010
0001
0000
0101
0000
0001
0000
1000
0010
1000
0000
1100
0000
1000
0000
,
0010
1000
0010
0000
0010
0100
0010
0000
1000
0000
0001
0000
1001
0000
0000
0000
,
0001
0010
0000
0010
0100
0000
0000
0000
1000
0000
1000
0000
1001
0000
0000
0000
,
1000
0010
0100
0000
0001
0000
0100
0000
0010
1000
0001
0000
1001
0000
0000
0000
,
0102
1000
0010
0103
,
1100
1100
0001
0000
0100
0100
0101
0000
,
2010
0001
0100
3010
,
0011
0011
1000
0000
0010
0010
1010
0000
,
0100
0010
0100
0000
0101
0000
0100
0000
0010
0000
0010
0000
1010
0000
0010
0000
,
0001
0000
0001
0000
0001
0010
0100
0000
0100
0000
0010
0000
0110
0000
0000
0000
,
1000
0001
0000
0100
0010
0000
0000
0000
1000
0000
1000
0000
1001
0000
0000
0000
,
1000
1000
0001
0001
0010
0010
1001
0000
,
0011
0101
1001
1100
,
1010
1010
0100
0000
0010
0010
0110
0000
,
1010
1100
1001
0101
,
0011
0011
0100
0000
0010
0010
0110
0000
,
0001
0001
0101
0000
1000
1000
1100
0000
,
0110
0110
1001
0000
0100
0100
1001
0000
,
1010
1000
1010
0000
0101
0001
0101
0000
,
1010
1010
0110
0000
0101
0010
1001
0000
,
0101
0001
1001
0100
0101
0100
0110
0000
,
0101
0101
0110
0000
1010
0100
1001
0000
,
1100
1000
1010
0010
0011
0010
0110
0000
,
1001
2002
0000
0000
0000
0000
0000
0000
,
3003
0000
0000
0000
,
0220
0000
0000
0000
,
0330
0000
0000
0000
,
0000
0000
0000
0000
;

//---------------dance-single - ----------------
#NOTES:
     dance-single:
     :
     Challenge:
     12:
     :
0000
0000
0000
0000
,
0000
0000
0000
0000
,
0000
0000
0000
0000
,
0001
0000
0000
0100
0000
0000
0010
0000
0000
0100
0000
0000
1000
0000
0000
0100
0000
0000
0010
0000
0000
0100
0000
0000
0001
0000
0000
1000
0000
0000
0010
0000
0000
1000
0000
0000
0100
0000
0000
0010
0000
0000
0001
0000
1000
0000
0001
0000
,
1000
0100
0001
0100
0010
0001
0100
0010
0001
0010
1000
0100
1000
0010
1000
0001
,
0100
0010
1001
0000
0000
1000
0100
0010
0001
0100
1001
0000
0000
1000
0010
1000
,
0001
0100
1000
0100
0001
0010
1000
0010
0100
0010
0001
1000
0001
0100
0010
0000
,
1000
0010
0100
0001
1010
0000
0001
0100
0010
0000
0110
0000
1001
0010
1000
0100
,
1000
0000
0010
0100
0001
0001
1000
0000
1100
0001
0100
0000
0101
0010
1000
0000
,
1100
0100
1000
0010
0001
0000
0000
0000
0110
0000
0110
0000
1001
0000
0000
0000
,
0010
0010
0010
0000
1000
0100
0001
0000
1000
0100
0001
0000
0011
0000
0001
0100
,
1010
0011
1010
0011
,
1001
1001
0110
0000
1001
1001
0110
0000
,
0101
1100
0101
1100
,
1001
0000
1001
0000
0110
0000
1000
0001
1001
0000
1001
0000
0110
0000
0000
0000
,
0001
0100
1000
0100
0101
0000
1010
0000
1100
0000
0011
0000
1000
0010
0001
0010
,
1010
0000
0100
1000
0001
1000
0100
0000
1100
0000
0110
0000
0011
1000
0100
0000
,
0001
0001
0010
0100
1100
0000
0010
0100
0110
0000
0110
0000
1001
0000
0000
0000
,
0101
0000
0010
1000
0010
0001
0010
1000
0010
0010
0010
0100
1001
0000
0100
0010
,
1010
0100
0011
0000
1010
0100
0011
0000
,
1001
0000
1001
0010
0100
0001
0100
0001
0100
1000
0100
0010
0100
0001
1000
0000
,
1100
0010
0101
0000
1100
0010
0101
0000
,
1001
0000
1001
0000
0110
2000
0010
0010
3010
0100
0001
1000
0210
0000
0001
0301
,
0101
0100
1100
1000
1010
0010
0011
0001
,
1001
0000
0000
0000
1001
0000
0000
0000
0110
0000
0000
0000
1000
0000
0001
0000
0000
0000
0010
0001
0010
0000
0100
0000
1000
0000
0010
0000
1000
0000
0001
0000
,
0011
0010
1010
1000
1100
0100
0101
0001
,
1001
0000
1001
0000
0110
0000
1000
0001
0100
1000
0100
0001
0010
0100
1000
0000
,
1100
0011
1100
0011
,
1001
0000
0000
0000
1001
0000
0100
0000
1000
0000
1000
0000
0000
0000
0001
1000
0001
0000
0100
0000
0000
0000
0010
1000
0010
0000
0100
0000
0001
0000
0000
0000
,
0101
0000
0100
0000
1010
0000
1000
0001
0101
0000
0100
0000
1010
0000
0000
0000
,
0110
0000
0000
1001
0000
0000
0000
0000
0000
0000
0000
0000
0001
1000
0001
1000
0001
1000
0001
0000
0100
0000
0100
0000
,
0010
1000
1000
2000
0000
0000
3000
0000
0000
1100
0000
0000
,
2002
0000
0000
0000
0000
0000
0000
0000
0000
0000
0000
0000
3000
0000
1003
0001
;

//---------------dance-double - ----------------
#NOTES:
     dance-double:
     :
     Easy:
     4:
     :
00000000
00000000
00000000
00000000
,
00000000
00000000
00000000
00000000
,
00000000
00000000
00000000
00000000
,
10000000
10000000
00100000
00100000
,
01000000
01000000
00001000
00001000
,
00010000
00010000
00000010
00000010
,
00000100
00000100
00000001
00000001
,
00000010
00001000
00000100
00000100
,
00010000
00001000
01000000
01000000
,
00100000
10000000
00010000
01000000
,
00001000
00010000
00000010
00000100
,
00000001
00000010
00000100
00001000
,
00011000
00000000
01000000
01000000
,
10000000
00100000
01000000
00010000
,
00011000
00000000
00000100
00000100
,
00000010
00001000
00000010
00000001
,
00000100
00001000
00010000
00001000
,
00100000
00010000
00100000
10000000
,
00010000
00010000
00010000
00000000
,
00100000
00001000
00010000
00001000
,
00011000
00000000
00000010
00000010
,
00000100
00000001
00001000
00000001
,
00001001
00000000
00000100
00000100
,
00010000
00001000
01000000
00100000
,
01100000
00000000
00100000
01000000
,
00100000
01000000
10000000
00010000
,
10010000
00000000
01000000
00100000
,
00001000
00010000
00000100
00001000
,
00001100
00000000
00000010
00000001
,
00000100
00000010
00010000
00001000
,
00022000
00033000
00000000
00000000
,
00000000
00000000
00000000
00000000
,
00010000
00000000
00000000
00000000
,
00000000
00000000
00000000
00000000
;

//---------------dance-double - ----------------
#NOTES:
     dance-double:
     :
     Medium:
     7:
     :
00000000
00000000
00000000
00000000
,
00000000
00000000
00000000
00000000
,
00000000
00000000
00000000
00000000
,
00100000
00100000
10100000
00000000
01000000
01000000
01010000
00000000
,
00100000
00100000
00101000
00000000
00001000
00001000
00011000
00000000
,
00000100
00000100
00000110
00000000
00000010
00000010
00000011
00000000
,
00001000
00000010
00000100
00000010
00010000
00001000
00011000
00000000
,
00100000
00010000
10000000
00000000
00010000
10000000
01000000
00000000
,
00100000
00001000
00010000
00000010
00000100
00000001
00000101
00000000
,
00001000
00001000
00001000
00000000
00000100
00000100
00000100
00000000
,
00010000
00001000
00100000
00010000
10000000
00010000
10010000
00000000
,
01000000
00010000
00001000
00000010
,
00000001
00001000
00000000
00000000
00000001
00000001
00000001
00000000
,
00000100
00001000
00010000
00100000
,
10000000
00010000
00000000
00000000
10000000
10000000
10000000
00000000
,
00100000
10000000
01000000
00100000
01000000
00010000
00001000
00000100
,
00000001
00000010
00000001
00000100
00000010
00000100
00000110
00000000
,
00001000
00010000
01000000
00000000
00100000
00100000
00010000
00000000
,
10000000
01000000
00010000
00001000
00000010
00001000
00010000
00000000
,
00001000
00000001
00001000
00010000
,
00001000
00010000
00000000
00000000
00000100
00000100
00000100
00000000
,
00010000
10000000
00010000
00001000
,
00010000
00001000
00000000
00000000
00100000
00100000
01100000
00000000
,
10000000
00010000
00001000
00000001
,
00001000
00000001
00000000
00000000
00000010
00000010
00000110
00000000
,
00000001
00001000
00010000
10000000
,
00010000
10000000
00000000
00000000
01000000
00100000
01100000
00000000
,
01100000
00011000
00000110
00011000
,
00001000
00010000
00000000
00000000
00000100
00000010
00000110
00000000
,
00001001
00011000
10010000
00011000
,
00011000
00022000
00000000
00000000
00000000
00000000
00000000
00000000
,
00033000
00000000
00000000
00000000
,
00000220
00000000
00000000
00000000
,
00000330
00000000
00000000
00000000
,
00000000
00000000
00000000
00000000
;

//---------------dance-double - ----------------
#NOTES:
     dance-double:
     :
     Hard:
     10:
     :
00000000
00000000
00000000
00000000
,
00000000
00000000
00000000
00000000
,
00000000
00000000
00000000
00000000
,
00010000
00010000
00110000
00000000
00001000
00001000
00011000
00000000
,
00001000
00001000
00001100
00000000
00010000
00010000
00011000
00000000
,
00100000
00100000
01100000
00000000
00010000
00010000
10010000
00000000
,
01000000
01000000
01001000
00010000
00000010
00000010
00000110
00000000
,
00000100
00000001
00000100
00000000
00000110
00000000
00000001
00000000
00001000
00000010
00001000
00000000
00001100
00000000
00010000
00000000
,
00100000
01000000
00100000
00000000
00100000
00010000
00100000
00000000
10000000
00000000
00010000
00000000
10010000
00000000
00000000
00000000
,
00010000
00100000
00000000
01000000
10000000
00000000
00000000
00000000
00010000
00000000
00010000
00000000
01010000
00000000
00000000
00000000
,
10000000
00100000
01000000
00000000
00001000
00000000
00010000
00000000
00000100
00000010
00000001
00000000
00001001
00000000
00000000
00000000
,
00000110
00001100
00011000
01100000
,
10100000
10100000
00000000
00000000
01000000
01000000
11000000
00000000
,
01100000
01010000
00011000
00000110
,
00000011
00000011
00000000
00000000
00000100
00000100
00000101
00000000
,
00000100
00001000
00000100
00000000
00010100
00000000
00001000
00000000
00100000
00000000
00100000
00000000
00110000
00000000
10000000
00000000
,
00010000
00000000
00010000
00000000
00010000
00100000
01000000
00000000
10000000
00000000
00100000
00000000
10100000
00000000
00000000
00000000
,
01000000
00001000
00000000
00010000
00000100
00000000
00000000
00000000
00000010
00000000
00000010
00000000
00000110
00000000
00000000
00000000
,
00000001
00000010
00000100
00001000
00010000
00100000
11000000
00000000
,
10010000
00011000
00001001
00011000
,
00011000
00011000
00000000
00000000
00000100
00000100
00010100
00000000
,
00001010
00011000
00001100
01010000
,
00011000
00011000
00000000
00000000
00001000
00001000
00001010
00000000
,
00021000
01000000
00001000
01030000
,
00001100
00001100
00000000
00000000
00000110
00000010
00000110
00000000
,
00002001
00013000
10020000
00130000
,
01010000
01010000
00000000
00000000
11000000
00100000
10010000
00000000
,
01020000
00031000
00002010
00003001
,
00001100
00001100
00000000
00000000
00000110
00000010
00000011
00000000
,
00002001
00103000
01020000
00031000
,
00000110
00000220
00000000
00000000
00000000
00000000
00000000
00000000
,
00000330
00000000
00000000
00000000
,
00022000
00000000
00000000
00000000
,
00033000
00000000
00000000
00000000
,
00000000
00000000
00000000
00000000
;
