#TITLE:WALKIE TALKIE;
#ARTIST:KING KONG & D. JUNGLE GIRLS;
#BANNER:WALKIE TALKIE.png;
#BACKGROUND:WALKIE TALKIE-bg.png;
#JACKET:WALKIE TALKIE-jacket.png;
#MUSIC:WALKIE TALKIE.ogg;
#SAMPLESTART:43.398;
#SAMPLELENGTH:20;
#DISPLAYBPM:138;
#BPMS:0=138.256;
#BGCHANGES:;

//---------------dance-single - ----------------
#NOTES:
     dance-single:
     :
     Beginner:
     3:
     :
0000
0000
0000
0000
,
0000
0000
0000
0000
,
0000
0000
0000
0000
,
0000
0000
0000
0000
,
0000
0000
0000
0000
,
0010
0000
0000
0000
,
1000
1000
0000
0000
,
0100
0000
0000
0000
,
0001
0001
0001
0000
,
0010
0000
0010
0000
,
0001
0000
1000
0000
,
0100
0000
0000
0000
,
0010
0000
0000
0000
,
0001
0000
0001
0000
,
1000
0000
0010
0000
,
1000
0000
0000
0000
,
0100
0000
0000
0000
,
0000
0000
0010
0000
,
0001
0000
0100
0000
,
0010
0000
1000
0000
,
0000
0000
0000
0000
,
0000
0000
0100
0000
,
1000
0000
0001
0000
,
0010
0000
0001
0000
,
1000
1000
1000
0000
,
1001
0000
0110
0000
,
1000
1000
0000
0000
,
1001
0000
0110
0000
,
0001
0000
1000
0000
,
1001
0000
0110
0000
,
0010
0010
0000
0000
,
0100
0000
0000
0000
,
0001
0001
0001
0000
,
1000
0000
0000
0000
,
0010
0010
0000
0000
,
0100
0000
0000
0000
,
0001
0001
0001
0000
,
1001
0000
0110
0000
,
0100
0100
0000
0000
,
1001
0000
0110
0000
,
0010
0000
0100
0000
,
1001
0000
0110
0000
,
0001
0001
0000
0000
,
0010
0000
0000
0000
,
0100
0100
0100
0000
,
1001
0000
0110
0000
,
1000
1000
0000
0000
,
1001
0000
0110
0000
,
0100
0000
0001
0000
,
1001
0000
0110
0000
,
0010
0010
0000
0000
,
0100
0000
0000
0000
,
0010
0010
0010
0000
,
1001
0000
0000
0000
;

//---------------dance-single - ----------------
#NOTES:
     dance-single:
     :
     Easy:
     6:
     :
0000
0000
0000
0000
,
0000
0000
0000
0000
,
0000
0000
0000
0000
,
0000
0000
0000
0000
,
0000
0000
0000
0000
,
0001
0000
0000
0000
,
0001
0000
0000
0000
,
1000
0000
0000
0000
,
0100
0000
0100
0000
,
0000
1000
0000
0001
,
0001
0100
0001
0000
,
0001
0000
0001
0000
,
0010
0100
0010
0100
,
0000
0001
0000
1000
,
1000
0100
1000
0000
,
1000
0000
1000
0000
,
0001
1000
0001
1000
,
0001
0000
0001
0001
,
0100
0000
0100
0100
,
1000
0000
0001
0000
,
0010
0010
1000
0100
,
0001
0001
1000
0000
,
0100
0100
0001
0000
,
1000
0000
0001
0000
,
0010
0010
0100
0100
,
0010
0000
0100
0000
,
0001
0001
0001
1000
,
1000
0000
0001
0000
,
0100
0100
0100
0100
,
0001
0000
1000
0000
,
0010
0010
0010
0100
,
0010
0000
0010
0000
,
1000
1000
1000
0100
,
0010
0000
0000
0000
,
0001
0000
0000
0000
,
0001
0000
0000
0000
,
0100
0000
0010
0000
,
1000
1000
0001
0001
,
1000
0001
1000
0001
,
0100
0100
0010
0010
,
0001
0001
0100
1000
,
0001
0001
0010
0010
,
0100
0010
0100
1000
,
0001
0000
0001
0000
,
0100
0100
0010
0010
,
1000
1000
0001
0001
,
0100
0001
0100
1000
,
0001
0001
0100
0100
,
0001
0100
0001
1000
,
0001
0001
1000
1000
,
0100
0100
0010
0010
,
0100
0000
0100
0000
,
0001
0010
1000
0001
,
1001
0000
0000
0000
;

//---------------dance-single - ----------------
#NOTES:
     dance-single:
     :
     Medium:
     8:
     :
0000
0000
0000
0000
,
0000
0000
0000
0000
,
0000
0000
0000
0000
,
0000
0000
0000
0000
,
0000
0000
0000
0000
,
0010
0010
0100
0100
,
0010
0010
0100
0100
,
1000
1000
0001
0001
,
0100
0100
0010
0100
,
0000
0000
1000
0000
0010
1000
0010
0000
,
0001
0100
0001
0000
0001
0000
0100
0000
,
1000
1100
0001
0001
,
1000
1000
0001
1000
,
0000
0000
0010
0000
1000
0100
1000
0000
,
0010
1000
0100
0000
0001
0000
0100
0000
,
1000
1100
0001
1000
,
0100
0100
0010
0100
,
0000
0001
0000
0001
,
0000
1000
0000
1000
,
1000
0100
0010
0001
,
0001
0100
0001
0100
,
0000
0010
0000
0010
,
0000
0100
0000
0100
,
0001
0010
0100
1000
,
1000
0010
1000
0100
0000
0000
0000
0000
,
0001
0001
1000
1000
,
0001
0100
0001
0100
0000
0000
0000
0000
,
0001
0001
1000
1000
,
1010
0011
0001
0100
,
1000
1000
0001
0001
,
1000
0010
1000
0010
0000
0000
0000
0000
,
0010
0000
0010
0000
,
0001
0010
0100
1000
0000
0000
0000
0000
,
0001
1001
0001
1001
,
0100
0100
0010
0010
,
1000
1001
0001
1001
,
1000
0001
1000
0100
,
0001
0001
1000
1000
,
0001
0010
0001
0010
0000
0000
0000
0000
,
0001
0001
1000
1000
,
1010
0011
0101
1100
,
0100
0100
0010
0010
,
1000
0010
1000
0100
0000
0000
0000
0000
,
0010
0000
0010
0000
,
1000
0010
0100
0001
0000
0000
0000
0000
,
0010
0010
0100
0100
,
0001
0010
0001
0010
0000
0000
0000
0000
,
0100
0100
0010
0010
,
0010
0001
0100
0000
0010
1000
0100
0000
,
0001
0101
1100
0100
,
1000
0010
1000
0100
0000
0000
0000
0000
,
0100
0000
0100
0000
,
1000
0100
0010
0001
0000
0000
0000
0000
,
0110
0000
0000
0000
;

//---------------dance-single - ----------------
#NOTES:
     dance-single:
     :
     Hard:
     10:
     :
0000
0000
0000
0000
,
0000
0000
0000
0000
,
0000
0000
0000
0000
,
0000
0000
0000
0000
,
0000
0000
0000
0000
,
0010
0001
0100
0000
0100
0100
0000
1000
,
0000
0001
0010
0000
0010
0001
0100
0010
,
0001
1000
0100
0000
1000
1000
0000
0010
,
0000
0100
0001
0010
0100
0000
0000
0000
,
0000
0000
1100
0000
0001
0010
0001
0000
,
1000
0100
1000
0001
0010
0100
1000
0000
,
1000
0100
1000
0000
0001
0100
0001
0000
,
0001
0010
0001
0000
1000
0010
1000
0000
,
0000
0000
1001
0000
0010
0100
0010
0000
,
1000
0100
0010
0001
0100
0010
1000
0000
,
0001
0100
0001
0000
0010
1000
0010
0000
,
0001
0010
0001
0000
1000
0100
1000
0000
,
0000
0000
0010
0010
1000
0001
1000
0100
,
0000
0000
0001
0001
0100
0010
1000
0000
,
1000
0110
0100
0101
,
1100
1010
0011
0101
,
0000
0000
0100
0100
0010
0001
0100
1000
,
0000
0000
1000
1000
0100
0010
0001
0000
,
0011
1001
1100
0110
,
0001
0010
0100
1001
0000
0000
0000
0000
,
1000
0001
0100
0000
0001
1000
0100
0000
,
1000
0100
0010
0001
0000
0000
0001
0000
,
0010
0001
1000
0000
0100
0001
0010
0000
,
0010
0001
0010
0001
1000
0100
1000
0100
,
0010
0001
0100
0000
0010
1000
0001
0000
,
0001
0010
0100
1000
0000
1000
0100
0100
,
0000
0000
0000
0000
0000
0001
0100
0000
,
0001
0110
0100
1001
0000
0000
0000
0000
,
0100
0001
0010
0000
0010
0010
0000
1000
,
0000
0001
0010
0000
0010
0001
0100
0010
,
1000
0001
0010
0000
0001
0001
0000
0010
,
0000
0100
0001
0010
0100
0000
0000
0000
,
1000
0100
0001
0000
1000
0100
0001
0000
,
0001
0010
0100
1100
0000
0000
1010
0000
,
1000
0001
0100
0000
0010
0001
0100
0000
,
1000
0010
1000
0010
0100
0001
0100
0001
,
0010
0001
0100
0000
0001
0010
1000
0000
,
1000
0100
0010
0001
0000
0001
0100
0110
,
0000
0000
0000
0000
0000
0010
0010
0000
,
0001
0010
0100
0110
0000
0000
0000
0000
,
1000
0001
0100
0001
1000
0001
0100
0001
,
1000
0100
0010
0011
0000
0000
0001
0000
,
0001
1000
0100
1000
0001
1000
0100
1000
,
0001
0010
0001
0010
0100
1000
0100
1000
,
1000
0001
0100
0001
1000
0001
0100
0001
,
0001
0010
0100
1100
0000
1000
0100
0110
,
0000
0000
0000
0000
0000
0100
0100
0000
,
0001
0110
0100
1001
0000
0000
0000
0000
,
0110
0000
0000
0000
;

//---------------dance-single - ----------------
#NOTES:
     dance-single:
     :
     Challenge:
     13:
     :
0000
0000
0000
0000
,
0000
0000
0000
0000
,
0000
0000
0000
0000
,
0000
0000
0000
0000
,
0000
0000
0000
0000
,
0010
0000
1100
0000
0011
0100
0010
1000
,
0100
0000
0001
0000
0001
0000
0000
0000
0010
0100
0010
0100
0010
0100
0010
0000
,
0001
0000
0101
0000
1010
0100
1000
0010
,
0100
0000
0001
0000
0001
0000
0000
0000
1001
0000
0100
0010
0100
0010
0100
0010
,
0100
0001
1000
0000
0001
1000
0100
0000
,
0010
0010
0001
0100
0001
1000
0100
0000
,
0010
0001
0010
0000
1001
0000
0000
0000
0100
1000
0100
0000
0011
0000
0000
0000
,
1000
0010
1000
0000
0110
0000
0000
0000
0001
0100
0001
0000
1010
0000
0000
0000
,
0100
1000
0001
1000
0010
0001
0100
0000
,
0001
0001
0010
0100
1000
0010
1000
0000
,
0100
1000
0100
0000
1100
0000
0000
0000
0001
0100
0001
0000
0101
0000
0000
0000
,
0010
1000
0010
0000
0101
0000
0000
0000
0001
0010
0001
0000
1100
0000
0000
0000
,
0010
0000
1000
0100
1000
0010
0001
1000
,
0100
0000
0010
0001
0100
0010
1000
0001
,
0010
1000
0010
0001
0100
0010
1000
0000
,
0001
0000
0100
0000
0010
0000
1000
0000
0100
0000
0010
0000
0001
1000
0001
1000
,
0001
0000
1000
0100
0001
0010
0001
0100
,
1000
0000
0010
1000
0100
0001
1000
0010
,
0100
1000
0100
0001
0010
0100
1000
0000
,
1100
0000
0110
0000
0011
0000
0101
0000
0000
0000
0000
0000
1000
0001
1000
0001
,
1000
0100
0001
0100
1000
0010
0001
0010
,
1000
0100
0001
0010
0000
0100
0100
0010
,
0001
0100
0010
0001
0010
1000
0100
0000
,
1100
1000
1010
0010
0110
0100
0101
0001
,
0010
0100
0001
0100
1000
0010
1000
0001
,
0100
1000
0100
0001
0000
0010
0010
0001
,
1000
0100
0010
0001
0000
0100
0010
0100
,
0101
0000
0110
0000
1010
0000
1100
0000
0000
0000
0000
0000
0001
0010
0001
0010
,
0001
0000
1001
0000
0110
1000
0100
0001
,
0010
0000
0100
0000
0100
0000
0000
0000
1000
0001
1000
0001
1000
0001
1000
0000
,
0100
0000
0011
0000
0101
0010
1000
0100
,
0001
0000
0010
0000
0010
0000
0000
0000
1001
0000
0000
0000
0100
0010
0100
0010
,
0100
0001
0010
0001
0100
1000
0010
1000
,
0001
0010
1000
0100
0000
1000
1000
0001
,
0100
1000
0100
0010
0100
0001
0010
0000
,
0011
0010
0110
0100
1100
1000
1010
0001
,
0100
0010
1000
0100
0001
0100
0010
0001
,
0100
0010
1000
0001
0000
0010
0010
0100
,
1000
0010
0001
1000
0010
1000
0100
0010
,
0011
0000
0110
0000
1100
0000
1001
0000
0000
0000
0000
0000
0100
0001
0100
0001
,
0100
0010
1000
0001
0010
0100
0010
0001
,
0100
0010
1000
0001
1000
0100
0010
0001
,
0100
1000
0100
0001
0100
1000
0100
0010
,
0110
0100
0101
0001
0011
1000
1100
0010
,
0001
0100
0010
0100
1000
0100
0001
1000
,
0100
0010
1000
0010
0001
1000
0001
0100
,
0010
1000
0100
0010
0001
1000
0001
0100
,
0110
0000
1010
0000
1001
0000
0011
0000
0000
0000
1000
0001
1000
0001
1000
0001
,
0100
0000
0000
0000
;

//---------------dance-double - ----------------
#NOTES:
     dance-double:
     :
     Easy:
     6:
     :
00000000
00000000
00000000
00000000
,
00000000
00000000
00000000
00000000
,
00000000
00000000
00000000
00000000
,
00000000
00000000
00000000
00000000
,
00000000
00000000
00000000
00000000
,
00100000
00000000
00100000
00000000
,
00001000
00000000
00000000
00000000
,
00000100
00000000
00010000
00000000
,
00100000
00000000
00000000
00000000
,
00100000
10000000
01000000
00010000
,
00000010
00000100
00000001
00001000
,
00000001
00001000
00000001
00001000
,
00000100
00000010
00000100
00000010
,
00000100
00001000
00001000
00000100
,
00010000
00010000
00001000
01000000
,
00100000
01000000
00100000
01000000
,
00010000
00100000
00010000
00100000
,
00001000
00000000
00000000
00000000
,
00000100
00000000
00000000
00000000
,
00000010
00001000
00010000
01000000
,
00100000
00100000
01000000
01000000
,
00010000
00000000
00000000
00000000
,
10000000
00000000
00000000
00000000
,
01000000
00010000
00001000
00000010
,
00000001
00000001
00001001
00000000
,
00010000
00001000
00010000
00001000
,
00100000
01000000
10010000
00000000
,
00001000
00010000
00001000
00010000
,
00000100
00000100
00000100
00010000
,
00100000
10000000
00100000
10000000
,
00010000
00010000
01000000
01000000
,
10010000
00000000
00000000
00000000
,
00010000
01000000
10010000
00000000
,
00100000
00000000
00100000
00000000
,
10000000
00000000
00000000
00000000
,
01000000
00000000
01000000
00000000
,
00010000
00000000
00100000
00000000
,
10000000
00100000
10000000
00100000
,
01000000
01000000
01000000
00010000
,
00001000
00000010
00001000
00000010
,
00000001
00000001
00000100
00001000
,
00010000
00010000
00001000
00001000
,
01000000
01000000
01000000
00100000
,
01100000
00000000
00000000
00000000
,
01000000
00100000
10010000
00000000
,
00001000
00010000
00001000
00010000
,
00000010
00000100
00000001
00000000
,
00001000
00000001
00001000
00010000
,
00100000
00100000
01000000
00010000
,
00001000
00000010
00000100
00000010
,
00001000
00000001
00001000
00000000
,
00000100
00000000
00000100
00000000
,
00001000
00000100
00001001
00000000
,
00000110
00000000
00000000
00000000
;

//---------------dance-double - ----------------
#NOTES:
     dance-double:
     :
     Medium:
     8:
     :
00000000
00000000
00000000
00000000
,
00000000
00000000
00000000
00000000
,
00000000
00000000
00000000
00000000
,
00000000
00000000
00000000
00000000
,
00000000
00000000
00000000
00000000
,
00000010
00000010
00000100
00000100
,
00000010
00000100
00000010
00001000
,
01000000
10000000
00010000
10000000
,
00010000
10000000
01000000
00000000
,
00011000
00000000
00000010
00000000
00000001
00000100
00000001
00000000
,
00000010
00001000
00010000
00000000
10000000
00000000
01000000
00000000
,
00100000
10000000
01000000
00000000
00100000
00000000
00001000
00000000
,
00010000
00000100
00000010
00000000
00000001
00000000
00000100
00000000
,
00000010
00000000
00000110
00000000
00001000
00010000
01000000
00000000
,
10000000
00010000
01000000
00000000
00010000
00000000
00001000
00000000
,
00000010
00001000
00000100
00000000
00010000
00000000
00001000
00000000
,
00001000
00010000
01000000
00000000
10000000
00000000
01000000
00000000
,
00100000
00000000
00100000
00000000
01000000
00001000
00010000
00000000
,
00001000
00000000
00001000
00000000
00001000
00000010
00000001
00000000
,
00000100
00000010
00010000
00001000
,
01000000
01000000
00100000
10000000
,
00010000
00000000
00010000
00000000
00010000
00001000
00000010
00000000
,
00001000
00000000
00001000
00000000
00000001
00000100
00001000
00000000
,
00010000
00001000
01000000
00100000
,
10000000
00010000
10000000
00010000
00000000
00000000
00000000
00000000
,
10000000
10000000
00010000
00010000
,
01000000
00100000
01000000
00100000
00000000
00000000
00000000
00000000
,
00010000
00010000
10000000
10000000
,
00010000
01000000
00001000
00010000
00001000
00010000
00000100
00000000
,
00001000
00001001
00010000
00011000
,
00001000
00010000
00100000
01000000
00000000
00000000
00000000
00000000
,
01000000
00000000
00000000
00000000
,
00100000
00001000
00010000
00001000
00000000
00000000
00000000
00000000
,
00000010
00000010
00000100
00000100
,
00000001
00001000
00010000
10000000
,
01000000
01000000
00100000
00100000
,
00010000
01000000
01100000
00000000
,
10000000
10000000
00010000
00010000
,
00100000
00001000
00010000
00001000
00000000
00000000
00000000
00000000
,
00000010
00000010
00000100
00000100
,
00001000
00000100
00010000
00001000
00010000
00001000
01000000
00000000
,
10000000
11000000
00010000
01010000
,
10000000
00100000
01000000
00010000
00000000
00000000
00000000
00000000
,
00010000
00010000
00010000
00010000
,
01000000
00010000
00100000
01000000
00000000
00000000
00000000
00000000
,
00011000
00000000
00011000
00000000
00000001
00000010
00000001
00000000
,
00001000
00000010
00010000
00001000
00000000
00000000
00000000
00000000
,
01000000
00011000
00000010
00011000
,
00001000
00010000
00001000
00010000
00001000
00010000
00001000
00010000
,
00000010
00000010
00010000
00010000
,
00001000
00010000
00000100
00001000
00000000
00000000
00000000
00000000
,
00000001
00000001
00000001
00000001
,
00000010
00000100
00001000
00000001
00000000
00000000
00000000
00000000
,
00000110
00000000
00000000
00000000
;

//---------------dance-double - ----------------
#NOTES:
     dance-double:
     :
     Hard:
     10:
     :
00000000
00000000
00000000
00000000
,
00000000
00000000
00000000
00000000
,
00000000
00000000
00000000
00000000
,
00000000
00000000
00000000
00000000
,
00000000
00000000
00000000
00000000
,
00001000
00010000
00000010
00000000
00000100
00000010
00000000
00001000
,
00000000
00001000
00000010
00000100
00000001
00001000
00000100
00010000
,
00001000
00100000
00001000
00000000
00010000
00010000
00000000
00100000
,
00000000
01000000
00100000
00000000
01100000
00000000
00000000
00000000
,
10100000
00000000
00110000
00000000
00001000
00010000
00000100
00000000
,
00000010
00000100
00001000
00000000
00010100
00001000
00010000
00000000
,
00001000
00010000
00000100
00000000
00010000
00001000
01000000
00000000
,
00100000
01000000
00010000
01000000
00001000
00010000
00001000
00000000
,
00011000
00000000
00011000
00000000
00100000
10000000
01000000
00000000
,
00010000
10000000
01000000
00100000
00001000
00010000
00001000
00000000
,
00010000
00001000
00010000
00000000
00000010
00001000
00000010
00000000
,
00000001
00000010
00000100
00001000
00000100
00010000
00001000
00000000
,
00000000
00000000
00100000
00010000
00100000
00001000
00010000
00010000
,
00000000
00000000
00001000
01000000
00100000
10000000
01000000
00000000
,
00100000
00010000
10000000
01000000
,
10010000
01100000
00001000
00011000
,
00000000
00000000
00000010
00000100
00000010
00001000
00000100
00000100
,
00000000
00000000
00000001
00000010
00000100
00000010
00000001
00000000
,
00001000
00000100
00001000
00000000
00000110
00000000
00011000
00000000
,
00010000
00001000
01000000
00100000
00000000
00000000
00000000
00000000
,
10100000
01010000
11000000
00110000
,
00001000
01000000
00001000
00010000
00000100
00001000
00000010
00000000
,
00001010
00000011
00000101
00001100
,
00010000
00000100
00010000
00001000
01000000
00100000
10000000
00000000
,
11000000
01010000
00110000
00011000
,
00001000
00010000
00000010
00001000
00000100
00000010
00000001
00000100
,
00000010
00000010
00000010
00000010
,
00001000
00000100
00010000
00001000
00000000
00000000
00000000
00000000
,
00100000
01000000
00100000
00000000
01000000
00100000
00000000
00010000
,
00000000
00010000
00100000
01000000
10000000
00010000
01000000
00001000
,
00010000
00000010
00010000
00000000
00001000
00001000
00000000
00000010
,
00000000
00000100
00000010
00000000
00000110
00000000
00000000
00000000
,
00000101
00000000
00001010
00000000
00000001
00000100
00001000
00000000
,
00010000
00000100
00010000
00001000
00000000
00100000
10000000
00000000
,
10100000
00110000
01010000
11000000
,
00100000
00010000
01000000
00100000
10000000
00010000
01000000
00000000
,
00011000
00001001
00000011
00001100
,
00010000
00001000
01000000
00100000
01000000
00100000
10000000
00010000
,
10000000
01000000
01000000
01000000
,
10000000
01000000
00100000
10010000
00000000
00000000
00000000
00000000
,
00010000
01000000
00001000
00010000
00001000
01000000
00100000
10000000
,
01000000
10000000
00010000
01000000
00000000
00000000
00000000
00000000
,
00001000
00010000
00000100
00000010
00000001
00000100
00000010
00000000
,
00001010
00001001
00000101
00001001
,
00010000
00001000
00010000
00000100
00001000
00000100
00010000
00001000
,
01000000
00100000
10000000
01000000
00000000
00000000
00000000
00000000
,
01000000
00000000
01000000
00000000
,
01000000
00001000
00010000
00011000
00000000
00000000
00000000
00000000
,
00000110
00000000
00000000
00000000
;

//---------------dance-couple - ----------------
#NOTES:
     dance-couple:
     :
     Medium:
     7:
     :
00000000
00000000
00000000
00000000
,
00000000
00000000
00000000
00000000
,
00000000
00000000
00000000
00000000
,
00000000
00000000
00000000
00000000
,
00000000
00000000
00000000
00000000
,
00100000
00100001
01000000
01000001
,
00000010
10000010
00000100
10000100
,
00010001
00010001
10001000
10001000
,
00010001
00010001
10001000
00010001
,
00110000
00000000
11000001
00000000
00100000
10000000
00100001
00000000
,
00000011
00000000
10001100
00000000
00000010
00001000
10000010
00000000
,
00100010
01000100
00100010
01000100
,
10001000
00010001
10001000
00010001
,
00000101
00000000
00101100
00000000
00001000
00000010
00101000
00000000
,
01010010
00000000
11000000
00000000
10000010
00100000
10000000
00000000
,
10000000
01000000
10000000
00000000
00001000
00000100
00001000
00000000
,
00010000
00100000
00010000
00000000
00000001
00000010
00000001
00000000
,
00000000
00000000
00100010
00100010
10001000
00010001
10001000
01000100
,
00000000
00000000
00010001
00010001
01000100
00100010
10001000
00000000
,
11000000
10100001
00110000
01010001
,
00001100
10001010
00000011
10000101
,
10000000
00000000
01000001
01000000
00100000
00010000
01000001
00000000
,
00001000
00000000
10000100
00000100
00000010
00000001
10000100
00000000
,
00000010
00001001
00100000
10010000
,
00010001
00100010
01000100
10001000
00000000
00000000
00000000
00000000
,
10000000
10000000
00001000
00001000
,
10001000
01000100
10001000
01000100
00000000
00000000
00000000
00000000
,
00000001
00000001
00010000
00010000
,
00100010
00010001
00100010
00010001
10001000
01000100
10001000
01000100
,
00100000
00010000
01000000
00000000
00000010
00000001
00000100
00000000
,
10001000
00100010
10001000
00100010
00000000
00000000
00000000
00000000
,
00100010
00000000
00100010
00000000
,
00010001
00100010
01000100
10001000
00000000
00000000
00000000
00000000
,
00100000
00010000
01000001
00000000
01000000
01000000
00000001
10000000
,
00000000
00010000
00100001
00000000
00100000
00000000
01100001
00000000
,
00000010
00000001
10000100
00000000
00000100
00000100
10000000
00001000
,
00000000
00000001
10000010
00000000
00000010
00000000
10000110
00000000
,
00001000
00001000
10000000
10000000
,
10001000
01000100
10001000
01000100
00000000
00000000
00000000
00000000
,
00000001
00000001
00010000
00010000
,
00000110
01100000
00001001
10010000
,
10000000
01000000
00100000
00000000
00001000
00000100
00000010
00000000
,
00010001
00100010
01000100
10001000
00000000
00000000
00000000
00000000
,
01000000
00000000
00000100
00000000
,
00010001
00100010
01000100
10011001
00000000
00000000
00000000
00000000
,
10001000
00010001
01000100
00010001
10001000
00010001
01000100
00010001
,
10001000
01000100
00100010
00110011
00000000
00000000
00010001
00000000
,
00010001
10001000
01000100
10001000
00010001
10001000
01000100
10001000
,
00010000
00100000
10000000
01000000
00000001
00000010
00001000
00000100
,
10001000
00010001
01000100
00010001
10001000
00010001
01000100
00010001
,
00010001
00100010
01000100
11001100
00000000
00000000
00000000
00000000
,
00001001
00000000
10010000
00000000
,
00010001
01100110
01000100
10011001
00000000
00000000
00000000
00000000
,
01100110
00000000
00000000
00000000
;

//---------------dance-solo - ----------------
#NOTES:
     dance-solo:
     :
     Easy:
     3:
     :
000000
000000
000000
000000
,
000000
000000
000000
000000
,
000000
000000
000000
000000
,
000000
000000
000000
000000
,
000000
000000
000000
000000
,
000001
000000
000000
000000
,
000001
000000
000000
000000
,
010000
000000
000000
000000
,
010000
000000
000001
000000
,
000000
010000
000000
001000
,
000001
001000
000010
000000
,
000001
000000
000001
000000
,
000100
001000
000100
001000
,
000000
000010
000000
100000
,
100000
001000
010000
000000
,
100000
000000
100000
000000
,
000001
100000
000010
010000
,
000010
000000
000001
000001
,
001000
000000
001000
001000
,
100000
000000
000001
000000
,
000100
010000
100000
001000
,
000001
000001
100000
000000
,
000010
000010
000001
000000
,
100000
000000
000001
000000
,
000100
000100
001000
001000
,
000100
000000
001000
000000
,
000010
000010
000010
100000
,
100000
000000
000001
000000
,
001000
001000
001000
001000
,
000010
000000
100000
000000
,
000100
000100
000100
001000
,
000100
000000
000010
000000
,
010000
010000
010000
000001
,
001000
000000
000000
000000
,
000001
000000
000000
000000
,
100000
000000
000000
000000
,
010000
000000
000100
000000
,
100000
100000
000010
000010
,
010000
000001
100000
000010
,
000100
000100
010000
010000
,
000010
000001
001000
100000
,
000001
000001
000100
000100
,
001000
000100
001000
010000
,
000010
000000
000001
000000
,
001000
001000
000100
000100
,
100000
100000
000010
000010
,
000100
100000
001000
000001
,
000010
000010
100000
100000
,
000001
001000
000001
100000
,
000100
000010
000100
010000
,
000100
000100
001000
001000
,
000100
000000
001000
000000
,
000001
000100
010000
000010
,
010010
000000
000000
000000
;

//---------------dance-solo - ----------------
#NOTES:
     dance-solo:
     :
     Medium:
     5:
     :
000000
000000
000000
000000
,
000000
000000
000000
000000
,
000000
000000
000000
000000
,
000000
000000
000000
000000
,
000000
000000
000000
000000
,
000100
000100
001000
001000
,
000100
000100
001000
001000
,
010000
010000
000010
000010
,
100000
100000
000001
001000
,
000000
000000
100000
000000
000100
100000
000100
000000
,
000010
000100
000010
000000
000001
000000
001000
000000
,
100000
101000
010000
000100
,
000010
000010
000001
100000
,
000000
000000
000100
000000
010000
000100
010000
000000
,
000100
100000
001000
000000
000001
000000
001000
000000
,
100000
101000
000010
010000
,
010000
010000
000010
000100
,
000000
000001
000000
000001
,
000000
100000
000000
100000
,
010000
000100
001000
000001
,
000001
001000
000001
001000
,
000000
000010
000000
000010
,
000000
100000
000000
100000
,
000001
000100
001000
100000
,
100000
000100
001000
000001
000000
000000
000000
000000
,
000010
000010
100000
100000
,
000001
001000
000001
001000
000000
000000
000000
000000
,
000010
000010
010000
010000
,
100100
000101
000001
001000
,
100000
100000
000010
000010
,
010000
000100
010000
000100
000000
000000
000000
000000
,
000100
000000
000100
000000
,
000001
010000
000100
100000
000000
000000
000000
000000
,
000010
000010
100000
100000
,
001000
001000
000100
000100
,
010000
010000
000001
000001
,
010000
000010
100000
001000
,
000001
000001
100000
100000
,
000010
000100
000010
000100
000000
000000
000000
000000
,
000010
000010
010000
010000
,
010100
000101
001001
101000
,
001000
001000
000100
000100
,
100000
000010
001000
100000
000000
000000
000000
000000
,
000100
000000
000100
000000
,
100000
000100
001000
000001
000000
000000
000000
000000
,
000100
000100
000010
000010
,
010000
000100
010000
000100
000000
000000
000000
000000
,
001000
001000
000100
000100
,
010000
000001
001000
000000
000010
100000
001000
000000
,
000010
001000
010000
001000
,
000001
010000
001000
000001
000000
000000
000000
000000
,
001000
000000
001000
000000
,
100000
000010
001000
100000
000000
000000
000000
000000
,
001100
000000
000000
000000
;

//---------------dance-solo - ----------------
#NOTES:
     dance-solo:
     :
     Hard:
     7:
     :
000000
000000
000000
000000
,
000000
000000
000000
000000
,
000000
000000
000000
000000
,
000000
000000
000000
000000
,
000000
000000
000000
000000
,
000100
000001
001000
000000
001000
001000
000000
010000
,
000000
000010
000010
000000
000100
000001
001000
000100
,
000001
100000
001000
000000
010000
010000
000000
000010
,
000000
001000
000001
000100
001000
000000
000000
000000
,
000000
000000
101000
000000
000010
000100
000010
000000
,
100000
001000
100000
000001
000100
001000
100000
000000
,
100000
001000
100000
000000
000001
001000
000001
000000
,
000001
000100
000010
000000
000100
010000
001000
000000
,
000000
000000
010010
000000
000100
001000
000100
000000
,
100000
001000
000100
000001
001000
000100
010000
000000
,
000010
000100
000010
000000
001000
100000
001000
000000
,
000001
000100
000001
000000
000010
010000
001000
000000
,
000000
000000
000100
000100
010000
000001
000100
001000
,
000000
000000
000001
000001
001000
000100
010000
000000
,
010000
001100
001000
001001
,
101000
100100
110000
000011
,
000000
000000
001000
001000
010000
000001
100000
000100
,
000000
000000
100000
100000
001000
000100
000001
000000
,
000110
010010
101000
001100
,
000001
000100
001000
100001
000000
000000
000000
000000
,
010000
000001
000100
000000
000010
100000
001000
000000
,
100000
001000
000100
000010
000000
000000
000001
000000
,
000100
000001
010000
000000
001000
100000
000010
000000
,
000100
010000
000100
010000
000001
001000
000001
001000
,
000100
100000
001000
000000
100000
000001
000100
000000
,
000010
000100
001000
100000
000000
100000
001000
001000
,
000000
000000
000000
000000
000000
000001
001000
000000
,
000001
001100
001000
100001
000000
000000
000000
000000
,
000100
100000
001000
000000
001000
001000
000000
000010
,
000000
010000
010000
000000
000100
100000
001000
000100
,
100000
000001
001000
000000
000010
000010
000000
010000
,
000000
001000
100000
000100
001000
000000
000000
000000
,
100000
001000
000001
000000
100000
001000
000001
000000
,
000001
000100
001000
101000
000000
000000
010100
000000
,
010000
000010
001000
000000
100000
000001
000100
000000
,
010000
000100
010000
000100
001000
000001
001000
000001
,
000100
000001
010000
000000
100000
000010
001000
000000
,
100000
001000
000100
000001
000000
000010
000100
001000
,
000000
000000
000000
000000
000000
000100
000100
000000
,
000001
001000
000100
010010
000000
000000
000000
000000
,
010000
000001
001000
000010
010000
000001
001000
000010
,
100000
001000
000100
000010
000000
000000
000001
000000
,
000010
100000
001000
010000
000010
100000
001000
010000
,
000001
000100
000001
000100
001000
100000
001000
100000
,
010000
000001
001000
000010
100000
000001
001000
000010
,
000010
000100
001000
101000
000000
100000
001000
000100
,
000000
000000
000000
000000
000000
000010
000010
000000
,
000001
001000
000100
100001
000000
000000
000000
000000
,
010010
000000
000000
000000
;
