#TITLE:WAKA LAKA;
#ARTIST:JENNY ROM vs ZIPPERS;
#BANNER:WAKA LAKA.png;
#BACKGROUND:WAKA LAKA-bg.png;
#JACKET:WAKA LAKA-jacket.png;
#MUSIC:WAKA LAKA.ogg;
#SAMPLESTART:66.35;
#SAMPLELENGTH:20;
#DISPLAYBPM:170;
#BPMS:0=168.554,4=169.996;
#BGCHANGES:0=WAKA LAKA.mp4=1=1=0=0=StretchNoLoop==CrossFade==,
;

//---------------dance-single - ----------------
#NOTES:
     dance-single:
     :
     Beginner:
     3:
     :
0000
0000
0000
0000
,
0000
0000
0000
0000
,
0000
0000
0000
0000
,
1000
0000
0000
0000
,
1000
0000
0000
0000
,
0100
0000
0100
0000
,
0010
0000
0000
0000
,
0001
0000
0000
0000
,
0100
0000
0100
0000
,
0001
0000
1000
0000
,
0010
0000
0010
0000
,
0100
0000
0100
0000
,
0001
0000
1000
0000
,
0001
0000
1000
0000
,
0010
0000
0010
0000
,
0100
0000
0100
0000
,
1000
0000
0001
0000
,
1000
0000
0001
0000
,
0000
1001
0000
0110
,
0000
1001
0000
0110
,
0000
1001
1001
1001
,
0000
0110
0110
0110
,
0000
0100
0000
0100
,
0000
0010
0000
0100
,
0000
0001
0000
1000
,
0000
0010
0000
0100
,
0000
0001
0000
1000
,
0000
0010
0000
0100
,
0000
0100
0000
0010
,
0000
1000
0000
0001
,
0001
0000
1000
0000
,
0001
0000
1000
0000
,
1000
0000
0001
0000
,
0010
0000
0100
0000
,
0100
0000
0010
0000
,
0010
0000
1000
0000
,
1000
0000
0001
0000
,
0001
0000
1000
1000
,
1000
0000
1001
0000
,
0010
0000
0110
0000
,
0001
0000
1001
0000
,
0100
0000
0110
0000
,
0001
0000
0001
0000
,
1000
0000
1000
0000
,
0010
0000
0100
0000
,
0001
0000
1000
0000
,
0010
0000
1001
0000
,
0010
0000
0010
0000
,
0100
0000
0100
0000
,
0001
0000
0001
0000
,
1000
0000
1000
0000
,
0010
0000
0010
0000
,
0100
0000
0010
0000
,
1000
0000
0001
0000
,
0100
0000
1001
0000
,
0010
0000
0001
0000
,
0100
0000
1000
0000
,
1000
0000
0001
0000
,
0001
0000
1000
0000
,
0010
0000
0010
0000
,
0100
0000
0010
0000
,
1000
0000
0001
0000
,
0001
0000
1000
0000
,
0100
0000
0010
0000
,
1000
1000
0000
0000
;

//---------------dance-single - ----------------
#NOTES:
     dance-single:
     :
     Easy:
     5:
     :
0000
0000
0000
0000
,
0000
0000
0000
0000
,
0000
0000
0000
0000
,
0001
0000
0010
0000
,
0001
0000
1000
0000
,
0100
0000
1001
0000
,
0010
0000
0001
0000
,
1000
0000
0010
0000
,
0100
0000
0001
0000
,
0100
1000
0110
0000
,
0010
0000
1000
0000
,
0100
0000
0001
0000
,
0100
0000
1000
0000
,
0100
0000
0001
0100
,
0010
0000
0010
0000
,
0100
0000
0010
0000
,
1000
0000
0001
0000
,
0100
0010
1001
0000
,
0010
0000
0010
0000
,
0001
0000
0001
0000
,
1000
0000
1000
0000
,
0010
0100
0110
0000
,
0010
1000
0010
0000
,
0100
0001
0100
0000
,
0100
0001
0100
0000
,
0010
0001
0010
0000
,
0010
0001
0010
0000
,
0100
1000
0100
0000
,
0100
0000
1001
0000
,
0100
0010
0100
0000
,
0010
0000
1000
0000
,
0110
0000
0001
0000
,
0110
0000
0010
0000
,
0110
0000
1000
0000
,
0010
0001
0010
0000
,
0110
0000
0001
0000
,
0100
0000
1000
0000
,
0001
0010
0100
0000
,
0010
0001
0010
0000
,
0001
0100
0001
0000
,
1000
0100
1000
0000
,
0100
1000
0010
0000
,
0010
1000
0010
0000
,
1000
0001
1000
0000
,
0010
0000
0100
0000
,
0001
0000
1000
0000
,
0010
0000
1001
0000
,
0010
0000
0001
0000
,
0100
0000
1000
0100
,
0100
0000
0001
0100
,
0100
0000
1000
0100
,
0010
0000
0010
0000
,
0100
0000
0010
0100
,
0001
0000
1000
0000
,
0100
0010
1001
0000
,
0010
0000
1001
0000
,
0100
0000
1001
0000
,
1000
1000
0100
0000
,
0001
0001
0010
0000
,
0010
0000
0010
0000
,
0100
0000
0010
1000
,
0100
0000
0010
0001
,
0100
0000
0010
1000
,
0100
0000
0010
0001
,
0100
0010
0000
0000
;

//---------------dance-single - ----------------
#NOTES:
     dance-single:
     :
     Medium:
     9:
     :
0000
0000
0000
0000
,
0000
0000
0000
0000
,
0000
0000
0000
0000
,
0010
0001
0010
0000
,
1000
0100
1000
0000
,
1000
0100
0010
0000
,
0010
0001
0010
0001
,
1000
0100
1000
0100
,
0001
0100
1000
0000
0001
0000
1000
0000
,
0001
0100
1001
0000
,
1010
0100
0200
0300
,
1000
1000
0010
0101
,
0001
0100
0001
0000
0010
0000
0100
0000
,
1000
0100
1000
0000
0010
0000
1001
0000
,
0011
0100
0200
0300
,
1000
1000
0010
0101
,
1000
0100
1000
0000
0100
0000
0001
0000
,
1100
0001
0220
0330
,
0010
1000
0010
1000
,
0001
0100
0001
0100
,
2020
3030
0202
0303
,
1001
1001
2002
3003
,
0110
0000
0001
0000
0010
0001
0100
0000
,
1100
0000
0010
0002
0000
0000
1003
0000
,
0101
0000
0010
2000
0000
0000
3001
0000
,
0110
0000
0001
2000
0000
0000
3100
0000
,
1001
0000
0110
0000
0001
0010
0100
0000
,
1100
0000
0010
0200
0000
0000
0300
0001
,
0000
1001
0101
0101
,
1001
1010
1100
0000
,
0110
0000
1001
0000
0010
0001
0100
0000
,
2200
0000
3300
0000
1000
0100
0000
0000
,
0202
0000
0303
0000
0000
0001
0010
0000
,
0220
0000
0330
0000
0000
0010
0100
0000
,
1001
0000
0100
0000
0001
0010
0100
0000
,
1100
0000
0010
0200
0000
0000
0300
0001
,
0000
0010
0101
0011
,
0110
1100
1001
0000
,
0022
0000
0000
0000
0033
0001
1000
0000
,
0220
0000
0000
0000
0330
0010
0001
0000
,
2200
0000
0000
0000
3300
1000
0001
0000
,
0101
0000
0001
0010
0000
0100
1000
0000
,
2020
0000
0000
0000
3030
1000
0001
0000
,
0220
0000
0000
0000
0330
0000
0000
0001
,
1000
0100
0001
0100
,
1100
0001
1010
0100
,
1001
0100
1001
0000
,
1010
0100
0011
0100
,
1000
0100
1000
0000
0010
0000
0101
0000
,
0001
0100
0001
0000
0010
0000
1100
0000
,
1000
0100
1000
0000
0010
0000
1001
0000
,
1010
0100
0011
0100
,
1000
0100
1000
0000
0010
0000
1100
0000
,
0001
0100
0001
0000
0010
0000
0101
0000
,
1100
0001
0110
0000
,
1010
0100
0011
0100
,
1000
0100
1000
0000
0010
0000
1100
0000
,
0001
0100
0001
0000
0010
0000
0101
0000
,
1000
0100
1000
0000
0010
0000
1001
0000
,
1010
0100
0011
0100
,
1000
0100
1000
0000
0010
0000
0001
0000
,
1000
0100
1000
0000
0010
0000
0001
0000
,
1000
0100
1000
0000
0010
0000
0001
0000
,
1000
0100
1000
0000
0100
0000
0001
0000
,
1100
0000
0001
0100
0000
0000
0000
0000
;

//---------------dance-single - ----------------
#NOTES:
     dance-single:
     :
     Hard:
     13:
     :
0000
0000
0000
0000
,
0000
0000
0000
0000
,
0000
0000
0000
0000
,
0001
0000
0000
0000
0010
0000
0000
0000
0100
0000
0000
0010
0100
0000
0000
0000
,
1000
0000
0000
0000
0001
0000
0000
0000
0100
0000
0000
0001
0100
0000
0000
0000
,
0001
1000
0100
0000
,
0010
0000
0000
0000
1000
0000
0000
0000
0001
0000
0000
1000
0001
0000
0000
0000
,
1000
0000
0000
0000
0010
0000
0000
0000
0100
0000
0000
0010
0100
0000
0000
0000
,
0001
0000
0100
0000
0001
0000
0000
0010
0000
0001
0000
0100
0000
0000
0001
0000
,
1000
0000
0100
0000
1000
0000
0000
0100
0000
0000
0000
0000
0000
0000
0000
0000
,
1010
0000
0101
0000
1100
0000
0001
1000
,
0010
0100
0001
0100
0011
0000
0101
0000
,
0001
0100
1000
0100
0101
0000
1100
0000
,
1000
0100
0001
0100
0011
0000
0101
0000
,
0011
0000
1100
0000
0101
0000
0010
1000
,
0001
0100
1000
0100
0110
0000
1100
0000
,
1000
0001
0100
0010
1010
0000
1100
0000
,
1001
0011
1100
0000
,
0001
1000
0001
0100
0001
1000
0001
0100
,
0010
1000
0010
0100
0010
1000
0010
0100
,
0010
1000
0001
1000
0010
1000
0001
1000
,
0001
0100
1000
0100
1001
0000
0010
1000
,
0010
1000
0010
1000
0001
0010
0001
0100
,
1001
0000
0001
1000
0100
0100
0010
0000
,
0011
0000
0010
0001
1000
0100
0010
0000
,
0110
0000
0001
1000
0000
0100
1000
0001
,
0010
0001
0010
0001
1000
0010
1000
0100
,
1001
0000
0001
1000
0010
1000
0100
0110
,
0000
0001
0010
0000
1100
0000
0011
0000
,
0101
0000
1000
0000
0100
1000
0001
0100
,
0010
1000
0010
0000
0001
0010
0001
0100
,
1001
0000
0001
1000
0100
0001
0000
0000
,
0011
0000
0001
1000
0000
1000
0001
0000
,
0110
0000
0001
1000
0000
0100
1000
0001
,
0010
0001
0010
0001
1000
0010
1000
0100
,
1001
0000
0001
1000
0010
0010
0100
0101
,
0000
0001
0010
0001
0101
0000
0110
0000
,
1010
0000
1100
0000
1001
0010
0001
0100
,
1001
0010
1000
0100
1001
0010
0001
0100
,
1001
0010
1000
0100
1001
1000
0001
0100
,
0101
0001
1000
0100
1100
1000
0001
0100
,
0101
0000
1000
0010
0000
0100
0001
0010
,
1001
0010
1000
0100
1001
0010
0001
0100
,
1001
0010
1000
0100
1001
0000
0000
0010
,
1000
0001
1000
0100
,
0101
1010
1100
0011
,
0110
1001
0110
0000
,
1010
0000
0101
0000
1100
0000
0001
1000
,
0010
0100
0001
0100
0011
0000
0101
0000
,
0001
0100
1000
0100
0101
0000
1100
0000
,
1000
0100
0001
0100
1100
0000
0101
0000
,
0011
0000
1100
0000
0101
0000
1000
0010
,
0100
0010
1000
0100
1010
0000
1100
0000
,
1000
0001
0100
0010
1010
0000
1100
0000
,
1001
0011
1100
0000
,
1010
0000
0101
0000
1100
0000
0001
1000
,
0010
0100
0001
0100
0011
0000
0101
0000
,
0001
0100
1000
0100
0101
0000
1100
0000
,
1000
0100
0001
0100
1100
0000
0101
0000
,
0011
0000
1100
0000
0101
0000
0010
1000
,
0001
0100
0010
0100
1010
0000
1100
0000
,
1000
0001
0100
0010
1010
0000
1100
0000
,
1000
0001
0100
0010
1010
0000
1100
0000
,
1000
0100
0001
0100
0110
0000
1100
0000
,
1001
0000
0110
0110
0000
0000
0000
0000
;

//---------------dance-single - ----------------
#NOTES:
     dance-single:
     :
     Challenge:
     17:
     :
0000
0000
0000
0000
,
0000
0000
0000
0000
,
0000
0000
0000
0000
,
0010
0000
0000
0000
1100
0000
0000
0000
1001
0000
0001
0100
0010
1000
0100
0010
,
0001
0000
0000
0000
0101
0000
0000
0000
0011
0000
0010
0100
1000
0010
0100
0001
,
1000
0000
0000
0000
1001
0000
0000
0000
0110
0000
0010
1000
0001
0100
0001
0010
,
0100
0000
0000
0000
1010
0000
0000
0000
0101
0000
0010
1000
0001
1000
0100
0010
,
0001
0000
0000
0000
0011
0000
0000
0000
1100
0000
1000
0001
0100
0010
1000
0010
,
2000
0000
0001
0000
3001
0000
1000
0010
0000
0100
0000
0210
0000
0310
0100
0010
,
1000
0000
0001
0000
1002
0000
0000
0023
0000
0031
0100
0010
1000
0100
1000
0010
,
0100
0000
0101
0000
0101
0000
0101
0001
,
1000
0000
0001
0000
0010
0000
0001
0000
1000
0010
0100
0000
1001
0000
0000
0000
,
0001
0000
0100
0000
0010
0000
0100
0000
0001
1000
0010
0000
1100
0000
0000
0000
,
0010
0000
1000
0000
0100
0000
1000
0000
0010
0100
0001
0000
0110
0000
0000
0000
,
1010
0000
1010
0000
1010
0000
1010
0100
,
1000
0000
0001
0000
0010
0000
0001
0000
0100
0010
1000
0000
0101
0000
0000
0000
,
0010
0000
1000
0000
0100
0000
0010
0000
0001
1000
0100
0000
1100
0000
0000
0000
,
1001
0000
0000
0000
0110
0000
0000
0000
1001
0000
0001
0100
0001
1000
0100
1000
,
0010
0100
0010
0100
0001
1000
0001
1000
,
0100
0010
0100
0010
1000
0001
1000
0001
,
0011
0011
0101
0101
1010
1010
1100
1100
,
1001
0000
1001
0000
0110
0000
0110
0000
1000
0100
0010
0001
0100
0001
1000
0010
,
1000
0100
0010
0001
1000
0100
0010
0001
,
0101
0000
0100
0010
1000
0000
1100
0000
0000
1000
0001
0100
0001
0000
0000
0000
,
1010
0000
1000
0100
0010
0000
0011
0000
0000
0001
1000
0001
0010
0000
0000
0000
,
1001
0000
1000
0001
0010
0000
0110
0000
0000
0100
1000
0001
0100
0000
0010
0000
,
0100
0001
1000
0010
0100
0001
1000
0010
,
1100
0000
1000
0100
0001
0000
0011
0000
0000
0010
0001
0010
0001
0000
2001
0000
,
0010
3020
0230
0301
0012
1003
1010
0000
,
0110
0000
0010
0000
1000
0000
0010
0000
0100
0000
0001
1000
0001
0100
0001
1000
,
0010
0100
0001
1000
0010
0100
0001
1000
,
1100
0000
1000
0010
0100
0000
1001
0000
0000
0001
1000
0010
0100
0000
0000
0000
,
1010
0000
1000
0010
0100
0000
0101
0000
0000
0010
0100
0001
1000
0000
0000
0000
,
0110
0000
0100
0001
0010
0000
0011
0000
0000
0001
1000
0100
1000
0000
0010
0000
,
0001
1000
0010
0100
0001
1000
0010
0100
,
0101
0000
0001
1000
0100
0000
0110
0000
0000
0010
0001
1000
0010
0000
0210
0000
,
0001
0302
2003
3001
1020
0130
1001
0000
,
0110
0000
0100
0000
0001
0000
0100
0000
0010
0000
1000
0010
1000
0001
1000
0010
,
1000
0000
0001
0100
0001
0000
1000
0000
0010
0000
0100
1000
0100
0000
0010
0000
,
0001
0000
0100
0010
0100
0000
0001
0000
1000
0000
0010
0001
0010
0000
1000
0000
,
0100
0000
1000
0010
1000
0000
0100
0000
0010
0000
0001
1000
0001
0000
0010
0000
,
1100
1010
0110
1001
0000
0110
0101
0011
,
1000
0000
0010
0100
0010
0000
1000
0000
0001
0000
0100
1000
0100
0000
0001
0000
,
0010
0000
0001
1000
0001
0000
0100
0000
0010
0000
0000
0000
0000
0000
1100
0000
,
1001
0001
0101
0100
0110
0010
1010
0000
,
1000
0100
1000
0100
1000
0100
1000
0100
0010
0001
0010
0001
0010
0001
0010
0001
,
1000
0100
0001
1000
0010
0001
1000
0100
0001
0000
0100
0010
0100
0010
0100
0010
,
0100
0000
0110
0000
0110
0000
0110
0001
,
0010
0000
0001
0000
1000
0000
0100
0000
1000
0010
0100
0000
1001
0000
0000
0000
,
0010
0000
0001
0000
0100
0000
0010
0000
1000
0100
0001
0000
1100
0000
0000
0000
,
0100
0000
0001
0000
0010
0000
0100
0000
1000
0010
1000
0000
0011
0000
0000
0000
,
1100
0000
1100
0000
1100
0000
1100
0010
,
0100
0000
0001
0000
0010
0000
0100
0000
1000
0001
0010
0000
0110
0000
0000
0000
,
0010
0000
0001
0000
0100
0000
1000
0000
0010
0100
0001
0000
1010
0000
0000
0000
,
0110
0000
0000
0000
1001
0000
0000
0000
0110
0000
1000
0010
1000
0001
0010
0001
,
1000
0000
0011
0000
0011
0000
0011
1000
,
0010
0100
0001
0100
0010
1000
0001
1000
0200
0000
1300
0000
1010
0000
0000
0000
,
0001
1000
0010
1000
0010
0100
0001
0100
0020
0000
1030
0000
1001
0000
0000
0000
,
0100
1000
0010
0100
0001
0010
0001
1000
0002
0000
0013
0000
0011
0000
0000
0000
,
1001
0000
1001
0000
1001
0000
1001
0010
,
1000
0100
0010
0001
1000
0100
0010
0001
2000
0000
3001
0000
1010
0000
0000
0000
,
0010
0100
0001
1000
0010
0100
0001
1000
0020
0000
0130
0000
0110
0000
0000
0000
,
0100
0001
0010
1000
0100
0001
0010
1000
0200
0000
0310
0000
0011
0000
0000
0000
,
0001
1000
0100
0010
0001
1000
0010
0100
0002
0000
1003
0000
1001
0000
0000
0000
,
2100
3010
1010
1001
0000
0000
0000
0000
;

//---------------dance-double - ----------------
#NOTES:
     dance-double:
     :
     Easy:
     4:
     :
00000000
00000000
00000000
00000000
,
00000000
00000000
00000000
00000000
,
00000000
00000000
00000000
00000000
,
01000000
00000000
00001000
00000000
,
00010000
00000000
00000010
00000000
,
00001000
00000000
00000100
00000000
,
00010000
00001000
00000000
00000000
,
00010000
00100000
00000000
00000000
,
01100000
00000000
00011000
00000000
,
00001000
00010000
00001000
00000000
,
00010000
00100000
00000000
00000000
,
10000000
10000000
00000000
00000000
,
01000000
01000000
00000000
00000000
,
00010000
00010000
00000000
00000000
,
00001000
00000010
00000000
00000000
,
00000001
00000001
00000000
00000000
,
00001000
00000000
00000010
00000000
,
00010000
00001000
00010000
00000000
,
01100000
00000000
00000000
00000000
,
00011000
00000000
00000000
00000000
,
00000110
00000000
00011000
00000000
,
00100000
00010000
00100000
00000000
,
00010000
00000000
10000000
00000000
,
00010000
00100000
00001000
00000000
,
00010000
00000010
00000100
00000000
,
00001000
00010000
00100000
00000000
,
00100000
00000000
10000000
00000000
,
00010000
00100000
00001000
00000000
,
00010000
00000100
00000010
00000000
,
00001001
00000000
00011000
00000000
,
00001000
00000000
00000010
00000000
,
00012000
00013000
00000000
00000000
,
00120000
00130000
00000000
00000000
,
02100000
03100000
00000000
00000000
,
10000000
00100000
10000000
00000000
,
10020000
10030000
00000000
00000000
,
01000000
00000000
00100000
00000000
,
00011000
00000000
00000100
00000000
,
00001002
00000000
00001003
00000000
,
00001020
00000000
00010030
00000000
,
00012000
00000000
00103000
00000000
,
00010000
10000000
00100000
00000000
,
20010000
00000000
30010000
00000000
,
00210000
00000000
00301000
00000000
,
00010000
00000000
00001000
00000000
,
00001100
00000000
00000001
00000000
,
00000010
00001000
00010000
00000000
,
00001000
00100000
00010000
00000000
,
10000000
10000000
00000000
00000000
,
01000000
01000000
00000000
00000000
,
00010000
00010000
00000000
00000000
,
00010000
00000010
00001000
00000000
,
00000001
00000001
00000000
00000000
,
00000100
00000000
00001000
00000000
,
00010000
00001000
00010000
00000000
,
00011000
00000000
00001010
00000000
,
00000001
00000000
00001001
00000000
,
00000100
00000000
00000110
00000000
,
00010000
00000000
00011000
00000000
,
00011000
00000000
00010000
00000000
,
10010000
00000000
00100000
00000000
,
00011000
00000000
00000010
00000000
,
00011000
00000000
00100000
00000000
,
00011000
00000000
00000010
00000000
,
00010000
00001000
00000000
00000000
;

//---------------dance-double - ----------------
#NOTES:
     dance-double:
     :
     Medium:
     7:
     :
00000000
00000000
00000000
00000000
,
00000000
00000000
00000000
00000000
,
00000000
00000000
00000000
00000000
,
00010000
00010000
00100000
00100000
,
10000000
10000000
01000000
01000000
,
00010000
00010000
00001000
00000000
,
00000010
00000010
00000001
00000001
,
00000100
00000100
00001000
00001000
,
00010000
01000000
00100000
00010000
,
01000000
00001000
00011000
00000000
,
00001000
00100000
00010000
00100000
,
00011000
00011000
00000010
00001000
,
00001100
00001100
00000001
00000100
,
00000101
00000101
00001000
00010000
,
00001000
00100000
00010000
00100000
,
00011000
00011000
00000010
00001000
,
00011000
01000000
00100000
00010000
,
00001000
00000010
00001000
00000000
,
00010000
00001000
00010000
00001000
,
00100000
01000000
00100000
01000000
,
10000000
01000000
10000000
01000000
,
00010000
00001000
00000010
00000000
,
00000001
00000000
00000010
00000000
00000001
00000100
00001000
00000000
,
00010000
00000000
00001000
00010000
00000000
00000000
00000000
00000000
,
00100000
00000000
00001000
00010000
00000000
00000000
00000000
00000000
,
00100000
00000000
00010000
01000000
00000000
00000000
00000000
00000000
,
10000000
00000000
00100000
00000000
10000000
01000000
00010000
00000000
,
00001000
00000000
00010000
00001000
00000000
00000000
00000000
00001000
,
00000000
00000011
00001000
00000010
,
00000100
00001000
00010000
00000000
,
10000000
00000000
00100000
00000000
10000000
01000000
00010000
00000000
,
00001000
00000000
00010000
00001000
00000000
00000000
00000000
00000000
,
00000010
00000000
00010000
00001000
00000000
00000000
00000000
00000000
,
00001010
00000000
00001000
00000100
00000000
00000000
00000000
00000000
,
00000001
00000000
00000010
00000000
00000001
00000100
00001000
00000000
,
00010000
00000000
00001000
00010000
00000000
00000000
00000000
00001000
,
00000000
00010000
00100000
00000000
10000000
00000000
01000000
00000000
,
11000000
00010000
01000000
00000000
,
10010000
01000000
00010000
00001000
,
00010100
00001000
00000100
00000010
,
00000101
00001000
00010000
00001000
,
00000100
00000000
00000001
00000010
00000000
00000000
00000100
00000000
,
00001001
00000100
00001000
00010000
,
00110000
01000000
10000000
00000000
,
00011000
00000000
00010000
00000100
,
00001100
00001100
00000001
00000001
,
00000110
00001010
00011000
00000000
,
00001000
00100000
00010000
00100000
,
00011000
00011000
00000010
00001000
,
00001100
00001100
00000001
00000100
,
00000101
00000101
00001000
00010000
,
00001000
00100000
00010000
00100000
,
00011000
00011000
00000010
00001000
,
00011000
01000000
00100000
00010000
,
00001000
00000010
00001000
00000000
,
00110000
00001000
00110000
00001000
,
00010000
00010000
00000010
00001001
,
00000100
00000100
00010000
00001000
,
01000000
01000000
00001000
00010000
,
00110000
01000000
10100000
01000000
,
00011000
00011000
00000010
00000100
,
00001000
01000000
00100000
00010000
,
00001000
01000000
00100000
00010000
,
00001000
01000000
00100000
00010000
,
00001000
00000000
00010000
00001000
00000000
00000000
00000000
00000000
;

//---------------dance-double - ----------------
#NOTES:
     dance-double:
     :
     Hard:
     11:
     :
00000000
00000000
00000000
00000000
,
00000000
00000000
00000000
00000000
,
00000000
00000000
00000000
00000000
,
01000000
00000000
00010000
00000000
00001000
00000000
00010000
00100000
,
00010000
00000000
00001000
00000000
00000010
00000000
00000001
00001000
,
00000100
00000010
00000001
00000000
,
00000001
00000000
00000010
00000000
00001000
00000000
00010000
00001000
,
00000100
00000000
00001000
00000000
00010000
00000000
00001000
00010000
,
00001000
01000000
00001000
00001000
00100000
00010000
00100000
00000000
,
00001000
00001000
00010000
00000000
00011000
00000000
00000000
00000000
,
00010010
00000000
00001010
00000000
00000001
00000000
00000100
00001000
,
00001000
00100000
00001000
00010000
00100000
00000000
01000000
00000000
,
00010000
01000000
00001000
01000000
00010000
00000000
01000000
00000000
,
00001000
00010000
00000010
00001000
00000010
00000000
00010000
00000000
,
00101000
00000000
00110000
00000000
10000000
00000000
01000000
00010000
,
00010000
00000010
00010000
00001000
00000010
00000000
00000100
00000000
,
00001000
00000001
00000100
00000010
00001000
00000000
00000100
00000000
,
00011000
00110000
01010000
00000000
,
00100000
00010000
10000000
01000000
00100000
00010000
10000000
01000000
,
00100000
00001000
00010000
00001000
00100000
00001000
00010000
00001000
,
00000010
00000001
00001000
00000100
00000010
00000001
00001000
00000100
,
00011000
00000000
00110000
00000000
10000000
00010000
01000000
00100000
,
01100000
00000000
10100000
00000000
00100000
10000000
00010000
01000000
,
00010000
00000000
00010000
00001000
00000000
00001000
00010000
00000000
,
00001010
00000000
00001000
00010000
00000000
00010000
00001000
00000000
,
00110000
00000000
00010000
00001000
00000000
00010000
00000100
00001000
,
00000001
00000000
00000011
00000000
00000001
00000010
00000100
00010000
,
00001000
00000000
00010000
01000000
00000000
10000000
00010000
10000000
,
00000000
01000000
00100000
00000000
01010000
00000000
00011000
00000000
,
00001010
00000001
00000100
00000000
,
00000110
00000000
00000011
00000000
00000010
00000001
00000100
00001000
,
00020000
00000000
00000000
00031000
00010000
00000000
00000000
00000000
,
00110000
00000000
00010000
00001000
00000000
00010000
10000000
00000000
,
01100000
00000000
00010000
00001000
00000000
00010000
00000100
00001000
,
00000001
00000000
00001100
00000000
00000001
00000010
00000100
00010000
,
00001000
00000000
00010000
01000000
00000000
10000000
00010000
10000000
,
00000000
00010000
00100000
00000000
01010000
00000000
00011000
00000000
,
00001010
00000000
00000001
00000000
00000100
00001000
00010000
00100000
,
10000000
00000000
00010000
00000000
10000000
01000000
00010000
00001000
,
00000010
00000000
00000001
00000000
00001000
00000001
00001000
00000100
,
00010000
00000000
00000100
00000000
00000010
00001000
00010000
01000000
,
10000000
00000000
00010000
00100000
00000000
00001000
00010000
00100000
,
10000000
00010000
10000000
01000000
10000000
01000000
00010000
00001000
,
00000010
00000001
00001000
00000100
00000010
00000000
00000000
00000001
,
00001000
00000100
00010000
01000000
,
12000000
03100000
00012000
00003100
,
00000021
00000130
00001100
00000000
,
00011000
00000000
01100000
00000000
00100000
00000000
01000000
00001000
,
00010000
00000010
00010000
00001000
00000010
00000000
00000100
00000000
,
00001000
00000100
00010000
00000100
00001000
00000000
00000100
00000000
,
00010000
00001000
00100000
00010000
00100000
00000000
00001000
00000000
,
00011000
00000000
00000100
00000000
00000010
00000000
00000100
00010000
,
00001000
01000000
00001000
00010000
00100000
00000000
01000000
00000000
,
00010000
10000000
01000000
00100000
00010000
00000000
01000000
00000000
,
00011000
00001010
00001100
00000000
,
00001020
00010030
00012000
00103000
,
00100000
00001000
00010000
00001000
00000010
00000000
00001001
00000000
,
00000010
00000100
00000001
00000100
00001000
00000000
00010000
00000000
,
00001000
01000000
00010000
01000000
00100000
00000000
00011000
00000000
,
00210000
00301000
00021000
00030010
,
00001000
00100000
00001000
00010000
00000010
00000000
00001001
00000000
,
00000001
00001000
00000100
00010000
00000010
00000000
00001000
00000000
,
00000001
00001000
00000100
00010000
00000010
00000000
00001000
00000000
,
00000001
00001000
00000100
00010000
00100000
00000000
10000000
00000000
,
01000000
00000000
00010000
00001000
00000000
00000000
00000000
00000000
;
