#TITLE:Virtuality;
#SUBTITLE:;
#ARTIST:VBirds;
#TITLETRANSLIT:;
#SUBTITLETRANSLIT:;
#ARTISTTRANSLIT:;
#GENRE:;
#CREDIT:;
#BANNER:Virtuality-bn.png;
#BACKGROUND:Virtuality-bg.png;
#LYRICSPATH:;
#CDTITLE:;
#MUSIC:Virtuality.ogg;
#OFFSET:1.600000;
#SAMPLESTART:58.983002;
#SAMPLELENGTH:20.000000;
#LASTBEATHINT:1.016267;
#SELECTABLE:YES;
#DISPLAYBPM:103.000000;
#BPMS:0.000000=103.000000
;
#STOPS:
;
#BGCHANGES:;
#KEYSOUNDS:;
#ATTACKS:;

//---------------dance-single - ----------------
#NOTES:
     dance-single:
     :
     Hard:
     11:
     0.466792,0.485706,0.526044,0.070814,0.308545,323.000000,271.000000,52.000000,7.000000,0.000000,0.000000,0.466792,0.485706,0.526044,0.070814,0.308545,323.000000,271.000000,52.000000,7.000000,0.000000,0.000000:
0000
0000
0000
0000
,
0000
0000
0000
0000
,
0000
0000
0000
0000
,
0000
0000
0000
0000
,
0000
0000
0000
0000
,
0000
0000
0000
0000
,
1001
0000
0000
0000
0010
1000
0010
1000
0010
0000
0100
0000
0100
0000
0000
0000
,
0110
0000
0000
0000
0001
0010
0001
0000
0100
0000
0100
0000
0100
0000
0000
0000
,
0010
0000
1000
0100
1000
0000
0001
0000
0200
0000
0000
0000
0300
0000
0010
0000
,
1010
0000
0000
0101
0000
0000
2100
0000
0001
0000
0000
0000
0100
0000
0001
0000
,
3001
0000
0010
0001
0100
0000
0010
0000
1010
0000
0000
0000
0101
0000
1000
0000
,
0001
0000
1000
0010
0100
0000
0001
0000
0101
0000
0000
0000
1100
0000
0000
0000
,
0001
0000
0010
0100
1000
0000
0010
0000
1010
0000
0000
0000
0011
0000
0000
0000
,
0100
0000
1000
0001
0100
0000
0010
0000
1010
0000
0000
0000
0101
0000
0100
0000
,
0010
0000
0100
0001
1000
0000
0001
0000
0011
0000
0000
0000
1100
0000
0010
0000
,
0100
0000
0001
0010
0100
0000
1000
0000
1001
0000
0000
0000
0110
0000
0000
0000
,
1000
0000
0100
0010
0001
0000
0100
0000
0110
0000
0000
0000
1001
0000
0000
0000
,
0001
0000
0100
0001
1000
0000
0010
0000
1010
0000
0000
0000
0011
0000
0100
0000
,
1000
0000
0000
0000
1001
0000
0000
0000
0001
0000
1000
0010
0000
0010
0100
0000
,
0001
1000
0001
0000
0100
0010
0000
1010
0000
1010
0000
1010
0000
0000
0100
0000
,
0001
0000
0000
0000
0011
0000
0000
0000
1000
0000
0000
0001
0000
0000
0100
0000
,
0010
1000
0010
0000
0100
0000
0001
0000
1000
0000
0100
0000
1000
0001
0000
0001
,
0200
0000
0000
0000
0300
0010
0000
1000
0000
0001
0000
0001
0000
0000
0000
0000
,
0010
0000
0001
0100
0000
0010
0000
0010
1000
0000
0100
1000
0001
0000
0000
0000
,
0110
0000
0000
0010
1000
0000
0200
0000
0000
1300
0001
0000
0000
0100
0000
0020
,
0000
0000
0000
1000
0000
0100
0000
1030
0001
0000
0010
0100
1000
0000
0000
0000
,
1001
0000
0000
0010
0100
0000
0001
0000
0100
0000
0010
0000
1000
0001
1000
0000
,
1100
0000
0000
0010
0001
0000
0100
0000
0001
0000
1000
0000
0010
0100
0010
0000
,
0101
0000
0000
0001
1000
0000
0100
0000
1000
0000
0001
0000
0100
0010
0100
0000
,
1010
0000
0000
0010
1000
0000
0100
0000
0010
0000
0001
0000
1000
0001
1000
0000
,
0110
0000
0000
0100
0010
0000
1000
0000
0001
0000
0100
0000
0001
0010
0001
0000
,
0011
0000
0000
0010
0100
0000
1000
0000
0001
0000
0100
0000
0010
0000
0000
0000
,
0100
0000
0001
1000
0001
0000
0010
0000
0200
0000
0000
0000
0300
0000
1000
0000
,
1100
0000
0000
0101
0000
0000
0012
0000
1000
0000
0000
0000
0100
0000
0000
0000
,
1003
0000
0001
0010
0100
0000
1000
0000
1010
0000
0000
0000
0101
0000
0010
0000
,
0100
0000
0010
1000
0001
0000
0010
0000
0011
0000
0000
0000
1001
0000
0000
0000
,
0100
0000
0001
0100
0010
0000
1000
0000
1100
0000
0000
0000
0101
0000
0000
0000
,
0010
0000
1000
0001
1000
0000
0100
0000
0010
0000
0011
0000
1100
0000
0001
0000
,
0100
0000
0010
1000
0001
0000
0010
0000
0011
0000
0000
0000
0101
0000
1000
0000
,
0001
0000
1000
0100
0010
0000
0001
0000
1001
0000
0000
0000
1010
0000
0000
0000
,
0100
0000
0010
1000
0001
0000
1000
0000
1100
0000
0000
0000
0011
0000
0000
0000
,
1000
0000
0010
0100
0001
0000
0000
0000
0110
0000
0000
0000
1001
0000
0000
0000
;

//---------------dance-single - ----------------
#NOTES:
     dance-single:
     :
     Medium:
     9:
     0.338171,0.380118,0.586742,0.080930,0.096104,234.000000,176.000000,58.000000,8.000000,0.000000,0.000000,0.338171,0.380118,0.586742,0.080930,0.096104,234.000000,176.000000,58.000000,8.000000,0.000000,0.000000:
0000
0000
0000
0000
,
0000
0000
0000
0000
,
0000
0000
0000
0000
,
0000
0000
0000
0000
,
0000
0000
0000
0000
,
0000
0000
0000
0000
,
1001
0000
0010
1000
0010
0100
0100
0000
,
0110
0000
0001
0010
0001
0100
0100
0000
,
0010
1000
0010
0100
0002
0000
0003
1000
,
0001
0000
0000
0010
0000
0000
0200
0000
0000
0000
0000
0000
0300
0000
1000
0000
,
0001
0000
0101
0000
1010
0000
0101
1000
,
0001
0011
1100
0011
,
0100
0110
1001
0110
,
1000
0000
1100
0000
0110
0000
0011
1000
,
0001
0000
0101
0000
1100
0000
0101
0010
,
0100
0110
1001
0110
,
0001
0011
1010
0011
,
0100
0000
0101
0000
1001
0000
1010
1000
,
0001
0000
0000
0000
0100
0000
0000
0000
0010
0000
0000
1000
0000
0000
0002
0000
,
0000
0000
0000
0000
0000
0103
0000
0100
0000
0100
0000
0100
0000
0000
0010
0000
,
1000
0000
0000
0000
0001
0000
0000
0000
1000
0000
0000
0100
0000
0000
0020
0000
,
0000
0000
0000
0000
0000
0000
0000
0000
0031
0000
1000
0000
0000
0010
0000
0100
,
0000
0000
0000
0000
0000
0001
0000
1000
0000
0001
0000
0100
0000
0000
0000
0000
,
0010
1000
0010
0100
0002
0000
2003
0000
,
3100
0000
0000
0000
1000
0000
0001
0000
0000
0000
0010
0000
0000
0001
0000
1000
,
0000
0000
0000
0010
0000
0100
0000
0010
0000
0000
0000
0000
0110
0000
0000
0000
,
1001
0000
1000
0100
0010
0000
0011
0000
,
1100
0000
0001
0100
1000
0010
0100
0000
,
0110
0000
0010
1000
0001
0000
0101
0000
,
1010
0000
1000
0100
0010
0001
0001
0000
,
1001
0000
0100
0001
0100
0010
1000
0000
,
0110
0000
0010
0100
0010
1000
0001
0000
,
0010
0001
0010
0100
2000
0000
3000
0001
,
1000
0000
0000
0010
0000
0000
0200
0000
0000
0000
0000
0000
0300
0000
0000
0000
,
0100
0000
0101
0000
1010
0000
0101
1000
,
0001
0011
1100
0011
,
0010
1001
0110
1001
,
1000
0000
1100
0000
1010
0010
0010
1000
,
0001
0000
0011
0000
1010
0000
0011
0100
,
1000
1100
0101
1100
,
0010
0110
1001
0110
,
1000
1100
1010
1001
;

//---------------dance-single - ----------------
#NOTES:
     dance-single:
     :
     Easy:
     6:
     0.192208,0.232294,0.161860,0.020232,0.000000,133.000000,117.000000,16.000000,2.000000,0.000000,0.000000,0.192208,0.232294,0.161860,0.020232,0.000000,133.000000,117.000000,16.000000,2.000000,0.000000,0.000000:
0000
0000
0000
0000
,
0000
0000
0000
0000
,
0000
0000
0000
0000
,
0000
0000
0000
0000
,
0000
0000
0000
0000
,
0000
0000
0000
0000
,
1001
0000
0010
1000
,
0110
0000
0001
0100
,
0010
1000
0001
0000
,
1000
0100
0010
0000
,
0001
0100
0001
0100
,
0010
1000
0010
1000
,
0100
0010
0100
0010
,
0001
1000
0001
1000
,
0010
1000
0010
1000
,
0001
0100
0001
0100
,
0001
1000
0001
1000
,
0010
0100
0010
0100
,
1001
0110
1000
0001
,
0020
0000
0130
0000
,
1001
0110
1000
0010
,
0002
0000
0103
0000
,
0110
0000
1001
0000
,
1000
0100
1000
0000
,
0001
0001
0010
0000
,
0001
0100
1000
0000
,
1001
0000
0010
0000
,
1010
0000
0001
0000
,
0011
0000
0100
0000
,
1100
0000
0010
0000
,
0101
0000
0100
0000
,
0110
0000
0001
0000
,
1000
0001
0010
0000
,
0001
0100
1000
0000
,
0010
1000
0010
0100
,
0001
0010
0100
0010
,
0001
0100
0010
1000
,
0100
0010
0001
0100
,
0001
1000
0001
0010
,
0100
0010
0100
1000
,
0010
1000
0001
0100
,
0010
0100
0110
1001
;

//---------------dance-single - ----------------
#NOTES:
     dance-single:
     :
     Beginner:
     2:
     0.105498,0.146938,0.101162,0.020232,0.000000,73.000000,63.000000,10.000000,2.000000,0.000000,0.000000,0.105498,0.146938,0.101162,0.020232,0.000000,73.000000,63.000000,10.000000,2.000000,0.000000,0.000000:
// measure 0
0000
0000
0000
0000
,  // measure 1
0000
0000
0000
0000
,  // measure 2
0000
0000
0000
0000
,  // measure 3
0000
0000
0000
0000
,  // measure 4
0000
0000
0000
0000
,  // measure 5
0000
0000
0000
0000
,  // measure 6
1001
0000
0000
0000
,  // measure 7
0110
0000
0000
0000
,  // measure 8
1000
1000
0000
0000
,  // measure 9
0001
0001
0000
0000
,  // measure 10
0010
0000
0001
0000
,  // measure 11
0010
0000
0100
0000
,  // measure 12
1000
0000
0010
0000
,  // measure 13
0100
0000
0001
0000
,  // measure 14
0010
0000
0100
0000
,  // measure 15
0010
0000
0001
0000
,  // measure 16
1000
0000
0100
0000
,  // measure 17
1000
0000
0001
0000
,  // measure 18
0100
0000
0100
0000
,  // measure 19
0200
0000
0300
0000
,  // measure 20
0010
0000
0010
0000
,  // measure 21
0020
0000
0030
0000
,  // measure 22
1000
0000
1000
0000
,  // measure 23
0100
0000
0010
0000
,  // measure 24
0001
0000
1000
0000
,  // measure 25
0001
0001
0001
0000
,  // measure 26
1001
0000
0000
0000
,  // measure 27
0110
0000
0000
0000
,  // measure 28
1001
0000
0000
0000
,  // measure 29
0110
0000
0000
0000
,  // measure 30
1001
0000
0000
0000
,  // measure 31
0110
0000
0000
0000
,  // measure 32
1000
1000
0000
0000
,  // measure 33
0001
0001
0000
0000
,  // measure 34
0100
0000
0001
0000
,  // measure 35
0100
0000
0010
0000
,  // measure 36
1000
0000
0100
0000
,  // measure 37
0010
0000
0001
0000
,  // measure 38
1000
0000
0001
0000
,  // measure 39
1000
0000
0010
0000
,  // measure 40
0100
0000
0001
0000
,  // measure 41
0110
0000
1001
0000
;
